<?xml version="1.0" standalone="no"?>
<!DOCTYPE svg PUBLIC "-//W3C//DTD SVG 1.1//EN" "http://www.w3.org/Graphics/SVG/1.1/DTD/svg11.dtd" >
<svg xmlns="http://www.w3.org/2000/svg" xmlns:xlink="http://www.w3.org/1999/xlink" version="1.1">
<metadata>
Created by FontForge 20170731 at Tue Mar 19 18:39:57 2019
 By Aleksey,,,
Copyright 2017 The Playfair Display Project Authors (https://github.com/clauseggers/Playfair-Display), with Reserved Font Name "Playfair Display".
</metadata>
<defs>
<font id="PlayfairDisplay-SemiBoldItalic" horiz-adv-x="645" >
  <font-face 
    font-family="Playfair Display SemiBold"
    font-weight="600"
    font-style="italic"
    font-stretch="normal"
    units-per-em="1000"
    panose-1="0 0 0 0 0 0 0 0 0 0"
    ascent="800"
    descent="-200"
    x-height="523"
    cap-height="708"
    bbox="-371 -241 1145.05 1171"
    underline-thickness="20"
    underline-position="-130"
    slope="-14"
    unicode-range="U+000D-FB02"
  />
<missing-glyph horiz-adv-x="562" 
d="M60 772h442v-772h-442v772zM96 30h370v712h-370v-712z" />
    <glyph glyph-name="IJ" unicode="IJ" horiz-adv-x="830" 
d="M812 366l-1.5 -10l-1.5 -10h-365l1.5 10l1.5 10h365zM310 495q44 0 79 10t66 27l7 -16q-33 -19 -72.5 -30.5t-86.5 -11.5q-49 0 -94.5 12.5t-75.5 41.5t-30 79q0 57 43.5 94.5t119.5 37.5q63 0 111 -15.5t90 -36t88.5 -36t107.5 -15.5q48 0 95 10.5t96 30.5
q20 32 39.5 49t34.5 4q13 -10 0.5 -27t-65.5 -37q-66 -57 -102 -140t-63 -199l-62 -262q-15 -67 -48.5 -125t-88 -93t-134.5 -35q-53 0 -90 16t-38 53q-1 28 18.5 49t54.5 21q28 0 47 -14t20 -39q1 -22 -12.5 -38.5t-36.5 -27.5q8 -1 15 -2.5t15 -1.5q34 0 56.5 20.5
t37.5 57t27.5 85t25.5 104.5l47 187q18 75 45.5 129.5t64 96t81 77t94.5 73.5q-36 -13 -67 -27t-60 -25.5t-60 -19t-67 -7.5q-48 0 -88.5 8t-79 18t-78.5 18t-88 8q-38 0 -61.5 -14t-23.5 -44q0 -28 21 -45t54.5 -25t70.5 -8zM245 491h137l-116 -385q-15 -51 -4.5 -68
t63.5 -18l-4 -20q-26 2 -67 2.5t-84 0.5q-45 0 -83.5 -0.5t-63.5 -2.5l5 20q33 2 51 8t29 24t21 54z" />
    <glyph glyph-name="ij" unicode="ij" horiz-adv-x="633" 
d="M267 91q22 50 31.5 109t19.5 118.5t31 110.5q25 58 67 79.5t87 21.5q47 0 67 -20.5t21.5 -52t-8.5 -67.5l-77 -275q-20 -72 -43.5 -125.5t-54 -89.5t-67.5 -55q-30 -20 -61.5 -26.5t-53.5 -6.5q-40 0 -59.5 14t-19.5 38q0 27 20.5 48t50.5 21q23 0 36.5 -13t13.5 -32
q0 -16 -9.5 -32.5t-25.5 -28.5q38 5 60.5 28.5t38.5 79.5l139 496q8 27 0.5 40.5t-26.5 13.5q-25 0 -45.5 -17.5t-39.5 -64.5q-16 -45 -24.5 -101.5t-19.5 -116t-35 -112.5t-63.5 -70t-79.5 -17q-71 0 -94 41.5t1 111.5l101 292q10 29 6.5 41.5t-18.5 12.5q-20 0 -36 -20.5
t-34 -65.5l-17 -47h-19l26 75q22 60 58.5 81.5t75.5 21.5q45 0 63 -21t18 -53t-12 -66l-106 -305q-9 -25 0 -41.5t35 -16.5q21 0 43 14t38 50zM190 680q0 37 26.5 63t66.5 26q32 0 49.5 -15.5t17.5 -42.5q0 -35 -27.5 -61.5t-67.5 -26.5q-30 0 -47.5 15.5t-17.5 41.5z
M518 680q0 37 26.5 63t66.5 26q31 0 48.5 -15.5t17.5 -42.5q0 -35 -27 -61.5t-67 -26.5q-30 0 -47.5 15.5t-17.5 41.5z" />
    <glyph glyph-name="fi" unicode="fi" horiz-adv-x="595" 
d="M59 496l6 20h426l-8 -20h-424zM596 736q-18 16 -39 23t-56 7q-37 0 -65.5 -8.5t-49.5 -22.5q-38 -24 -60 -71t-42 -119l-199 -719q-36 -1 -66.5 -4t-59.5 -10l191 689q21 79 50.5 132t75.5 86q49 35 106.5 49t121.5 14q31 0 61.5 -8t46.5 -29zM467 688q3 37 29.5 58
t62.5 21q33 0 51 -18.5t15 -45.5q-3 -34 -30 -57t-64 -23q-32 0 -50 18.5t-14 46.5zM431 85q-8 -28 -4.5 -41t19.5 -13q15 0 31.5 17.5t36.5 68.5l16 45h19l-25 -73q-14 -40 -36.5 -62.5t-48 -31.5t-48.5 -9q-43 0 -62 20t-18.5 55t14.5 78l112 377q36 1 68 4t59 10z" />
    <glyph glyph-name="fl" unicode="fl" horiz-adv-x="604" 
d="M440 85q-7 -27 -2.5 -40.5t19.5 -13.5q14 0 30.5 17.5t34.5 68.5l16 45h19l-25 -73q-13 -40 -34 -62.5t-45 -31.5t-49 -9q-43 0 -62.5 20.5t-20 55.5t11.5 77l159 528q10 34 -1.5 52t-60.5 18l6 17q66 1 116.5 11.5t97.5 29.5zM60 496l6 20h310l-6 -20h-310zM427 737
q-19 0 -37 -7t-29 -15q-27 -16 -42 -52t-30 -92l-203 -745q-36 -1 -67 -4t-60 -10l189 689q18 70 42.5 118t60.5 77q35 29 81 43.5t97 14.5h51l-1 -17h-52z" />
    <glyph glyph-name="f_f" unicode="ff" horiz-adv-x="644" 
d="M57 496l6 20h323l-6 -20h-323zM95 -174q-36 -1 -67 -4t-60 -10l182 675q18 67 46.5 118t62.5 77q38 32 82.5 46t93.5 14q50 0 82 -18t49 -38l-12 -16q-14 22 -38.5 35t-61.5 13q-46 0 -78 -22t-53.5 -65t-38.5 -103zM368 496l6 20h319l-6 -20h-319zM719 765
q-17 0 -30.5 -6t-24.5 -16q-21 -20 -36 -67.5t-31 -107.5l-199 -742q-36 -1 -67 -4t-60 -10l187 699q22 83 49 137t64 86q27 23 62 35.5t74 12.5q57 0 88 -24.5t31 -62.5q0 -29 -23 -55.5t-60 -26.5q-26 0 -41.5 12.5t-14.5 35.5q0 30 19 53.5t51 33.5q-3 7 -13 12t-25 5z
" />
    <glyph glyph-name="f_f_i" unicode="ffi" horiz-adv-x="897" 
d="M58 496l6 20h323l-6 -20h-323zM92 -174q-36 -1 -66.5 -4t-59.5 -10l185 675q18 67 46.5 117.5t61.5 77.5q38 31 81.5 45.5t91.5 14.5q56 0 90 -19t52 -41l-12 -17q-15 24 -42.5 38.5t-64.5 14.5q-24 0 -44 -5.5t-37 -17.5q-30 -21 -50.5 -60.5t-38.5 -106.5zM361 496
l6 20h427l-9 -20h-424zM899 736q-19 16 -40 23t-56 7q-36 0 -65 -8.5t-50 -22.5q-38 -24 -59.5 -71t-41.5 -119l-199 -719q-36 -1 -67 -4t-60 -10l192 689q21 79 50.5 132t74.5 86q49 35 106.5 49t121.5 14q31 0 62 -8t47 -29zM769 688q3 37 30 58t63 21q33 0 50.5 -18.5
t14.5 -45.5q-3 -34 -30 -57t-63 -23q-33 0 -51 18.5t-14 46.5zM734 85q-9 -28 -5 -41t19 -13q16 0 32 17.5t36 68.5l17 45h19l-26 -73q-14 -40 -36.5 -62.5t-47.5 -31.5t-49 -9q-43 0 -62 20t-18.5 55t14.5 78l112 377q36 1 68 4t59 10z" />
    <glyph glyph-name="f_f_l" unicode="ffl" horiz-adv-x="909" 
d="M58 496l6 20h323l-6 -20h-323zM92 -174q-36 -1 -66.5 -4t-59.5 -10l185 675q18 67 46.5 117.5t61.5 77.5q38 31 81.5 45.5t91.5 14.5q56 0 90 -19t52 -41l-12 -17q-15 24 -42.5 38.5t-64.5 14.5q-25 0 -46 -6t-38 -19q-29 -21 -49 -60t-37 -105zM746 85
q-8 -27 -3.5 -40.5t19.5 -13.5q14 0 30.5 17.5t35.5 68.5l16 45h19l-25 -73q-14 -40 -35 -62.5t-45 -31.5t-49 -9q-43 0 -62.5 20.5t-20 55.5t11.5 77l159 528q10 34 -1 52t-60 18l5 17q66 1 116.5 11.5t97.5 29.5zM365 496l6 20h311l-6 -20h-311zM733 737q-20 0 -37.5 -7
t-29.5 -15q-26 -16 -41.5 -52t-30.5 -92l-203 -745q-36 -1 -66.5 -4t-59.5 -10l188 689q19 70 43 118t61 77q35 29 81 43.5t96 14.5h51l-1 -17h-51z" />
    <glyph glyph-name="T_h.liga" unicode="Th" horiz-adv-x="1168" 
d="M743 146q38 111 72 185t68 117.5t70.5 62.5t78.5 19q43 0 62.5 -20t20.5 -54.5t-12 -76.5l-98 -294q-8 -21 -6 -37.5t20 -16.5q15 0 32 17t36 69l16 45h19l-25 -73q-22 -63 -58.5 -83t-71.5 -20q-63 0 -77.5 40.5t8.5 112.5l92 275q6 18 8.5 34.5t-2 27t-21.5 10.5
q-35 0 -80 -57.5t-90 -163t-84 -252.5zM807 771q36 3 68.5 8.5t60.5 15.5l-218 -795h-12.5h-31h-36.5h-30.5h-12.5zM406 689l13 -1t33 -3t40 -4.5t33 -4l13 -1.5l-148 -559q-15 -56 -0.5 -74.5t75.5 -21.5l-4 -20q-30 2 -76.5 2.5t-96.5 0.5q-49 0 -94 -0.5t-72 -2.5l4 20
q42 2 66 10.5t37.5 29t23.5 56.5zM820 689q-35 -20 -75.5 -27.5t-92.5 -7.5q-58 0 -121 9t-125 18t-117 9q-33 0 -64.5 -3.5t-48.5 -13.5q20 -8 33 -28t13 -46q0 -29 -18.5 -51.5t-50.5 -22.5q-30 0 -46 20t-16 48q0 23 12.5 48.5t48.5 43.5q23 11 49.5 16t49.5 6t35 1
q68 0 130.5 -8.5t122.5 -17t121 -8.5q53 0 86.5 7.5t68.5 25.5z" />
    <glyph glyph-name="f_b.liga" unicode="fb" horiz-adv-x="854" 
d="M60 496l6 20h310l-6 -20h-310zM437 737q-46 0 -81 -27t-56 -102l-214 -782q-36 -1 -67 -4t-60 -10l193 705q22 76 58.5 129t93 80.5t137.5 27.5zM658 484q-22 0 -48.5 -29t-53.5 -79.5t-50.5 -113.5t-40.5 -132l18 104q55 159 107 227.5t114 68.5q57 0 87.5 -38
t30.5 -112q0 -46 -13.5 -99t-39 -105t-62 -95.5t-84.5 -69t-106 -25.5q-30 0 -53 14t-33 39l8 17q11 -23 25.5 -33t33.5 -10q31 0 60.5 25.5t54 68.5t43.5 95.5t29.5 106t10.5 100.5q0 40 -10.5 57.5t-27.5 17.5zM442 40q-30 -7 -62.5 -22.5t-62.5 -33.5l-15 7q7 14 12 28.5
t8 29.5l169 618q7 34 -3.5 52t-53.5 18l6 17q64 1 113 11.5t93 29.5z" />
    <glyph glyph-name="f_f_b.liga" unicode="ffb" horiz-adv-x="1161" 
d="M58 496l6 20h323l-6 -20h-323zM92 -174q-36 -1 -66.5 -4t-59.5 -10l185 675q18 67 46.5 117.5t61.5 77.5q37 31 81 45.5t92 14.5q50 0 87.5 -17.5t57.5 -39.5l-11 -14q-18 21 -46 34t-65 13q-47 0 -79 -22t-53 -64t-38 -104zM367 496l6 20h310l-6 -20h-310zM745 737
q-46 0 -81 -27t-57 -102l-214 -782q-36 -1 -67 -4t-59 -10l192 705q22 76 58.5 129t93 80.5t137.5 27.5zM965 484q-22 0 -48.5 -29t-53.5 -79.5t-50.5 -113.5t-40.5 -132l18 104q55 159 107 227.5t115 68.5q56 0 86.5 -38t30.5 -112q0 -46 -13 -99t-38.5 -105t-62.5 -95.5
t-85 -69t-106 -25.5q-29 0 -52.5 14t-33.5 39l8 17q12 -23 26 -33t33 -10q31 0 60.5 25.5t54 68.5t43.5 95.5t29.5 106t10.5 100.5q0 40 -10 57.5t-28 17.5zM750 40q-30 -7 -63 -22.5t-63 -33.5l-15 7q7 14 12 28.5t8 29.5l169 618q7 34 -3 52t-53 18l5 17q64 1 113 11.5
t93 29.5z" />
    <glyph glyph-name="f_f_h.liga" unicode="ffh" horiz-adv-x="1181" 
d="M58 496l6 20h323l-6 -20h-323zM92 -174q-36 -1 -66.5 -4t-59.5 -10l185 675q18 67 46.5 117.5t61.5 77.5q37 32 81 46t92 14q56 0 90 -19t52 -41l-12 -17q-15 24 -42.5 38.5t-64.5 14.5q-47 0 -79 -21.5t-53 -63.5t-38 -105zM363 496l6 20h311l-6 -20h-311zM756 146
q37 111 71 185t68 117.5t71 62.5t79 19q44 0 63.5 -21t19.5 -55.5t-13 -74.5l-98 -294q-8 -26 -5 -40t20 -14q15 0 31.5 17t35.5 69l16 45h19l-25 -73q-22 -63 -58.5 -83t-70.5 -20q-64 0 -78.5 40.5t9.5 112.5l91 275q6 16 9 33t-1.5 28t-22.5 11q-26 0 -59 -37.5t-68 -103
t-67.5 -151t-58.5 -181.5zM730 0h-123l188 667q9 34 -1.5 52t-53.5 18l5 17q63 1 113.5 11.5t94.5 29.5zM741 737q-46 0 -81.5 -27t-56.5 -102l-214 -782q-36 -1 -66.5 -4t-59.5 -10l193 705q31 115 98.5 176t190.5 61z" />
    <glyph glyph-name="f_f_j.liga" unicode="ffj" horiz-adv-x="890" 
d="M58 496l6 20h323l-6 -20h-323zM92 -174q-36 -1 -66.5 -4t-59.5 -10l185 675q18 67 46.5 117.5t61.5 77.5q37 32 81 46t92 14q56 0 90 -19t52 -41l-12 -17q-15 24 -42.5 38.5t-64.5 14.5q-47 0 -79 -21.5t-53 -63.5t-38 -105zM771 115q-20 -72 -44 -125.5t-54 -89.5
t-68 -55q-30 -20 -61 -26.5t-53 -6.5q-41 0 -60 14t-19 38q0 27 20.5 48t49.5 21q24 0 37 -13t13 -32q0 -16 -9.5 -32.5t-24.5 -28.5q38 5 60.5 28.5t38.5 79.5l163 581q35 1 67.5 4t59.5 10zM363 496l6 20h426l-8 -20h-424zM892 743q-13 9 -34 16t-49 7q-65 0 -107 -27
t-68 -76t-46 -118l-150 -545h-122l138 501q21 79 52.5 132t76.5 86q48 35 106.5 48.5t122.5 13.5q33 0 58.5 -7.5t38.5 -18.5zM774 688q3 37 30 58t63 21q33 0 51 -18.5t15 -45.5q-3 -34 -30.5 -57t-63.5 -23q-32 0 -50 18.5t-15 46.5z" />
    <glyph glyph-name="f_f_k.liga" unicode="ffk" horiz-adv-x="1162" 
d="M58 496l6 20h323l-6 -20h-323zM92 -174q-36 -1 -66.5 -4t-59.5 -10l185 675q18 67 46.5 117.5t61.5 77.5q37 32 81 46t92 14q56 0 90 -19t52 -41l-12 -17q-15 24 -42.5 38.5t-64.5 14.5q-47 0 -79 -21.5t-53 -63.5t-38 -105zM363 496l6 20h311l-6 -20h-311zM741 737
q-46 0 -81.5 -27t-56.5 -102l-214 -782q-36 -1 -66.5 -4t-59.5 -10l193 705q31 115 98.5 176t190.5 61zM730 0h-12.5h-30.5h-36h-31h-13l188 667q10 34 -0.5 52t-53.5 18l4 17q44 1 79.5 5.5t67 13.5t61.5 22zM997 72q-5 -23 -1 -32t18 -9q15 0 31 17.5t34 68.5l16 45h19
l-25 -73q-13 -41 -35 -63t-48 -31t-52 -9q-44 0 -64.5 27t-8.5 82l17 80q13 55 -7.5 80t-91.5 31v4q42 3 84 0t75 -17.5t49 -42.5t7 -74zM1057 510q-13 0 -22.5 -4t-17.5 -11q-19 -15 -30.5 -40.5t-23.5 -54.5t-29.5 -55t-46.5 -42.5t-76 -15.5l-10 -1l2 11q46 3 73.5 20
t43.5 42.5t27 53.5t22.5 53t32.5 41q16 14 32 18.5t29 4.5q44 0 63.5 -24t18.5 -57q-1 -30 -21 -54.5t-55 -24.5q-28 0 -42 16.5t-13 37.5q0 24 16.5 45.5t37.5 35.5q-2 2 -4.5 3.5t-6.5 1.5z" />
    <glyph glyph-name="f_h.liga" unicode="fh" horiz-adv-x="877" 
d="M60 496l6 20h310l-6 -20h-310zM452 146q38 111 72 185t67.5 117.5t70.5 62.5t79 19q44 0 63.5 -21t20 -55.5t-12.5 -74.5l-98 -294q-9 -26 -6 -40t20 -14q15 0 32 17t36 69l16 45h19l-25 -73q-22 -63 -58.5 -83t-71.5 -20q-63 0 -77.5 40.5t8.5 112.5l92 275q5 16 8 33
t-1.5 28t-21.5 11q-27 0 -60 -37.5t-68 -103t-67.5 -151t-58.5 -181.5zM427 0h-123l188 667q9 34 -2 52t-54 18l5 17q63 1 114 11.5t95 29.5zM437 737q-46 0 -81.5 -27t-55.5 -102l-214 -782q-36 -1 -67 -4t-60 -10l193 705q31 115 99 176t190 61z" />
    <glyph glyph-name="f_idieresis.liga" unicode="f&#xef;" horiz-adv-x="589" 
d="M60 496l6 20h426l-9 -20h-423zM467 723q-10 14 -27.5 23.5t-37.5 9.5q-25 0 -44 -9t-32 -24q-18 -17 -25.5 -42.5t-11.5 -55t-6.5 -59t-9.5 -55.5l-187 -685q-36 -1 -67 -4t-60 -10l189 689q18 70 42.5 126.5t66.5 92.5q28 24 63 36.5t78 12.5q32 0 54.5 -10t35.5 -26z
M426 85q-8 -27 -4.5 -40.5t18.5 -13.5q16 0 33 18.5t35 67.5l16 45h19l-25 -73q-14 -42 -37 -64t-48 -30.5t-47 -8.5q-56 0 -68.5 42.5t7.5 110.5l112 377q36 1 68 4t59 10zM361 676q0 35 24 57t55 22q29 0 44.5 -17.5t15.5 -44.5q0 -35 -24.5 -56.5t-55.5 -21.5
q-29 0 -44 17.5t-15 43.5zM583 676q0 35 24 57t56 22q28 0 44 -17.5t16 -44.5q0 -35 -24.5 -56.5t-55.5 -21.5q-30 0 -45 17.5t-15 43.5z" />
    <glyph glyph-name="f_igrave.liga" unicode="f&#xec;" horiz-adv-x="589" 
d="M60 496l6 20h426l-9 -20h-423zM473 658q-26 30 -45 45t-47 15q-26 0 -42.5 -21t-28.5 -57.5t-25 -84.5l-199 -729q-36 -1 -67 -4t-60 -10l189 689q23 82 52 134.5t69 77.5t91 25q37 0 63 -16t53 -49zM426 85q-8 -29 -4.5 -41.5t18.5 -12.5q16 0 33 18.5t35 67.5l16 45h19
l-25 -73q-14 -42 -37 -64t-48 -30.5t-47 -8.5q-57 0 -69 43t8 110l112 377q36 1 68 4t59 10zM522 599q-37 48 -65 78t-48.5 51.5t-33.5 43.5q-14 23 -10 43t20 29q19 10 40 3t34 -29q14 -22 22 -50t19.5 -66.5t34.5 -96.5z" />
    <glyph glyph-name="f_j.liga" unicode="fj" horiz-adv-x="586" 
d="M467 115q-20 -72 -44 -125.5t-53.5 -89.5t-68.5 -55q-29 -20 -60.5 -26.5t-53.5 -6.5q-40 0 -59.5 14t-19.5 38q0 27 20.5 48t49.5 21q24 0 37.5 -13t13.5 -32q0 -16 -9.5 -32.5t-25.5 -28.5q38 5 60.5 28.5t38.5 79.5l163 581q36 1 68 4t59 10zM59 496l6 20h426l-8 -20
h-424zM588 743q-13 9 -34 16t-49 7q-65 0 -107 -27t-68 -76t-46 -118l-149 -545h-123l138 501q21 79 52.5 132t76.5 86q48 35 106.5 48.5t122.5 13.5q34 0 59 -7.5t38 -18.5zM471 688q3 37 29.5 58t62.5 21q33 0 51 -18.5t15 -45.5q-3 -34 -30 -57t-64 -23q-32 0 -50 18.5
t-14 46.5z" />
    <glyph glyph-name="f_k.liga" unicode="fk" horiz-adv-x="859" 
d="M60 496l6 20h310l-6 -20h-310zM437 737q-46 0 -81.5 -27t-55.5 -102l-214 -782q-36 -1 -67 -4t-60 -10l193 705q31 115 99 176t190 61zM427 0h-12.5h-30.5h-36.5h-31h-12.5l188 667q10 34 -1 52t-54 18l4 17q44 1 79.5 5.5t67 13.5t62.5 22zM693 72q-4 -23 0 -32t17 -9
q16 0 32 17.5t34 68.5l15 45h19l-24 -73q-14 -41 -35.5 -63t-47.5 -31t-53 -9q-43 0 -64 27t-9 82l18 80q12 55 -8.5 80t-90.5 31v4q42 3 84 0t74.5 -17.5t49 -42.5t6.5 -74zM754 510q-13 0 -22.5 -4t-18.5 -11q-18 -15 -30 -40.5t-23.5 -54.5t-29 -55t-46.5 -42.5
t-76 -15.5l-10 -1l2 11q46 3 73 20t43.5 42.5t27 53.5t22.5 53t32 41q17 14 33 18.5t29 4.5q44 0 63 -24t18 -57q-1 -30 -20.5 -54.5t-54.5 -24.5q-29 0 -43 16.5t-13 37.5q1 24 17 45.5t38 35.5q-2 2 -5 3.5t-6 1.5z" />
    <glyph glyph-name=".notdef" horiz-adv-x="562" 
d="M60 772h442v-772h-442v772zM96 30h370v712h-370v-712z" />
    <glyph glyph-name=".null" horiz-adv-x="0" 
 />
    <glyph glyph-name="nonmarkingreturn" horiz-adv-x="333" 
 />
    <glyph glyph-name="CR" unicode="&#xd;" horiz-adv-x="0" 
 />
    <glyph glyph-name="space" unicode=" " horiz-adv-x="255" 
 />
    <glyph glyph-name="exclam" unicode="!" horiz-adv-x="297" 
d="M111 199q22 88 33.5 172.5t18 160t15.5 133.5q2 21 7 41.5t15 37.5t25.5 27.5t36.5 10.5q35 0 49.5 -20.5t9.5 -53.5q-6 -45 -29 -101t-53 -122t-59.5 -138.5t-50.5 -150.5zM19 43q0 37 26.5 63t62.5 26q29 0 45.5 -16t16.5 -43q0 -34 -27 -60.5t-63 -26.5
q-29 0 -45 15.5t-16 41.5z" />
    <glyph glyph-name="quotedbl" unicode="&#x22;" horiz-adv-x="359" 
d="M261 687q0 -26 -15.5 -54t-37.5 -60.5t-42 -74.5h-14q2 45 -0.5 73t-3.5 49t2 42q3 31 21.5 49.5t44.5 18.5q22 0 33.5 -11.5t11.5 -31.5zM406 687q0 -26 -15.5 -54t-37.5 -60.5t-42 -74.5h-14q2 45 -0.5 73t-3.5 49t2 42q3 31 21.5 49.5t44.5 18.5q22 0 33.5 -11.5
t11.5 -31.5z" />
    <glyph glyph-name="numbersign" unicode="#" horiz-adv-x="630" 
d="M629 454l-8 -20h-501l8 20h501zM543 267l-10 -20h-500l9 20h501zM323 101h-24l232 501h24zM136 101h-24l232 501h24z" />
    <glyph glyph-name="dollar" unicode="$" horiz-adv-x="590" 
d="M402 840l-270 -972h-22l270 972h22zM498 840l-270 -972h-22l270 972h22zM374 701q-54 0 -91 -27.5t-37 -84.5q0 -42 27.5 -79.5t67.5 -73t80 -73t67 -79.5t27 -92q0 -58 -26 -97.5t-67.5 -63.5t-89.5 -34.5t-93 -10.5q-67 0 -106.5 16.5t-68.5 36.5q-27 19 -44 48t-17 65
q0 39 19 67t52 28q31 0 47.5 -22.5t16.5 -55.5q0 -37 -15 -68t-29 -52q24 -19 59 -30.5t80 -11.5q72 0 107.5 29t35.5 85q0 44 -25 81t-61.5 71t-73 70t-62 78t-25.5 95q0 55 21.5 94t56.5 64t76.5 36.5t83.5 11.5q67 0 106.5 -16.5t68.5 -36.5q25 -17 43 -46.5t18 -66.5
q0 -39 -18.5 -67t-52.5 -28q-31 0 -48 22.5t-17 55.5q0 37 16 68t29 52q-23 19 -58.5 30.5t-79.5 11.5z" />
    <glyph glyph-name="percent" unicode="%" horiz-adv-x="786" 
d="M323 745q-29 0 -51.5 -24.5t-38 -62t-23 -76.5t-7.5 -68q0 -65 40 -65q29 0 51.5 24.5t38 62t23 77t7.5 68.5q0 64 -40 64zM112 545q0 51 28.5 100.5t78 82.5t112.5 33q58 0 90.5 -29t32.5 -83q0 -50 -28 -100t-77 -83t-113 -33q-58 0 -91 29.5t-33 82.5zM585 298
q-30 0 -52.5 -24.5t-37.5 -62t-22.5 -76.5t-7.5 -68q0 -65 40 -65q29 0 51.5 24.5t37.5 62t23 77t8 68.5q0 64 -40 64zM374 98q0 51 28 100.5t78 82.5t113 33q58 0 90.5 -29.5t32.5 -82.5q0 -50 -28.5 -100t-77.5 -83t-112 -33q-58 0 -91 29t-33 83zM833 824l15 -13
l-833 -866l-15 13z" />
    <glyph glyph-name="ampersand" unicode="&#x26;" horiz-adv-x="848" 
d="M556 212q-12 -23 -41 -47t-81 -24q-29 0 -55.5 10.5t-43.5 34.5t-17 64q0 62 44.5 103.5t127.5 69.5q32 11 78 26t94.5 32t88.5 33q29 12 55.5 26t43.5 34t17 48q0 38 -29 61t-70 23q-22 0 -30 -7q35 -16 35 -51q0 -30 -25 -49t-56 -19q-28 0 -46 15.5t-18 41.5
q0 25 17 43t41 28q19 8 40 11t39 3q57 0 94.5 -29t37.5 -98t-41.5 -112.5t-125.5 -76.5q-36 -15 -85 -32.5t-97.5 -34t-88.5 -31.5q-24 -8 -46.5 -20t-36.5 -29t-14 -40q0 -31 23.5 -45.5t52.5 -14.5q30 0 51 11.5t34.5 26t17.5 23.5zM443 566q25 0 41 14t16 37
q0 27 -22.5 43t-57.5 16q-37 0 -68.5 -18.5t-50 -51t-18.5 -74.5q0 -15 3 -31t11 -31q18 3 36 4.5t27 1.5q36 0 36 -21q0 -11 -10 -16t-21 -5q-19 0 -38.5 8.5t-30.5 13.5q-58 -20 -95.5 -76.5t-37.5 -126.5q0 -61 29 -102t82 -62t124 -21t132.5 21t99.5 63t38 102
q0 37 -18.5 74.5t-63.5 60.5l13 8q43 -25 66 -64.5t23 -89.5q0 -47 -22 -93t-66.5 -83t-110 -59t-153.5 -22q-89 0 -157.5 25t-107.5 73.5t-39 118.5q0 63 31.5 116t88 90.5t131.5 54.5q-42 17 -62 46t-20 61q0 43 30 72t75 44t91 15q61 0 93 -23t32 -60q0 -36 -26.5 -53.5
t-53.5 -17.5z" />
    <glyph glyph-name="quotesingle" unicode="'" horiz-adv-x="215" 
d="M261 687q0 -26 -15.5 -54t-37.5 -60.5t-42 -74.5h-14q2 45 -0.5 73t-3.5 49t2 42q3 31 21.5 49.5t44.5 18.5q22 0 33.5 -11.5t11.5 -31.5z" />
    <glyph glyph-name="parenleft" unicode="(" horiz-adv-x="385" 
d="M229 -182q-58 57 -101.5 117t-67.5 130t-24 158q0 84 34.5 165.5t96.5 157.5t145.5 142t180.5 118l10 -13q-105 -74 -184 -161t-122.5 -194t-43.5 -240q0 -105 23 -194.5t71 -172.5z" />
    <glyph glyph-name="parenright" unicode=")" horiz-adv-x="385" 
d="M165 806q58 -57 101.5 -117t67.5 -130t24 -158q0 -84 -34.5 -165.5t-96.5 -157.5t-145.5 -142t-180.5 -118l-10 13q105 74 184 161t122.5 194t43.5 240q0 105 -23 194.5t-71 172.5z" />
    <glyph glyph-name="asterisk" unicode="*" horiz-adv-x="488" 
d="M303 518q29 56 50.5 92.5t26.5 64.5q7 30 -4 42t-28 12q-16 0 -33 -12t-24 -42q-5 -28 -0.5 -66t9.5 -91h3zM302 519q-30 43 -48 72.5t-41 43.5q-22 15 -40.5 9t-29.5 -20q-12 -15 -13 -33.5t22 -33.5q20 -13 58.5 -20.5t88.5 -20.5zM301 519q-59 -14 -98.5 -20.5
t-68.5 -20.5q-29 -16 -37 -33.5t-2 -31.5q5 -15 21 -21.5t46 8.5q27 14 60 45t79 71v3zM301 518q-30 -56 -51 -92t-27 -65q-7 -31 3.5 -42.5t27.5 -11.5q16 0 33.5 12t24.5 42q6 28 1 66t-9 91h-3zM460 412q12 15 13 33.5t-22 33.5q-20 14 -58.5 21t-89.5 20l-3 -3
q31 -42 49.5 -72t39.5 -44q23 -15 41.5 -9t29.5 20zM508 623q-4 15 -20.5 21.5t-47.5 -8.5q-26 -14 -59 -45t-80 -71v-3q60 14 99.5 20.5t68.5 20.5q29 15 37 33t2 32z" />
    <glyph glyph-name="plus" unicode="+" horiz-adv-x="579" 
d="M60 370h233l67 236h36l-67 -236h232l-9 -30h-232l-67 -235h-36l67 235h-233z" />
    <glyph glyph-name="comma" unicode="," horiz-adv-x="275" 
d="M154 63q0 -59 -39.5 -112.5t-108.5 -86.5l-5 16q45 24 75 59t33 74q-13 -12 -28 -19.5t-32 -7.5q-54 0 -54 47q0 26 14 48t37 36.5t49 14.5q29 0 44 -18.5t15 -50.5z" />
    <glyph glyph-name="hyphen" unicode="-" horiz-adv-x="505" 
d="M73 298h361l-20 -74h-361z" />
    <glyph glyph-name="period" unicode="." horiz-adv-x="267" 
d="M-1 43q0 37 26.5 63t62.5 26q29 0 45.5 -16t16.5 -43q0 -34 -27 -60.5t-63 -26.5q-28 0 -44.5 15.5t-16.5 41.5z" />
    <glyph glyph-name="slash" unicode="/" horiz-adv-x="463" 
d="M-43 -14l548 736h33l-548 -736h-33z" />
    <glyph glyph-name="zero" unicode="0" horiz-adv-x="603" 
d="M373 531q88 0 135.5 -48.5t47.5 -132.5q0 -67 -27 -132t-74.5 -117.5t-109 -83.5t-131.5 -31q-87 0 -137.5 47.5t-50.5 133.5q0 68 27.5 132.5t76 117t111 83.5t132.5 31zM356 513q-42 0 -78.5 -31.5t-64.5 -83.5t-43.5 -116t-15.5 -131q0 -81 22.5 -114t54.5 -33
q43 0 79.5 32.5t62.5 86t40.5 118t14.5 129.5q0 78 -20 110.5t-52 32.5z" />
    <glyph glyph-name="one" unicode="1" horiz-adv-x="362" 
d="M339 528l-157 -528h-123l127 426q-27 -13 -59 -24t-80 -24l3 21q104 27 164 61.5t105 67.5h20z" />
    <glyph glyph-name="two" unicode="2" horiz-adv-x="524" 
d="M314 530q69 0 110 -27.5t41 -75.5q0 -39 -25.5 -76t-65.5 -70.5t-85.5 -63.5t-87 -56t-68.5 -46q25 0 58.5 -7t68.5 -14t65 -7q37 0 59 12t22 36q0 33 -40 52l12 13q28 -14 42 -34t14 -49q0 -30 -15 -58.5t-47 -46.5t-84 -18q-48 0 -92 14t-99 16q-39 2 -64 -4.5
t-56 -19.5l5 21q26 21 70 52.5t94 70.5t94.5 84.5t73 94t28.5 97.5q0 41 -20.5 62.5t-56.5 21.5q-38 0 -78 -23t-66.5 -59t-26.5 -75q0 -24 13 -36t44 -12q29 0 49.5 10.5t43.5 30.5l12 -14q-28 -26 -57 -37t-54 -11t-50 13t-25 55q0 44 31.5 86.5t86.5 70t126 27.5z" />
    <glyph glyph-name="three" unicode="3" horiz-adv-x="507" 
d="M307 532q71 0 113 -26.5t42 -73.5q0 -35 -21 -64.5t-54.5 -52.5t-72.5 -39.5t-75 -25.5q50 -1 91 -14t65 -39t24 -67q0 -53 -33 -96.5t-87.5 -77.5t-121 -57.5t-134.5 -36t-127 -13.5l5 18q59 4 123.5 23t120 53.5t90.5 84t35 115.5q0 40 -18 64.5t-51 26.5
q-16 -7 -30.5 -12t-27.5 -5q-8 0 -14 3t-3 12q3 14 22 17t45 1q53 22 92 64t39 98q0 42 -23.5 66t-66.5 24q-34 0 -69.5 -18t-59.5 -46t-24 -59q0 -24 13.5 -36t44.5 -12q34 0 62 15l11 -15q-21 -11 -41.5 -16t-38.5 -5q-25 0 -50 13t-25 55q0 37 31 72t83 58.5t116 23.5z
" />
    <glyph glyph-name="four" unicode="4" horiz-adv-x="529" 
d="M415 531l3 -25l-450 -453l17 32h469l-12 -43h-497l6 21zM441 531l-179 -672h-123l141 527l135 145h26z" />
    <glyph glyph-name="five" unicode="5" horiz-adv-x="467" 
d="M431 538l12 -7q-25 -59 -61 -94.5t-84 -35.5q-21 0 -43.5 10t-43.5 19t-39 6l-99 -210q30 17 67 26t82 9q87 0 126 -32.5t39 -84.5q0 -57 -31 -103t-82.5 -80.5t-114 -58.5t-126.5 -36t-119 -14l5 18q55 0 114 18t109.5 52.5t82 85t31.5 116.5q0 40 -22 64.5t-75 24.5
q-17 0 -42 -4.5t-61 -22.5l-10 5l143 309q27 2 49 -4.5t46 -13.5t57 -7q28 0 50.5 10t39.5 35z" />
    <glyph glyph-name="six" unicode="6" horiz-adv-x="553" 
d="M538 722l6 -20q-67 -18 -135.5 -67t-125 -125t-91.5 -173t-35 -210q0 -71 16 -96t43 -25q37 0 66.5 30t51 76.5t32.5 98t11 93.5q0 51 -15 72t-39 21q-25 0 -52.5 -24t-47.5 -86l-17 6q17 55 43 87t57.5 45t64.5 13q60 0 98 -38.5t38 -112.5q0 -58 -24.5 -112t-68 -96.5
t-100 -67.5t-120.5 -25q-81 0 -122.5 45t-41.5 137q0 89 34.5 168.5t90.5 145.5t123.5 116.5t135.5 82t124 41.5z" />
    <glyph glyph-name="seven" unicode="7" horiz-adv-x="498" 
d="M196 522q44 0 80 -11.5t72.5 -23t80.5 -13.5q30 -1 55 6.5t45 35.5h28q-53 -64 -103.5 -121.5t-95 -117t-79.5 -128t-58 -155.5q-5 -22 -8 -35.5t-4 -23t-4 -20.5q-7 -26 -27 -44.5t-54 -18.5q-25 0 -36.5 11t-13 30t3.5 39q12 55 48.5 115.5t88 121.5t107 119
t105.5 108.5t84 90.5l8 2.5l8 2.5q-43 -31 -78 -52t-67 -31.5t-67 -10.5t-61 8t-49 15.5t-51 7.5q-33 0 -55 -15t-22 -47q0 -40 32 -65.5t95 -40.5l-6 -16q-68 14 -110.5 47.5t-42.5 95.5q0 32 15 62.5t49 51t87 20.5z" />
    <glyph glyph-name="eight" unicode="8" horiz-adv-x="564" 
d="M410 722q67 0 113 -25.5t46 -81.5q0 -38 -22 -70.5t-56 -60.5t-73 -50.5t-75 -39.5l-4 10q30 22 55.5 56t41.5 75.5t16 85.5q0 83 -64 83q-31 0 -59 -19.5t-44.5 -51.5t-16.5 -71q0 -45 22 -79.5t54 -64t64.5 -60t54.5 -67.5t22 -87q0 -49 -23.5 -89t-64.5 -69
t-93.5 -44.5t-111.5 -15.5q-53 0 -96.5 13.5t-68.5 42.5t-25 74t23.5 83t62.5 70.5t86 57.5t93 43l4 -10q-62 -38 -103.5 -107.5t-41.5 -148.5q0 -44 17.5 -72t64.5 -28q40 0 76 21.5t58.5 59.5t22.5 87t-21.5 85.5t-52.5 66.5l-62 60t-52.5 65t-21.5 82q0 58 37 101
t95.5 66.5t122.5 23.5z" />
    <glyph glyph-name="nine" unicode="9" horiz-adv-x="541" 
d="M335 530q82 0 123 -44.5t41 -137.5q0 -86 -33 -163t-88 -141t-121 -112.5t-133 -79t-123 -40.5l-6 20q66 17 132.5 65t122 121.5t89 167.5t33.5 203q0 71 -15.5 96t-43.5 25q-36 0 -66 -30t-51 -76.5t-32.5 -98t-11.5 -93.5q0 -51 15.5 -72t39.5 -21q25 0 52.5 24
t47.5 86l16 -6q-16 -55 -42 -87t-57.5 -45t-64.5 -13q-60 0 -98.5 38.5t-38.5 112.5q0 59 24.5 112.5t68 96t100.5 67.5t120 25z" />
    <glyph glyph-name="colon" unicode=":" horiz-adv-x="300" 
d="M114 441q0 37 26.5 63t62.5 26q29 0 45.5 -16t16.5 -43q0 -34 -27 -60.5t-63 -26.5q-28 0 -44.5 15.5t-16.5 41.5zM14 43q0 37 26.5 63t62.5 26q29 0 45.5 -16t16.5 -43q0 -34 -27 -60.5t-63 -26.5q-28 0 -44.5 15.5t-16.5 41.5z" />
    <glyph glyph-name="semicolon" unicode=";" horiz-adv-x="307" 
d="M118 441q0 37 26.5 63t62.5 26q29 0 45.5 -16t16.5 -43q0 -34 -27 -60.5t-63 -26.5q-28 0 -44.5 15.5t-16.5 41.5zM169 63q0 -59 -39.5 -112.5t-108.5 -86.5l-5 16q45 24 75 59t33 74q-13 -12 -28 -19.5t-32 -7.5q-54 0 -54 47q0 26 14 48t37 36.5t49 14.5q29 0 44 -18.5
t15 -50.5z" />
    <glyph glyph-name="less" unicode="&#x3c;" horiz-adv-x="596" 
d="M601 582l10 -29l-487 -202l331 -174l-16 -32l-390 210z" />
    <glyph glyph-name="equal" unicode="=" horiz-adv-x="654" 
d="M66 270l9 30h501l-9 -30h-501zM106 410l9 30h501l-9 -30h-501z" />
    <glyph glyph-name="greater" unicode="&#x3e;" horiz-adv-x="598" 
d="M59 155l-10 29l460 192l-370 198l16 29l429 -231z" />
    <glyph glyph-name="question" unicode="?" horiz-adv-x="470" 
d="M304 762q-22 0 -51 -8.5t-41 -28.5q20 0 38 -16.5t16 -40.5q0 -27 -20 -45t-49 -18q-25 0 -42.5 15.5t-17.5 43.5q0 30 18 52.5t48 37t65.5 21.5t69.5 7q49 0 88.5 -13.5t64 -40.5t24.5 -68q0 -45 -39.5 -93t-135.5 -119q-58 -44 -93 -71.5t-51 -51t-16 -53.5
q0 -26 16 -45.5t53 -19.5q23 0 47 8t36 24q-14 3 -27.5 17.5t-12.5 35.5q0 23 16.5 40t44.5 17q20 0 35 -12.5t15 -36.5q0 -29 -17.5 -50t-45 -35t-59 -20.5t-60.5 -6.5q-59 0 -99 26.5t-40 80.5q0 41 23.5 74t62 64t84.5 67q70 55 104 91t34 83q0 38 -21.5 63t-64.5 25z
M109 43q0 37 27 63t63 26q29 0 45.5 -16t16.5 -43q0 -34 -27 -60.5t-63 -26.5q-29 0 -45.5 15.5t-16.5 41.5z" />
    <glyph glyph-name="at" unicode="@" horiz-adv-x="858" 
d="M581 56q22 0 60 20t77 60.5t65.5 101t26.5 141.5q0 90 -39 146.5t-106 82.5t-150 26q-101 0 -186 -40t-148 -108t-97.5 -154t-34.5 -178q0 -78 25 -133.5t69 -89.5t101.5 -50t122.5 -16q60 0 118.5 14t109.5 44l7 -13q-41 -28 -101.5 -45.5t-134.5 -17.5q-69 0 -130 17
t-107.5 53.5t-73.5 94.5t-27 140q0 93 35 182.5t99.5 161t154 114t197.5 42.5q92 0 163 -29t112.5 -89.5t41.5 -154.5q0 -84 -30 -150t-76 -111t-97.5 -68.5t-96.5 -23.5q-39 0 -56 15.5t-19 38.5t3 46.5t10 39.5l85 298q29 0 59.5 3t55.5 11l-106 -363q-10 -33 -5.5 -46
t23.5 -13zM500 235q-23 -74 -50 -120t-59.5 -67.5t-74.5 -21.5q-53 0 -81.5 31.5t-28.5 90.5q0 54 22 111.5t59.5 107t85 80.5t97.5 31q42 0 57.5 -24.5t10.5 -75.5l-10 -6q2 21 -2 38t-13.5 27t-26.5 10q-30 0 -59 -26t-53.5 -69.5t-39 -96t-14.5 -105.5q0 -42 11 -62
t33 -20q36 0 66.5 47t63.5 137z" />
    <glyph glyph-name="A" unicode="A" 
d="M67 150q-33 -47 -36.5 -75t18 -40.5t61.5 -14.5l-4 -20q-38 2 -68.5 2.5t-57.5 0.5q-23 0 -39 -0.5t-32 -2.5l5 20q24 6 48.5 28t60.5 72l422 593q9 -1 19.5 -1t19.5 1l40 -629q3 -36 18.5 -49.5t30.5 -14.5l-4 -20q-24 2 -61.5 2.5t-71.5 0.5q-42 0 -80 -0.5t-60 -2.5
l4 20q48 2 68 17.5t18 66.5l-26 472l26 24zM156 288h292l-8 -20h-302z" />
    <glyph glyph-name="B" unicode="B" horiz-adv-x="663" 
d="M431 707q110 0 160 -35.5t50 -95.5q0 -52 -32.5 -94t-88.5 -70.5t-127 -39.5q106 -8 155.5 -52t49.5 -105q0 -54 -25.5 -94t-69 -67t-101.5 -40.5t-123 -13.5q-34 0 -74.5 1.5t-99.5 1.5q-37 0 -78 -0.5t-66 -2.5l4 20q34 2 53 8t30 24t20 54l132 496q7 30 8 48.5
t-13.5 28t-53.5 9.5l5 20q17 -1 40.5 -1.5t50.5 -1t50 -0.5q43 0 76.5 1t67.5 1zM244 359l4 17h74q57 0 97.5 29.5t62 77.5t21.5 101q0 50 -19.5 77t-67.5 27q-35 0 -50 -13.5t-26 -57.5l-135 -511q-6 -25 -7.5 -44t9.5 -29t41 -10q71 0 116 27t67 74.5t22 107.5
q0 56 -28.5 91.5t-95.5 35.5h-85z" />
    <glyph glyph-name="C" unicode="C" horiz-adv-x="685" 
d="M734 708q-15 -39 -31 -94.5t-33 -135.5h-22q9 51 7.5 88.5t-15.5 63.5q-19 36 -51.5 53t-71.5 17q-50 0 -97.5 -28t-87.5 -77t-70.5 -112t-47.5 -133.5t-17 -140.5q0 -100 37.5 -148.5t101.5 -48.5q38 0 82 18t76 52q27 28 46.5 64t43.5 94h22q-25 -91 -38.5 -146.5
t-20.5 -93.5h-22q3 21 3 34q0 22 -8 25t-25 -8q-40 -27 -84.5 -46t-108.5 -19q-127 0 -192 63t-65 180q0 70 22.5 140t64 133.5t99 113t128 78t151.5 28.5q63 0 94.5 -20t53.5 -45q14 -15 27 -3.5t28 54.5h21z" />
    <glyph glyph-name="D" unicode="D" horiz-adv-x="756" 
d="M739 475q0 -69 -20.5 -137t-60.5 -129t-99 -108t-135.5 -74t-171.5 -27q-23 0 -63.5 1.5t-83.5 1.5q-23 0 -50 -0.5t-50.5 -1t-39.5 -1.5l3 20q32 2 50.5 8t29.5 24t20 54l131 496q12 45 4 64.5t-62 21.5l3 20q17 -1 42 -2t53.5 -1h54.5q19 1 47 1.5l56 1t47 0.5
q144 0 219.5 -59t75.5 -174zM248 18q86 0 151 42t109.5 112t67.5 156.5t23 175.5q0 92 -42 139t-137 47q-27 0 -42 -6.5t-24 -25t-18 -54.5l-131 -500q-13 -47 -8.5 -66.5t51.5 -19.5z" />
    <glyph glyph-name="E" unicode="E" horiz-adv-x="621" 
d="M217 346l5 20h189l-5 -20h-189zM321 366q39 0 64.5 20t42 49t27.5 55h22q-16 -50 -23 -78t-15 -56q-4 -18 -8.5 -35t-9 -40t-11.5 -59h-23q3 28 1 57t-18.5 48t-57.5 19zM587 528q7 59 0 93.5t-31 49t-72 14.5h-45q-34 0 -52.5 -5.5t-29 -23t-20.5 -54.5l-133 -496
q-14 -55 -3 -69t62 -14h49q57 0 94 17t65 55.5t55 104.5h22q-5 -13 -10.5 -32t-10.5 -40q-5 -19 -13 -54.5t-14 -73.5q-51 2 -114.5 2.5t-113.5 0.5h-85.5t-114 -0.5t-112.5 -2.5l4 20q34 2 53 8t30 24t20 54l133 496q15 55 3.5 69.5t-61.5 16.5l5 20q52 -1 112.5 -2t114 -1
h85.5q45 0 101 0.5t102 2.5q-13 -35 -22.5 -64.5t-15.5 -53.5q-5 -18 -8.5 -34.5t-5.5 -27.5h-23z" />
    <glyph glyph-name="F" unicode="F" horiz-adv-x="581" 
d="M220 340l4 20h206l-5 -20h-205zM579 498q9 70 2.5 111t-33 58.5t-80.5 17.5h-33q-32 0 -50 -5.5t-28 -23t-20 -54.5l-133 -496q-9 -36 -6 -54t23 -24t62 -8l-5 -20q-29 2 -75 2.5t-93 0.5q-46 0 -86 -0.5t-64 -2.5l4 20q34 2 53 8t30 24t20 54l133 496q15 55 3.5 69.5
t-61.5 16.5l5 20q52 -1 112.5 -2t114 -1h85.5q45 0 101 0.5t102 2.5q-13 -37 -23.5 -68t-16.5 -56q-7 -25 -12 -47t-9 -39h-22zM327 360q39 0 64 19.5t41.5 48t28.5 56.5h23q-17 -50 -24 -78l-14 -56q-7 -27 -14 -59.5t-18 -86.5h-23q3 38 0.5 68.5t-18.5 49t-54 18.5z" />
    <glyph glyph-name="G" unicode="G" horiz-adv-x="727" 
d="M332 6q27 0 50.5 7.5t38.5 16.5q19 12 27.5 28.5t15.5 41.5l23 88q11 41 8.5 61t-22 27t-61.5 8l5 20q29 -1 75.5 -2t84.5 -1q40 0 73.5 1t55.5 2l-5 -20q-22 -1 -34.5 -7t-21 -24t-18.5 -55l-53 -198h-20q3 23 -2 40t-21 17q-15 0 -31 -8l-38 -19q-38 -22 -74.5 -33
t-78.5 -11q-128 0 -197.5 60t-69.5 169q0 68 21.5 139t62.5 137t98 118t129 82.5t155 30.5q65 0 100.5 -19t63.5 -46q15 -15 28 -5t29 56h22q-15 -39 -31 -94.5t-33 -135.5h-22q2 20 3.5 38.5t1.5 36.5q0 21 -3 38.5t-11 34.5q-20 37 -60.5 57.5t-93.5 20.5
q-63 0 -114.5 -35.5t-90.5 -94t-65 -128t-39.5 -139t-13.5 -125.5q0 -90 38 -133t115 -43z" />
    <glyph glyph-name="H" unicode="H" horiz-adv-x="791" 
d="M229 346l7 20h353l-8 -20h-352zM617 602q15 55 3 69.5t-62 16.5l5 20q26 -1 66 -2t81 -1q46 0 86.5 1t65.5 2l-5 -20q-34 -1 -53 -7.5t-29.5 -24t-20.5 -54.5l-132 -496q-14 -55 -3 -69.5t62 -16.5l-4 -20q-24 2 -64.5 2.5t-86.5 0.5q-41 0 -81 -0.5t-67 -2.5l4 20
q34 2 53 8t30 24t20 54zM204 106q-14 -55 -3 -69.5t62 -16.5l-4 -20q-26 2 -66 2.5t-81 0.5q-46 0 -85.5 -0.5t-65.5 -2.5l5 20q33 2 51.5 8t29.5 24t20 54l132 496q14 55 2.5 69.5t-61.5 16.5l5 20q24 -1 64.5 -2t86.5 -1q41 0 80.5 1t67.5 2l-5 -20q-34 -1 -53 -7.5
t-29.5 -24t-20.5 -54.5z" />
    <glyph glyph-name="I" unicode="I" horiz-adv-x="373" 
d="M204 106q-14 -55 -3 -69.5t62 -16.5l-4 -20q-26 2 -67 2.5t-84 0.5q-45 0 -83.5 -0.5t-63.5 -2.5l5 20q33 2 51.5 8t29.5 24t20 54l132 496q14 55 2.5 69.5t-61.5 16.5l5 20q24 -1 63 -2t84 -1q43 0 83 1t69 2l-5 -20q-34 -1 -53 -7.5t-29.5 -24t-20.5 -54.5z" />
    <glyph glyph-name="J" unicode="J" horiz-adv-x="668" 
d="M615 366l-3 -20h-365l3 20h365zM439 579q-45 0 -81 13t-70 26t-75 13q-29 0 -45.5 -15.5t-15.5 -44.5q0 -31 24.5 -50.5t74.5 -25.5l-1 -9.5l-1 -9.5q-63 7 -107.5 38t-45.5 95q-1 57 33 93.5t100 36.5q46 0 80 -15.5t64.5 -36t65 -36t80.5 -15.5q44 0 85.5 10.5
t86.5 30.5q21 32 41 49t35 4q12 -10 -1 -27t-66 -37q-77 -57 -124 -150t-77 -209l-62 -242q-17 -68 -52 -125.5t-90 -92.5t-135 -35q-53 0 -89.5 16t-37.5 53q-1 28 19 49t56 21q27 0 46 -14t19 -39q1 -22 -13 -38.5t-37 -27.5q8 -1 15 -2.5t15 -1.5q34 0 57 21t39 57.5
t29.5 85t28.5 103.5l45 167q28 101 74.5 170t109.5 122.5t138 103.5q-34 -13 -63 -27t-56 -25.5t-55.5 -19t-60.5 -7.5z" />
    <glyph glyph-name="K" unicode="K" horiz-adv-x="718" 
d="M204 106q-14 -55 -3 -69.5t62 -16.5l-4 -20q-26 2 -66 2.5t-81 0.5q-46 0 -85.5 -0.5t-65.5 -2.5l5 20q33 2 51.5 8t29.5 24t20 54l132 496q14 55 2.5 69.5t-61.5 16.5l5 20q24 -1 64.5 -2t86.5 -1q41 0 80.5 1t67.5 2l-5 -20q-34 -1 -53 -7.5t-29.5 -24t-20.5 -54.5z
M558 53q21 0 35.5 16.5t25.5 49.5l17 51h20l-26 -77q-19 -55 -52.5 -81t-77.5 -26q-58 0 -84 33t-20 90l16 131q4 41 1 64.5t-12 37t-26 23.5l2 10q63 -5 100.5 -20t52.5 -50.5t10 -102.5l-9 -108q-1 -18 4.5 -29.5t22.5 -11.5zM389 360q-54 -15 -73.5 -11t-17.5 20
q1 15 20 19.5t71 -10.5v-18zM617 683q-22 -23 -36 -61.5t-27.5 -82.5t-34 -83.5t-54.5 -64t-89 -23.5l2 10q51 5 81.5 31t48.5 65t30.5 81.5t26.5 79.5t37 60q17 16 34.5 21.5t33.5 5.5q41 0 62.5 -22.5t20.5 -57.5q-1 -28 -20.5 -57.5t-59.5 -29.5q-26 0 -42 16.5t-16 42.5
q1 24 17.5 48.5t43.5 38.5q-3 0 -5.5 1t-7.5 1q-16 -1 -26 -6t-20 -14z" />
    <glyph glyph-name="L" unicode="L" horiz-adv-x="598" 
d="M553 210q-6 -16 -12 -37t-13 -45q-5 -19 -13 -54.5t-13 -73.5q-51 2 -114.5 2.5t-113.5 0.5h-86.5t-115 -0.5t-112.5 -2.5l4 20q34 2 53 8t30 24t20 54l133 496q15 55 3.5 69.5t-61.5 16.5l5 20q24 -1 65 -2t87 -1q41 0 79.5 1t66.5 2l-5 -20q-34 -1 -53 -7.5t-29.5 -24
t-20.5 -54.5l-133 -496q-15 -55 -3.5 -69t61.5 -14h51q52 0 90.5 18t69.5 59t57 110h23z" />
    <glyph glyph-name="M" unicode="M" horiz-adv-x="900" 
d="M754 705h68q43 0 81.5 1t67.5 2l-5 -20q-34 -1 -53 -7.5t-29.5 -24t-20.5 -54.5l-132 -496q-14 -55 -2.5 -69.5t61.5 -16.5l-4 -20q-28 2 -66.5 2.5t-81.5 0.5q-45 0 -85 -0.5t-65 -2.5l4 20q35 2 53.5 8t29.5 24t20 54l145 539l-415 -650h-22l-76 628l-132 -499
q-8 -32 -7 -55t19.5 -35t60.5 -14l-5 -20q-17 2 -49.5 2.5t-58.5 0.5q-25 0 -51 -0.5t-43 -2.5l4 20q52 2 73.5 28t34.5 76l127 478q14 55 2.5 69.5t-61.5 16.5l5 20q21 -1 53.5 -2t67.5 -1q24 0 48 1t42 2l56 -538z" />
    <glyph glyph-name="N" unicode="N" horiz-adv-x="806" 
d="M517 -5l-247 590l-1.5 2.5t-3.5 6t-3 6l-1 2.5q8 37 5.5 54.5t-20 24t-56.5 7.5l5 20q16 -1 39.5 -2t49.5 -1q47 0 81 3l204 -512l-3 -20.5t-7.5 -50t-9 -59.5t-7.5 -50.5l-3 -20.5h-22zM823 735q-27 -1 -47.5 -15.5t-35.5 -37.5q-46 -68 -94 -239t-107 -448l-14 28
q18 84 40.5 182.5t47.5 193.5t52.5 172t56.5 119q19 27 45 45.5t63 18.5q42 0 62 -21.5t20 -51.5q0 -35 -22 -60.5t-58 -25.5q-29 0 -43.5 16t-14.5 37q0 29 17.5 51t43.5 32q-3 2 -5.5 3t-6.5 1zM12 -55q28 1 48.5 15.5t36.5 38.5q29 46 58.5 144t60 237t61.5 305l17 -21
q-20 -102 -42 -208t-45.5 -201t-47 -165.5t-46.5 -100.5q-18 -24 -42.5 -43.5t-64.5 -19.5q-43 0 -63 21.5t-20 52.5q0 34 22 59.5t58 25.5q30 0 44 -16t14 -37q0 -29 -17.5 -51t-42.5 -32q2 -2 5 -3t6 -1z" />
    <glyph glyph-name="O" unicode="O" horiz-adv-x="761" 
d="M478 704q-54 0 -104.5 -42t-90.5 -113t-63.5 -158.5t-23.5 -177.5q0 -98 33 -153.5t85 -55.5q54 0 104.5 42t90.5 113t63.5 158.5t23.5 177.5q0 98 -33 153.5t-85 55.5zM46 226q0 66 20 136t58 134t92.5 115t122.5 81t148 30q122 0 191 -62.5t69 -178.5
q0 -66 -20.5 -135.5t-58.5 -133.5t-92.5 -115t-123 -81t-147.5 -30q-122 0 -190.5 62.5t-68.5 177.5z" />
    <glyph glyph-name="P" unicode="P" horiz-adv-x="625" 
d="M221 284l5 20h45q69 0 116 23t75.5 62.5t41.5 88t13 98.5q0 56 -25 84t-82 28q-35 0 -47.5 -17.5t-26.5 -68.5l-132 -496q-8 -30 -8 -48.5t15 -27.5t52 -10l-4 -20q-27 2 -65 2.5t-79 0.5q-46 0 -87.5 -0.5t-66.5 -2.5l4 20q34 2 53 8t30 24t20 54l132 496q8 31 8 49.5
t-15 27t-52 9.5l5 20q24 -1 65.5 -2t81.5 -1q36 0 72.5 1t73.5 1q113 0 168 -39.5t55 -111.5q0 -78 -50.5 -139.5t-141 -97t-209.5 -35.5h-40z" />
    <glyph glyph-name="Q" unicode="Q" horiz-adv-x="815" 
d="M307 243q-62 0 -107.5 21.5t-71 61.5t-25.5 94q0 65 34 120.5t91.5 96t130 63t150.5 22.5q85 0 149.5 -25t100 -70.5t35.5 -108.5q0 -69 -38 -139.5t-102 -137.5t-142.5 -125.5t-161 -103t-157 -69.5t-130.5 -25q-47 0 -75.5 20t-28.5 58q0 46 38.5 75.5t95.5 29.5
q51 0 95.5 -21.5t87 -52t87 -62t95 -52.5t111.5 -21q51 0 83 18.5t50 51.5q-22 -17 -52 -17t-49 17.5t-19 46.5q0 32 22.5 54t56.5 22q31 0 51.5 -19t20.5 -55q0 -37 -22 -72.5t-59.5 -63.5t-86.5 -45.5t-103 -17.5q-65 0 -115.5 24t-91 59t-75 69.5t-67.5 58.5t-69 24
q-26 0 -45 -14t-19 -40q0 -29 24.5 -43.5t67.5 -14.5q28 0 62.5 8.5t71.5 22.5t70 30q73 33 139.5 86t118.5 120.5t82 144t30 157.5q0 92 -40 146t-117 54q-55 0 -99 -26.5t-75.5 -71t-48.5 -98t-17 -108.5q0 -64 27 -97t80 -33q43 0 77.5 20.5t56.5 52t26 64.5
q2 11 2.5 23.5t-1.5 21.5q-10 -28 -35 -41.5t-49 -13.5q-29 0 -46 19t-17 47q0 35 25 58.5t61 23.5q40 0 63 -29.5t23 -77.5q0 -54 -30 -98.5t-83 -70.5t-122 -26z" />
    <glyph glyph-name="R" unicode="R" horiz-adv-x="695" 
d="M258 354q38 -1 61.5 -3t39 -3.5t30.5 -4.5q52 -5 90 -18t57.5 -40t12.5 -77l-11 -103q-4 -31 2.5 -53t28.5 -21q19 1 33 20.5t27 55.5l5 14h23l-4 -13q-18 -62 -51 -92t-90 -30q-63 0 -90 31.5t-21 78.5l12 112q5 46 -4.5 74.5t-44 42t-108.5 13.5zM244 339l5 18h37
q76 0 128.5 27t79.5 77t27 118q0 56 -25 82.5t-79 26.5q-35 0 -50.5 -14.5t-26.5 -57.5l-136 -510q-8 -31 -9 -49t14.5 -27t53.5 -10l-4 -20q-27 2 -65 2.5t-81 0.5q-44 0 -85.5 -0.5t-66.5 -2.5l4 20q34 2 53 8t30 24t20 54l132 496q8 31 8 49.5t-15 27t-52 9.5l5 20
q16 -1 40 -1.5t51.5 -1t50.5 -0.5q43 0 78.5 1t70.5 1q115 0 170 -35.5t55 -104.5q0 -68 -47.5 -119t-132.5 -79.5t-198 -28.5z" />
    <glyph glyph-name="S" unicode="S" horiz-adv-x="576" 
d="M605 715q-10 -26 -26.5 -75.5t-32.5 -128.5h-20q6 29 6 56q0 58 -35 95.5t-108 37.5q-53 0 -90 -27.5t-37 -87.5q0 -44 24.5 -82t60.5 -74.5t72 -74t60 -79t24 -91.5q0 -53 -25.5 -90.5t-65.5 -61t-86.5 -35t-90.5 -11.5q-45 0 -74.5 6.5t-49.5 17.5t-39 22
q-10 8 -19.5 11.5t-15.5 3.5q-13 0 -21.5 -12.5t-20.5 -41.5h-20q14 32 30 84t38 156h20q-4 -19 -7 -39.5t-2 -40.5q3 -70 43.5 -108t119.5 -38q67 0 101 28.5t34 83.5q0 50 -22 90t-54.5 74.5t-65 70t-55 76.5t-22.5 94q0 50 21.5 87t56 61.5t76.5 37t83 12.5q54 0 89 -13
t60 -31q11 -7 19.5 -11.5t13.5 -4.5q14 0 33 53h20z" />
    <glyph glyph-name="T" unicode="T" horiz-adv-x="673" 
d="M777 845q32 0 49 -19t17 -45q0 -28 -16.5 -50t-45.5 -36q-28 -15 -69 -23t-95 -8q-51 0 -108 6.5l-114 13t-107 6.5q-33 0 -64 -3.5t-49 -13.5q20 -8 33.5 -28t13.5 -46q0 -29 -18.5 -51.5t-50.5 -22.5q-30 0 -46 20t-16 48q0 23 12.5 48.5t48.5 43.5q23 11 49 16t49 6
t36 1q61 0 118 -6t112 -12t109 -6q42 0 70.5 4.5t50.5 14.5l-2 -8q-13 12 -24.5 31.5t-11.5 45.5q0 30 18.5 51.5t50.5 21.5zM413 689l13.5 -1t33.5 -3l40 -4t33 -3l13 -1l-148 -561q-16 -56 -1 -74.5t76 -21.5l-4 -20q-30 2 -76.5 2.5t-96.5 0.5q-49 0 -94 -0.5t-72 -2.5
l4 20q42 2 65.5 10.5t37 29t24.5 56.5z" />
    <glyph glyph-name="U" unicode="U" horiz-adv-x="690" 
d="M639 560q13 49 12 75t-18.5 38t-56.5 15l6 20q18 -1 48.5 -2t56.5 -1q25 0 49 1t41 2l-6 -20q-33 -3 -52.5 -14.5t-32 -36t-23.5 -69.5l-72 -277q-36 -138 -98 -212q-36 -42 -89.5 -67.5t-115.5 -25.5q-65 0 -110.5 18.5t-70.5 51.5q-29 40 -29 94.5t22 137.5l83 314
q14 55 2.5 69.5t-61.5 16.5l6 20q24 -1 65.5 -2t87.5 -1q41 0 79 1t66 2l-6 -20q-34 -1 -53 -7.5t-29.5 -24t-20.5 -54.5l-88 -331q-20 -77 -22.5 -133.5t20.5 -86.5t78 -30q75 0 125 33.5t82 92.5t51 133z" />
    <glyph glyph-name="V" unicode="V" horiz-adv-x="651" 
d="M608 558q47 72 30.5 100t-76.5 30l5 20q15 -1 37.5 -1.5t46.5 -1t41 -0.5q24 0 42 1t34 2l-5 -20q-18 -5 -35.5 -15t-37 -30t-41.5 -55l-385 -593q-10 1 -19.5 1t-19.5 -1l-79 629q-4 36 -21 49.5t-31 14.5l5 20q23 -1 59.5 -2t72.5 -1q45 0 80.5 1t60.5 2l-5 -20
q-47 -2 -66.5 -16t-13.5 -68l54 -471l-21 -16z" />
    <glyph glyph-name="W" unicode="W" horiz-adv-x="955" 
d="M556 489l-298 -494h-39l-79 629q-5 38 -22 50.5t-32 13.5l4 20q24 -1 58 -2t69 -1q38 0 70 1t52 2l-4 -20q-32 -2 -45 -17.5t-9 -66.5l53 -462l-23 -21l237 393zM906 558q27 52 28 79t-20 38t-61 13l5 20q15 -1 37.5 -1.5t46 -1t41.5 -0.5q24 0 41.5 1t33.5 2l-5 -20
q-18 -5 -35.5 -14t-36 -29t-37.5 -57l-311 -593h-39l-91 629q-5 37 -18 50t-26 14l4 20q22 -1 53.5 -2t63.5 -1q45 0 83.5 1t62.5 2l-4 -20q-50 -2 -67 -17t-11 -67l63 -448l-23 -20z" />
    <glyph glyph-name="X" unicode="X" horiz-adv-x="727" 
d="M478 135q4 -35 18 -59.5t46 -24.5q26 0 42.5 16.5t28.5 51.5l17 51h20l-26 -77q-20 -57 -53 -82t-80 -25q-53 0 -83 21.5t-44 57t-20 77.5l-52 433q-4 37 -18 60.5t-45 23.5q-26 0 -43 -16.5t-30 -53.5l-17 -51h-20l26 77q21 57 55.5 82t83.5 25q50 0 79 -21t44 -56
t19 -79zM700 703q-34 0 -65 -23q-46 -36 -113 -138t-126 -264l14 76q24 65 59 130.5t74 119t73 83.5q46 35 92 35q41 0 60 -24t18 -58q-1 -33 -22 -59t-57 -26q-28 0 -42 17t-13 43t17.5 49.5t42.5 34.5q-2 2 -4.5 3t-7.5 1zM49 5q18 1 34 7t31 16q33 23 76.5 71t89.5 123
t87 174l-16 -76q-24 -59 -61 -117.5t-78 -106.5t-78 -76q-46 -34 -93 -34q-41 0 -60.5 24t-18.5 58q1 33 22.5 59t56.5 26q29 0 43 -17t13 -43t-17.5 -49.5t-43.5 -34.5q2 -2 5 -3t8 -1z" />
    <glyph glyph-name="Y" unicode="Y" horiz-adv-x="712" 
d="M376 106q-13 -55 1.5 -69.5t65.5 -16.5l-5 -20q-17 1 -43 1.5t-55.5 1t-57.5 0.5q-45 0 -85.5 -0.5t-65.5 -2.5l5 20q34 2 53 8t30 24t20 54l69 274l55 -63l57 19l34 80zM706 703q-16 -1 -30 -6.5t-29 -16.5q-30 -22 -70.5 -74t-83.5 -135.5t-81 -200.5l-111 -5
q-4 46 -10.5 99t-16 104t-23 93.5t-31 68t-40.5 25.5q-18 0 -29 -12.5t-18 -34.5l-24 -70h-11h-11l29 84q18 54 48.5 77t77.5 23q64 0 99 -43t53.5 -123.5t30.5 -191.5q35 95 79.5 169.5t91.5 125.5q23 25 54 44t65 19q41 0 61 -23.5t19 -54.5q0 -31 -22 -56t-58 -25
q-30 0 -44.5 16t-13.5 40q0 27 17.5 48.5t42.5 31.5q-2 2 -5 3t-6 1z" />
    <glyph glyph-name="Z" unicode="Z" horiz-adv-x="656" 
d="M161 346l7 20h353l-8 -20h-352zM449 209l2 10l2 10q30 -4 58 -17.5t46 -37t18 -61.5q0 -55 -37 -91t-100 -36q-41 0 -71.5 14t-58 33.5t-57.5 33.5t-70 14q-34 0 -60.5 -9t-59.5 -24q-22 -32 -48 -49t-40 -4q-12 11 2 33t67 42l580 570q-46 -36 -95 -57t-98 -21
q-46 0 -80 12t-64 24t-66 12q-25 0 -38.5 -12.5t-13.5 -36.5q0 -23 18 -39t54 -23l-2 -10l-2 -10q-29 5 -57.5 18t-46.5 37t-18 61q0 55 37 91t100 36q41 0 71.5 -14t58 -33.5t57.5 -33.5t70 -14q34 0 61 9t59 24q23 32 48 49t40 4q12 -10 -2 -32.5t-67 -42.5l-580 -570
q46 36 95.5 57t97.5 21q47 0 80.5 -12t63.5 -24t66 -12q26 0 39 12.5t13 36.5q0 23 -17.5 39t-54.5 23z" />
    <glyph glyph-name="bracketleft" unicode="[" horiz-adv-x="342" 
d="M-23 -181l237 953h210l-4 -19h-81l-229 -915h81l-4 -19h-210z" />
    <glyph glyph-name="backslash" unicode="\" horiz-adv-x="491" 
d="M163 722l228 -736h-33l-226 736h31z" />
    <glyph glyph-name="bracketright" unicode="]" horiz-adv-x="342" 
d="M365 772l-237 -953h-210l4 19h81l229 915h-81l4 19h210z" />
    <glyph glyph-name="asciicircum" unicode="^" horiz-adv-x="530" 
d="M273 410q-37 -27 -90 -52.5t-106 -43.5l-4 14q77 33 142 87.5t104 112.5h18q9 -58 45 -112t97 -88l-10 -14q-55 16 -107 41.5t-89 54.5z" />
    <glyph glyph-name="underscore" unicode="_" horiz-adv-x="713" 
d="M-30 -73h566l-23 -80h-566z" />
    <glyph glyph-name="grave" unicode="`" horiz-adv-x="322" 
d="M346 599q-37 48 -65 78t-48 51.5t-34 43.5q-13 23 -9.5 43t19.5 29q19 10 40 3t34 -29q14 -22 22 -50t19.5 -66.5t34.5 -96.5z" />
    <glyph glyph-name="a" unicode="a" horiz-adv-x="547" 
d="M161 32q18 0 41 21.5t47 60.5t46 93t38 118l-21 -108q-44 -128 -95 -179.5t-108 -51.5q-54 0 -80 33.5t-26 89.5q0 52 17 109.5t47.5 113t69.5 100t83 71.5t88 27q34 0 52 -28.5t9 -86.5l-11 -6q7 42 -3.5 66t-34.5 24q-28 0 -61 -36.5t-62 -96t-47.5 -129.5t-18.5 -137
q0 -37 7.5 -52.5t22.5 -15.5zM386 516q36 1 67.5 4t60.5 10l-129 -444q-4 -12 -5.5 -24.5t2 -21t16.5 -8.5q16 0 33 17t35 69l15 45h19l-25 -73q-22 -62 -57 -83t-69 -21q-48 0 -68 30q-13 22 -10 54t13 69z" />
    <glyph glyph-name="b" unicode="b" horiz-adv-x="532" 
d="M337 484q-22 0 -48.5 -29t-53.5 -79.5t-51 -113.5t-40 -132l18 104q55 159 107 227.5t114 68.5q56 0 86.5 -38t30.5 -112q0 -46 -13 -99t-38.5 -105t-62.5 -95.5t-84.5 -69t-106.5 -25.5q-29 0 -52 14t-33 39l8 17q11 -23 25.5 -33t33.5 -10q31 0 60 25.5t54 68.5
t44 95.5t29 106t10 100.5q0 40 -9.5 57.5t-27.5 17.5zM121 40q-30 -7 -62.5 -22.5t-62.5 -33.5l-15 7q7 14 11.5 28.5t8.5 29.5l178 618q9 34 -2.5 50t-60.5 16l6 21q66 1 116.5 11.5t96.5 29.5z" />
    <glyph glyph-name="c" unicode="c" horiz-adv-x="453" 
d="M347 510q-38 0 -74.5 -31t-66 -84.5t-47 -121t-17.5 -139.5q0 -52 20.5 -75t53.5 -23t68 20t70 72l20 -8q-20 -33 -51 -64t-71.5 -50.5t-89.5 -19.5q-66 0 -108 37.5t-42 113.5q0 61 22.5 129t65 128t103.5 98t137 38q51 0 83.5 -26t32.5 -67q0 -24 -11.5 -47t-31.5 -38
t-46 -15q-23 0 -37.5 14t-14.5 37q0 37 26.5 64t59.5 35q-9 10 -21.5 16.5t-32.5 6.5z" />
    <glyph glyph-name="d" unicode="d" horiz-adv-x="566" 
d="M405 85q-7 -24 -4 -39t20 -15q16 0 31.5 17.5t33.5 68.5l16 45h19l-24 -73q-20 -62 -56.5 -82.5t-70.5 -20.5q-62 0 -74 49q-6 18 -4 44t12 60l140 528q9 34 -3 50t-61 16l7 21q66 1 117 11.5t97 29.5zM171 30q20 0 46 24.5t53.5 70t53 109.5t43.5 142l-15 -108
q-35 -99 -69.5 -161t-73.5 -91.5t-88 -29.5t-81.5 33t-32.5 105q0 46 15 100.5t43 108.5t69 98.5t91.5 71.5t110.5 27q30 0 47 -15.5t19 -44.5l-8 -20q-4 30 -16 43.5t-32 13.5q-38 0 -75.5 -37t-68 -97t-49 -130t-18.5 -138q0 -38 8.5 -56.5t27.5 -18.5z" />
    <glyph glyph-name="e" unicode="e" horiz-adv-x="456" 
d="M115 220q47 18 86.5 37.5t66.5 41.5q37 33 60 77.5t23 97.5q0 23 -4 30t-12 7q-29 0 -63 -33.5t-64.5 -89t-50.5 -121.5t-20 -131q0 -53 20.5 -74.5t54.5 -21.5q29 0 69 19t79 69l16 -8q-20 -33 -53 -64t-75.5 -50.5t-93.5 -19.5q-64 0 -106 35.5t-42 105.5
q0 49 17 104.5t48.5 108.5t75 96t96.5 68.5t114 25.5q40 0 67 -18.5t27 -56.5q0 -39 -22 -73t-59.5 -62t-82 -50t-89.5 -38t-84 -26z" />
    <glyph glyph-name="f" unicode="f" horiz-adv-x="335" 
d="M59 496l6 20h319l-6 -20h-319zM409 765q-17 0 -30 -6t-24 -16q-22 -20 -36.5 -67.5t-31.5 -107.5l-199 -742q-36 -1 -66.5 -4t-59.5 -10l187 699q22 83 48.5 137t64.5 86q26 23 61.5 35.5t73.5 12.5q57 0 88.5 -24.5t31.5 -62.5q0 -29 -23 -55.5t-60 -26.5
q-27 0 -42 12.5t-14 35.5q0 30 19 53.5t50 33.5q-2 7 -12.5 12t-25.5 5z" />
    <glyph glyph-name="g" unicode="g" horiz-adv-x="464" 
d="M221 226l39 2q-58 -27 -94.5 -46.5t-36.5 -37.5q0 -9 12 -16.5t38 -14.5l80 -25q30 -9 55.5 -21t41.5 -31t16 -49q0 -33 -21.5 -65t-61 -57.5t-94.5 -41t-122 -15.5q-51 0 -90.5 9.5t-61 26.5t-21.5 40q0 18 14 34t38 29t54 23t63 15l4 -15q-35 -18 -48.5 -39.5
t-13.5 -42.5q0 -33 23.5 -48t60.5 -15q41 0 82.5 15.5t70 41t28.5 55.5q0 18 -12 24.5t-35 11.5l-147 41q-24 7 -41 22.5t-17 41.5q0 24 20.5 46.5t64 47t112.5 54.5zM267 512q-30 0 -50 -24t-32 -60t-17.5 -73t-5.5 -64q0 -32 10.5 -45t29.5 -13q28 0 47.5 21t31.5 54
t17 69.5t5 67.5q0 29 -6.5 48t-29.5 19zM279 530q64 0 104.5 -26.5t40.5 -86.5q0 -48 -29 -95t-82.5 -77t-125.5 -30q-61 0 -102.5 26.5t-41.5 84.5q0 30 14 65.5t43 67t73.5 51.5t105.5 20zM356 477l-20 7q15 37 49 63t72 26q30 0 46 -16.5t16 -45.5t-14 -43t-32 -14
q-16 0 -30.5 11.5t-17.5 35.5t13 62l9 -5q-39 -15 -58 -33t-33 -48z" />
    <glyph glyph-name="h" unicode="h" horiz-adv-x="558" 
d="M108 0h-123l198 667q10 34 -2.5 50t-61.5 16l7 21q66 1 117.5 11.5t97.5 29.5zM134 146q39 112 73.5 186.5t68 118t69 61.5t74.5 18q48 0 68 -21.5t19.5 -56.5t-13.5 -73l-98 -294q-9 -27 -5.5 -40.5t19.5 -13.5q15 0 32 17t36 69l16 45h19l-25 -73q-22 -63 -58.5 -83
t-71.5 -20q-45 0 -64.5 20t-18.5 55t14 78l92 275q5 16 8 33t-1 28t-21 11q-27 0 -60.5 -37.5t-68 -103t-67 -151t-59.5 -181.5z" />
    <glyph glyph-name="i" unicode="i" horiz-adv-x="316" 
d="M181 688q3 37 30 59t63 22q33 0 50.5 -18.5t14.5 -47.5q-3 -34 -30 -57t-63 -23q-33 0 -50.5 18.5t-14.5 46.5zM146 431q18 54 -12 54q-20 0 -36 -20.5t-34 -65.5l-17 -47h-19l26 75q22 60 58.5 81.5t75.5 21.5q47 0 64.5 -22t16.5 -54.5t-12 -63.5l-106 -305
q-9 -27 -5 -40.5t19 -13.5q16 0 32.5 17.5t35.5 68.5l17 45h19l-25 -73q-22 -60 -58 -81.5t-73 -21.5q-44 0 -64 19.5t-20 54t16 79.5z" />
    <glyph glyph-name="j" unicode="j" horiz-adv-x="293" 
d="M-138 -188l5 17q53 2 93 43.5t60 122.5l122 436q8 30 5.5 42t-18.5 12q-17 0 -33.5 -19.5t-33.5 -66.5l-17 -47h-19l25 75q21 60 57.5 81.5t77.5 21.5q45 0 62 -21t16 -53t-11 -66l-80 -289q-21 -80 -51 -137t-79 -95q-32 -25 -76.5 -41t-104.5 -16zM177 683
q0 37 26.5 63t66.5 26q31 0 48.5 -15.5t17.5 -42.5q0 -35 -27 -61.5t-67 -26.5q-31 0 -48 15.5t-17 41.5z" />
    <glyph glyph-name="k" unicode="k" horiz-adv-x="540" 
d="M108 0h-123l198 667q10 34 -2.5 50t-61.5 16l7 21q66 1 117.5 11.5t97.5 29.5zM374 72q-4 -23 0 -32t17 -9q16 0 32 17.5t34 68.5l15 45h19l-24 -73q-14 -41 -35.5 -63t-47.5 -31t-52 -9q-44 0 -65 27t-9 82l18 80q13 55 -8 80t-91 31v4q42 3 84 0t75 -17.5t49 -42.5
t6 -74zM435 510q-13 0 -22.5 -4t-18.5 -11q-18 -15 -30 -40.5t-23.5 -54.5t-29 -55t-46.5 -42.5t-76 -15.5l-10 -1l2 11q46 3 73.5 20t43.5 42.5t26.5 53.5t22.5 53t32 41q17 14 33 18.5t29 4.5q44 0 63 -24t18 -57q0 -30 -20 -54.5t-55 -24.5q-29 0 -42.5 16.5t-13.5 37.5
q1 24 17.5 45.5t37.5 35.5q-2 2 -5 3.5t-6 1.5z" />
    <glyph glyph-name="l" unicode="l" horiz-adv-x="293" 
d="M129 85q-8 -27 -3.5 -40.5t19.5 -13.5q14 0 30.5 17.5t35.5 68.5l16 45h19l-25 -73q-14 -40 -35 -62.5t-45 -31.5t-49 -9q-42 0 -62 20.5t-20.5 55.5t12.5 77l159 528q10 34 -2 50t-61 16l7 21q65 1 116 11.5t98 29.5z" />
    <glyph glyph-name="m" unicode="m" horiz-adv-x="840" 
d="M145 0h-123l120 431q4 12 5.5 24t-2 21t-15.5 9q-19 0 -35 -19.5t-33 -66.5l-17 -47h-19l26 75q21 60 57 81.5t73 21.5q44 0 59 -22t13.5 -54.5t-10.5 -63.5zM400 414q8 27 9 47.5t-21 20.5q-24 0 -52.5 -30t-58.5 -84t-58.5 -126.5t-53.5 -158.5l15 99
q44 128 83.5 204.5t83.5 110t99 33.5q43 0 59 -22t14.5 -56.5t-12.5 -72.5l-105 -379h-125zM661 414q9 28 9 48t-16 20q-31 0 -69.5 -48.5t-80 -141t-83.5 -226.5l10 79q36 111 69 185t66 118t68.5 63t75.5 19q43 0 61 -22t17 -56t-14 -73l-98 -294q-10 -30 -5 -42t20 -12
t31.5 17t35.5 69l16 45h19l-25 -73q-22 -63 -58.5 -83t-70.5 -20q-29 0 -47 8.5t-28 24.5q-12 20 -9.5 50t15.5 70z" />
    <glyph glyph-name="n" unicode="n" horiz-adv-x="596" 
d="M145 0h-123l121 431q4 14 6 26t-1.5 20t-17.5 8q-19 0 -34.5 -18.5t-33.5 -67.5l-17 -47h-19l26 75q21 59 54 81t73 22q45 0 61 -22t15 -54t-10 -64zM182 182q37 103 71 170t66 106.5t66 55.5t71 16q49 0 68.5 -21.5t19 -56t-13.5 -73.5l-98 -294q-9 -27 -5 -40.5
t20 -13.5q15 0 31.5 17t35.5 69l16 45h19l-25 -73q-22 -63 -58.5 -83t-71.5 -20q-52 0 -73 32q-13 19 -11 49t16 72l91 275q5 16 8 32.5t-1 28t-21 11.5q-26 0 -58.5 -36t-66.5 -98.5t-66 -142t-56 -167.5z" />
    <glyph glyph-name="o" unicode="o" horiz-adv-x="516" 
d="M322 510q-26 0 -53 -26.5t-51 -72t-43.5 -101.5t-30.5 -115.5t-11 -113.5q0 -40 10.5 -57.5t31.5 -17.5q25 0 52 26t51.5 70.5t43.5 100t30 115.5t11 117q0 42 -10.5 58.5t-30.5 16.5zM15 148q0 57 19.5 123t58.5 125t98 96.5t137 37.5q72 0 112.5 -40.5t40.5 -121.5
q0 -57 -19.5 -123t-58.5 -125t-98 -96.5t-137 -37.5q-72 0 -112.5 41t-40.5 121z" />
    <glyph glyph-name="p" unicode="p" horiz-adv-x="573" 
d="M376 484q-22 0 -48.5 -29t-53.5 -79.5t-50.5 -113.5t-40.5 -132l19 104q53 159 105.5 227.5t115.5 68.5q56 0 86.5 -38t30.5 -112q0 -46 -13 -99t-37.5 -105t-60.5 -95.5t-82.5 -69t-103.5 -25.5q-32 0 -57 14t-37 39l8 17q12 -23 26 -33t33 -10q31 0 60.5 24.5t54 66
t43.5 92.5t29.5 104t10.5 99q0 48 -10 66.5t-28 18.5zM213 661q35 3 67.5 8.5t61.5 15.5l-217 -765q-14 -48 8 -64t71 -16l-6 -21q-23 1 -64 2.5t-86 1.5q-37 0 -75 -1.5t-56 -2.5l6 21q36 0 52 13.5t26 48.5zM14 353q38 38 70.5 76.5t63.5 91t62 132.5l3 -16
q-32 -104 -80 -171t-108 -126z" />
    <glyph glyph-name="q" unicode="q" horiz-adv-x="537" 
d="M362 -87q-10 -40 7 -56t54 -17l-6 -21q-22 1 -62.5 2.5t-85.5 1.5q-38 0 -76.5 -1.5t-58.5 -2.5l6 21q47 1 68.5 16t31.5 51l151 568q30 8 62.5 23.5t63.5 32.5l15 -7q-7 -13 -12 -28t-9 -30zM175 36q21 0 44.5 22t47.5 60t44.5 86.5t34.5 102.5l-20 -104
q-47 -118 -94 -167.5t-103 -49.5t-86.5 38t-30.5 112q0 46 13.5 99t40 105t64 95.5t84.5 69t103 25.5q29 0 52 -14t33 -39l-8 -17q-11 24 -25 33.5t-34 9.5q-31 0 -60 -26.5t-54 -70.5t-44 -96.5t-29 -105.5t-10 -97q0 -38 9.5 -54.5t27.5 -16.5z" />
    <glyph glyph-name="r" unicode="r" horiz-adv-x="455" 
d="M145 0h-123l120 431q9 30 6 42t-18 12q-19 0 -35 -19t-33 -67l-17 -47h-19l26 75q21 60 57 81.5t75 21.5q42 0 57 -22t13.5 -54.5t-9.5 -63.5zM401 507q-22 0 -45 -15.5t-48 -49.5t-50.5 -89.5t-52.5 -135t-54 -187.5l24 133q31 105 58.5 175.5t54 113t56.5 60.5t65 18
q36 0 55.5 -21t19.5 -52q0 -38 -25.5 -65.5t-62.5 -27.5q-25 0 -39.5 13t-14.5 38q0 32 21 56t50 32q-2 2 -5 3t-7 1z" />
    <glyph glyph-name="s" unicode="s" horiz-adv-x="407" 
d="M69 15q8 -4 17 -6.5t25 -2.5q38 0 63.5 24.5t25.5 68.5q0 32 -13.5 65t-40.5 73q-24 35 -43.5 69t-19.5 78q0 64 47 105t125 41q34 0 67 -8t54 -29t21 -61q0 -21 -13 -44t-43 -23q-21 0 -35 16.5t-14 42.5q0 23 8.5 43t20.5 35q-14 8 -40 8q-36 0 -58 -23t-22 -65
q-1 -34 16 -61t43 -68q28 -45 44 -80.5t16 -72.5q0 -44 -23.5 -79t-64.5 -55t-96 -20q-39 0 -74.5 10.5t-58 34.5t-22.5 66q0 23 12.5 42.5t38.5 19.5t39 -21t13 -52q0 -22 -5.5 -40.5t-9.5 -30.5z" />
    <glyph glyph-name="t" unicode="t" horiz-adv-x="348" 
d="M393 516l-3 -20h-335l5 20h333zM150 85q-8 -28 2.5 -41t28.5 -13q21 0 42.5 20t39.5 70l15 41h19l-20 -60q-21 -62 -58 -89t-88 -27q-67 0 -87 44t-1 109l151 527q36 1 67.5 4t59.5 10z" />
    <glyph glyph-name="u" unicode="u" horiz-adv-x="587" 
d="M395 349q-38 -107 -71 -177t-65.5 -111t-66.5 -58t-72 -17q-64 0 -80.5 41.5t6.5 109.5l97 294q10 30 5 42t-20 12t-31.5 -17t-35.5 -69l-16 -45h-19l25 73q22 63 58.5 83t71.5 20q44 0 63.5 -19.5t20 -54t-15.5 -79.5l-91 -275q-24 -72 14 -72q26 0 58.5 36.5t66 100.5
t65 147.5t56.5 176.5zM426 85q-7 -25 -6 -39.5t18 -14.5q19 0 35.5 19.5t33.5 66.5l17 47h19l-26 -75q-22 -60 -58 -81.5t-72 -21.5q-24 0 -41 8.5t-25 23.5q-10 18 -8.5 44t11.5 64l100 390q36 1 68 4t59 10z" />
    <glyph glyph-name="v" unicode="v" horiz-adv-x="527" 
d="M470 346q-37 17 -64.5 49.5t-25.5 77.5q1 29 18 43.5t39 14.5q37 0 52 -34.5t11 -89.5q-4 -58 -19 -117.5t-41.5 -113.5t-64.5 -97t-87 -68t-110 -25q-52 0 -81 18.5t-40.5 47t-10.5 58.5q3 60 36.5 124t90 129t129.5 127q-22 -4 -41.5 -16t-36.5 -25.5t-33 -23.5
t-33 -10q-18 0 -30.5 10.5t-28.5 10.5q-15 0 -24 -11.5t-18 -40.5l-10 -31h-19l22 73q18 62 43 83t51 21q19 0 32.5 -8.5t28.5 -17.5t38 -9q18 0 38 5.5t38 19.5l10 19l21 -10q-49 -67 -85.5 -138.5t-57.5 -140.5t-25 -131q-2 -48 9.5 -70t34.5 -22q41 0 76 20.5t63.5 55
t50 77t35 85.5t19.5 81z" />
    <glyph glyph-name="w" unicode="w" horiz-adv-x="681" 
d="M298 59q-31 -32 -71 -52.5t-90 -20.5q-69 0 -100 35.5t-31 84.5q0 47 27 95.5t73.5 97.5t105 97t121.5 94h8q-24 -4 -46 -15.5t-40 -25.5t-35.5 -24t-34.5 -10q-19 0 -31.5 10.5t-28.5 10.5q-15 0 -24 -11.5t-19 -40.5l-10 -31h-19l23 73q19 61 43.5 81.5t50.5 20.5
q19 0 34 -8t31.5 -16.5t41.5 -8.5q19 0 38 5.5t39 19.5l13 19l21 -10q-66 -63 -122 -135t-90.5 -145.5t-34.5 -144.5q0 -41 13 -60t38 -19q51 0 100 51zM438 37q39 0 69 22t50.5 57.5t32 78.5t15.5 85t-1 77q-25 9 -53 23.5t-47 38t-19 56.5q0 24 14.5 39.5t37.5 15.5
t38 -14.5t25 -37.5t16 -50t9 -53q6 -47 1 -100t-21.5 -104t-45.5 -93t-70.5 -67t-96.5 -25q-33 0 -62.5 12t-47.5 42t-18 83q0 45 15.5 87.5t39.5 76t51 53t49 19.5q17 0 25 -11t10.5 -27t2.5 -29q0 -59 -29 -116.5t-87 -104.5l-6 17q45 39 72 93.5t27 108.5q0 20 -4 33.5
t-14 13.5q-15 0 -31 -24.5t-27.5 -62.5t-11.5 -81q0 -34 9 -64.5t30 -49t53 -18.5z" />
    <glyph glyph-name="x" unicode="x" horiz-adv-x="552" 
d="M352 82q4 -26 12.5 -36t21.5 -10q14 0 29 16.5t34 71.5l13 37h19l-25 -73q-14 -42 -35.5 -64t-45 -30t-47.5 -8q-39 0 -67 20.5t-34 75.5l-40 352q-4 26 -13 34.5t-22 8.5q-14 0 -29 -15t-33 -70l-13 -37h-19l25 73q14 42 35 64t45.5 30t48.5 8q43 0 68.5 -21t32.5 -81z
M412 463q-40 -43 -66 -100.5t-40 -101.5l-10 0.5l-10 0.5q7 20 19.5 55t33.5 75.5t51 76.5q28 35 54 48t52 13q28 0 46 -15t18 -41q0 -27 -18.5 -46t-49.5 -19q-25 0 -47 13.5t-33 40.5zM109 53q41 43 70.5 99.5t45.5 102.5l9 -1.5l9 -1.5q-9 -27 -23.5 -61.5t-35.5 -71.5
t-52 -71q-29 -33 -55.5 -47.5t-51.5 -14.5q-30 0 -47 14.5t-17 39.5q0 29 20 48t48 19q30 0 49 -15.5t31 -38.5z" />
    <glyph glyph-name="y" unicode="y" horiz-adv-x="482" 
d="M299 54l-93 -105l-80 480q-4 29 -10 40t-17 11t-22.5 -15.5t-29.5 -65.5l-16 -44h-19l25 73q21 61 52.5 81.5t68.5 20.5t59.5 -21.5t30.5 -81.5zM67 -139q45 22 94.5 61.5t102.5 106.5q56 72 100.5 156.5t64.5 165.5q-33 18 -61 48.5t-27 69.5q2 29 18.5 45t43.5 16
q32 0 47 -22.5t15 -64.5q0 -49 -16.5 -106t-44.5 -116.5t-63.5 -115t-72.5 -102.5q-27 -32 -61.5 -65t-76 -61.5t-88.5 -46.5q-24 -10 -43 -14t-32 -4q-28 0 -46 13.5t-18 37.5q0 25 18.5 40.5t46.5 15.5t52.5 -16t46.5 -42z" />
    <glyph glyph-name="z" unicode="z" horiz-adv-x="457" 
d="M31 50q31 16 56.5 33t49 28.5t45.5 11.5q24 0 42 -8t35 -16t39 -8q21 0 32 11t11 29q0 25 -19 40.5t-46 21.5l6 15q51 -11 76.5 -37t25.5 -66q0 -46 -29 -80t-93 -34q-30 0 -52 7.5t-42 17.5t-43 17.5t-54 7.5q-26 0 -47.5 -8.5t-42.5 -32.5h-29l474 469
q-24 -12 -46.5 -26t-42.5 -26.5t-39 -20t-36 -7.5q-24 0 -42 8t-35 16t-38 8q-20 0 -32 -10.5t-12 -29.5q0 -23 18 -38.5t47 -23.5l-6 -15q-48 11 -75 36t-27 65q0 30 14 57t43.5 44t76.5 17q29 0 51 -7t41.5 -17t41.5 -17t53 -7q28 0 49 8.5t41 32.5h29z" />
    <glyph glyph-name="braceleft" unicode="{" horiz-adv-x="343" 
d="M196 -188q-71 0 -108.5 15.5t-50.5 45.5t-8 73t18 97q16 67 24.5 111.5t8.5 72.5q-1 31 -12.5 44t-34.5 15h-5l3 18h5q31 2 53 24t41 73.5t43 145.5q23 94 56.5 145t83 70.5t123.5 19.5l-5 -19q-24 0 -41.5 -6.5t-31 -28t-27.5 -64.5t-32 -117q-22 -90 -57 -140.5
t-81 -75.5t-103 -36q53 -14 83 -37t40.5 -55t7 -72t-15.5 -88q-15 -61 -22.5 -100t-6.5 -62q0 -31 14.5 -40t42.5 -10z" />
    <glyph glyph-name="bar" unicode="|" horiz-adv-x="352" 
d="M222 858v-1053h-72v1053h72z" />
    <glyph glyph-name="braceright" unicode="}" horiz-adv-x="342" 
d="M148 782q71 0 108.5 -15.5t50.5 -45.5t8 -73t-18 -97q-16 -67 -24.5 -111.5t-8.5 -72.5q1 -31 12.5 -44t34.5 -15h5l-3 -18h-5q-31 -2 -53 -24t-41 -73.5t-43 -145.5q-23 -94 -56.5 -145t-83 -70.5t-123.5 -19.5l5 19q24 0 41.5 6.5t31 28t27.5 64.5t32 117
q22 90 57 140.5t81 75.5t103 36q-53 14 -83 37t-40.5 55t-7 72t15.5 88q15 61 22.5 100t6.5 62q0 31 -14.5 40t-42.5 10z" />
    <glyph glyph-name="asciitilde" unicode="~" horiz-adv-x="647" 
d="M407 221q-38 0 -67 12t-54.5 27t-52.5 27t-62 12q-29 0 -55.5 -13t-46.5 -45l-14 5q27 64 77 101.5t112 37.5q38 0 67 -12t54.5 -27t53 -27t61.5 -12q29 0 55.5 13t46.5 45l14 -5q-25 -63 -75.5 -101t-113.5 -38z" />
    <glyph glyph-name="uni00A0" unicode="&#xa0;" horiz-adv-x="255" 
 />
    <glyph glyph-name="exclamdown" unicode="&#xa1;" horiz-adv-x="281" 
d="M154 316q-20 -78 -28 -155.5t-12 -146.5t-12 -125q-3 -37 -24 -57t-57 -20q-33 0 -48.5 18t-10.5 48q6 36 26.5 84t48 105t54.5 120.5t45 131.5zM110 441q0 37 26.5 63t62.5 26q29 0 45.5 -16t16.5 -42q0 -34 -27 -61t-63 -27q-28 0 -44.5 15.5t-16.5 41.5z" />
    <glyph glyph-name="cent" unicode="&#xa2;" horiz-adv-x="463" 
d="M370 708l-239 -889h-22l239 889h22zM346 510q-37 0 -73.5 -31t-66 -84.5t-47 -121t-17.5 -139.5q0 -52 20.5 -75t53.5 -23t68 20t70 72l20 -8q-20 -33 -51 -64t-71.5 -50.5t-89.5 -19.5q-67 0 -109 37.5t-42 113.5q0 61 23 129t65.5 128t103.5 98t136 38q52 0 84.5 -26
t32.5 -67q0 -24 -11.5 -47t-31.5 -38t-46 -15q-23 0 -37.5 14t-14.5 37q0 37 26 64t60 35q-9 10 -22 16.5t-33 6.5z" />
    <glyph glyph-name="sterling" unicode="&#xa3;" horiz-adv-x="656" 
d="M431 317l-6 -20h-369l6 20h369zM458 417l-6 -20h-369l6 20h369zM515 721q-49 0 -80.5 -26.5t-50.5 -72t-34 -102.5l-43 -164q-12 -43 -29.5 -74t-39.5 -56t-46.5 -48t-50 -48t-49.5 -57q37 29 79 47t86 18q42 0 74 -10.5t61 -21t62 -10.5q25 0 44 14t19 40q0 23 -17 38
t-51 22l5 18q31 -5 58 -18t44 -35t17 -55q0 -35 -19.5 -65.5t-53.5 -49.5t-77 -19q-40 0 -70.5 13t-57.5 30.5t-57 30.5t-70 13q-21 0 -41.5 -3.5t-43.5 -12.5q-21 -35 -47.5 -53t-49.5 -18q-13 0 -13 10q0 15 25 38t74 35q17 34 34.5 75.5t36.5 113.5l48 181
q22 83 63.5 150.5t106 107t156.5 39.5q56 0 84.5 -25t28.5 -59q0 -37 -22.5 -62t-57.5 -25q-25 0 -41.5 13.5t-16.5 38.5q0 31 19.5 54.5t49.5 30.5q-2 8 -15.5 13.5t-30.5 5.5z" />
    <glyph glyph-name="currency" unicode="&#xa4;" horiz-adv-x="628" 
d="M190 300q0 -38 17.5 -68.5t46.5 -47.5t63 -17q35 0 63.5 17t45.5 47.5t17 68.5t-17 68.5t-45.5 48t-63.5 17.5t-64 -17.5t-46 -47.5t-17 -69zM88 138l53 53q-16 23 -24.5 51t-8.5 58q0 59 33 109l-53 54l66 66l53 -53q23 16 51 24.5t58 8.5q31 0 58 -9t51 -25l54 54
l66 -66l-54 -54q16 -24 24.5 -51.5t8.5 -57.5t-8.5 -58t-24.5 -51l54 -53l-66 -67l-54 54q-24 -15 -51 -24t-58 -9q-62 0 -109 32l-53 -53z" />
    <glyph glyph-name="yen" unicode="&#xa5;" horiz-adv-x="752" 
d="M553 217l-5 -20h-412l5 20h412zM575 297l-5 -20h-412l5 20h412zM391 106q-13 -55 1.5 -69.5t65.5 -16.5l-5 -20q-18 1 -43.5 1.5t-55 1t-57.5 0.5q-45 0 -85.5 -0.5t-65.5 -2.5l5 20q34 2 53 8t30 24t20 54l69 274l55 -63l57 19l34 80zM720 703q-16 -1 -30 -6.5
t-29 -16.5q-29 -22 -70 -74t-84 -135.5t-81 -200.5l-110 -5q-4 46 -11 99t-16.5 104t-23 93.5t-31 68t-40.5 25.5q-18 0 -29 -12.5t-18 -34.5l-23 -70h-11h-11l28 84q18 54 49 77t77 23q64 0 99.5 -43t53.5 -123.5t30 -191.5q36 95 80 169.5t92 125.5q23 25 53.5 44t64.5 19
q42 0 62 -23.5t19 -54.5t-22.5 -56t-58.5 -25q-29 0 -44 16t-14 40q1 27 18 48.5t43 31.5q-2 2 -5 3t-7 1z" />
    <glyph glyph-name="brokenbar" unicode="&#xa6;" horiz-adv-x="356" 
d="M152 -195v521h72v-521h-72zM224 858v-474h-72v474h72z" />
    <glyph glyph-name="section" unicode="&#xa7;" horiz-adv-x="553" 
d="M493 736q-3 10 -16 16t-29.5 8.5t-31.5 2.5q-33 0 -64 -13t-51.5 -41t-20.5 -74q0 -30 16 -54.5t43 -48t58 -49.5q53 -45 85 -81t32 -84q0 -52 -28 -92.5t-72 -70t-92 -50.5l-7 12q23 13 43.5 29t35.5 38t17 51q3 28 -9.5 51.5t-39 48.5t-66.5 57q-62 50 -100 92t-38 95
q0 47 22.5 84.5t59.5 64t82.5 40.5t91.5 14q22 0 48 -4t50 -14.5t39.5 -28t15.5 -43.5q0 -34 -24.5 -60.5t-61.5 -26.5q-26 0 -40 14t-14 36q0 28 20 49.5t46 31.5zM137 -169q34 0 65.5 13.5t51.5 42t20 73.5q0 31 -16 55t-43 47t-58 49q-53 45 -85.5 81t-32.5 84
q0 53 28.5 93t72.5 69.5t92 50.5l7 -12q-22 -13 -44.5 -31t-37.5 -41.5t-15 -54.5q0 -36 30.5 -69.5t85.5 -78.5q63 -50 100 -92t37 -95q0 -47 -22 -84.5t-59.5 -64t-83 -40.5t-91.5 -14q-21 0 -47 4t-50 14t-39.5 28t-15.5 46q0 33 24.5 59t60.5 26q26 0 40.5 -13t14.5 -35
q0 -29 -19.5 -51t-47.5 -32q6 -14 31 -20.5t46 -6.5z" />
    <glyph glyph-name="dieresis" unicode="&#xa8;" horiz-adv-x="462" 
d="M156 676q0 35 24.5 57t55.5 22q29 0 44.5 -17.5t15.5 -44.5q0 -35 -24.5 -56.5t-55.5 -21.5q-29 0 -44.5 17.5t-15.5 43.5zM379 676q0 35 24 57t56 22q28 0 44 -17.5t16 -44.5q0 -35 -25 -56.5t-56 -21.5q-29 0 -44 17.5t-15 43.5z" />
    <glyph glyph-name="copyright" unicode="&#xa9;" horiz-adv-x="915" 
d="M84 384q0 83 31 155t85.5 126.5t127 85.5t154.5 31q83 0 155 -31t126.5 -85.5t85.5 -126.5t31 -155q0 -82 -31 -154.5t-85.5 -127t-126.5 -85.5t-155 -31q-82 0 -154.5 31t-127 85.5t-85.5 127t-31 154.5zM124 384q0 -76 28 -142t77 -116.5t114 -79t139 -28.5t139 28.5
t114 79t77 116.5t28 142t-28 142t-77 116.5t-114 79t-139 28.5t-139 -28.5t-114 -79t-77 -116.5t-28 -142zM528 170q22 0 45.5 8t47.5 30t43 62l18 -6q-11 -36 -35 -71t-63.5 -58t-94.5 -23q-64 0 -116.5 29.5t-83 89.5t-30.5 149q0 88 31.5 149.5t86.5 94.5t125 33
q43 0 83 -13.5t65.5 -39.5t25.5 -66q0 -33 -20 -53t-50 -20q-31 0 -50.5 19t-19.5 50q0 28 17 46t41 24q-9 14 -30.5 23t-46.5 9q-33 0 -61.5 -21t-46 -73.5t-17.5 -148.5q0 -84 19.5 -133t50.5 -69.5t66 -20.5z" />
    <glyph glyph-name="ordfeminine" unicode="&#xaa;" horiz-adv-x="506" 
d="M421 443q-6 -19 -4 -30t17 -11q14 0 25 11t22 40l9 25h19l-15 -41q-16 -42 -43 -59.5t-66 -17.5q-26 0 -42.5 10t-19.5 34.5t9 67.5l69 241q62 0 110 9zM235 399q22 0 50 33.5t53.5 85.5t38.5 109l-14 -79q-25 -73 -53 -113.5t-58.5 -57.5t-62.5 -17q-43 0 -66.5 23.5
t-23.5 64.5q0 46 22.5 94t59.5 89t82 66t89 25q17 0 31.5 -10.5t9.5 -44.5l-7 -16q1 26 -6.5 36.5t-18.5 10.5q-21 0 -46.5 -21t-49.5 -57t-38.5 -80t-14.5 -91q0 -50 23 -50z" />
    <glyph glyph-name="guillemotleft" unicode="&#xab;" horiz-adv-x="563" 
d="M352 530q-15 -32 -39.5 -71.5t-53.5 -80t-58.5 -74t-55.5 -54.5q24 -25 47 -72t40 -99.5t22 -92.5h-18q-44 75 -96 141t-120 118l2 10q89 57 164.5 126t147.5 149h18zM533 514q-13 -30 -35 -67.5t-49 -75.5t-54.5 -70t-51.5 -51q22 -23 43 -67.5t37 -93.5t20 -87h-18
q-42 70 -91 132t-113 111l2 10q83 53 154 118.5t138 140.5h18z" />
    <glyph glyph-name="logicalnot" unicode="&#xac;" horiz-adv-x="651" 
d="M88 340l9 30h501l-59 -205h-36l50 175h-465z" />
    <glyph glyph-name="uni00AD" unicode="&#xad;" horiz-adv-x="505" 
 />
    <glyph glyph-name="registered" unicode="&#xae;" horiz-adv-x="690" 
d="M401 782q77 0 140.5 -37.5t101 -101t37.5 -140.5t-37.5 -140.5t-101 -101t-140.5 -37.5t-140.5 37.5t-101 101t-37.5 140.5t37.5 140.5t101 101t140.5 37.5zM334 522q34 0 48.5 -1t22 -2.5t18.5 -3.5q51 -4 69.5 -18t23.5 -41l14 -63q3 -11 5.5 -18.5t10.5 -7.5q7 0 12 6
l8 -8q-7 -10 -19 -15t-31 -5q-29 0 -44 10.5t-20 32.5l-15 73q-4 20 -11.5 29.5t-27.5 13t-62 3.5zM401 750q-66 0 -120 -33.5t-85.5 -89.5t-31.5 -124q0 -67 31.5 -123.5t85.5 -90t120 -33.5t120 33.5t85.5 90t31.5 123.5q0 68 -31.5 124t-85.5 89.5t-120 33.5zM412 676
q62 0 91 -20.5t29 -58.5q0 -18 -11.5 -37t-42.5 -33t-89 -17l-60 -3v8v8h53q42 0 57.5 18.5t15.5 48.5q0 35 -14 53t-45 18q-19 0 -24.5 -6t-5.5 -24v-227q0 -23 4.5 -29t18.5 -8v-15q-12 0 -27.5 0.5t-31.5 0.5q-19 0 -35.5 -0.5t-26.5 -0.5v15q14 2 18.5 8t4.5 29v219
q0 24 -4.5 30.5t-18.5 7.5v15q10 -1 26 -1h32q28 0 52 0.5t34 0.5z" />
    <glyph glyph-name="macron" unicode="&#xaf;" horiz-adv-x="428" 
d="M491 712l-6 -25h-328l6 25h328z" />
    <glyph glyph-name="degree" unicode="&#xb0;" horiz-adv-x="334" 
d="M261 820q49 0 85.5 -32t36.5 -88t-36.5 -88.5t-85.5 -32.5q-48 0 -84.5 32.5t-36.5 88.5t36.5 88t84.5 32zM261 597q34 0 65.5 25.5t31.5 76.5t-31.5 77t-65.5 26t-65 -26t-31 -77t31 -76.5t65 -25.5z" />
    <glyph glyph-name="plusminus" unicode="&#xb1;" horiz-adv-x="623" 
d="M-18 0l9 30h501l-9 -30h-501zM82 370h233l67 236h36l-67 -236h232l-9 -30h-232l-67 -235h-36l67 235h-233z" />
    <glyph glyph-name="uni00B2" unicode="&#xb2;" horiz-adv-x="351" 
d="M299 754q38 0 62 -13t24 -44q0 -29 -21 -56t-53.5 -51t-66.5 -45t-58 -39q25 0 62 -9t62 -9q19 0 31 8.5t12 22.5q0 11 -4 19l17 7q7 -9 10.5 -20t3.5 -23q0 -29 -22.5 -49t-68.5 -20q-32 0 -62 8t-72 10q-24 2 -40 -1.5t-38 -12.5l4 18q21 15 57.5 38t74.5 53t63.5 63
t25.5 67q0 22 -13 32t-37 10q-26 0 -52 -11.5t-51 -38.5l-14 11q25 29 66.5 52t97.5 23z" />
    <glyph glyph-name="uni00B3" unicode="&#xb3;" horiz-adv-x="335" 
d="M303 754q39 0 63.5 -13t24.5 -41t-25.5 -51.5t-61.5 -39.5t-68 -23q52 -1 88.5 -17.5t36.5 -56.5q0 -37 -31 -66.5t-80.5 -50.5t-105 -33t-105.5 -15v18q57 5 111.5 23.5t90.5 52t36 79.5q0 27 -12.5 38.5t-34.5 13.5q-11 -6 -19 -8t-13 -2q-6 0 -12 3t-6 10
q0 10 12.5 14t31.5 3q38 15 61.5 38.5t23.5 51.5q0 20 -12 29t-32 9q-25 0 -52.5 -11.5t-58.5 -41.5l-14 12q23 25 66 50t97 25z" />
    <glyph glyph-name="acute" unicode="&#xb4;" horiz-adv-x="289" 
d="M138 608q38 51 61.5 88.5t41 65t38.5 48.5q18 20 41 24t41 -11q15 -15 10.5 -35.5t-26.5 -42.5q-19 -20 -46.5 -38.5t-65 -43.5t-85.5 -64z" />
    <glyph glyph-name="paragraph" unicode="&#xb6;" horiz-adv-x="686" 
d="M414 333q-19 -80 -28.5 -144.5t-11.5 -102.5t0 -38l8.5 32.5t23 86.5t32 118.5t34.5 129.5t31.5 119t24 87.5t9.5 34.5q-3 0 -21.5 -39.5t-43.5 -104t-48 -142.5q-75 0 -139 -4t-102 -8.5t-39 -6.5q0 -2 35.5 -6.5t97.5 -8t137 -3.5zM356 -13q-115 0 -185 30.5t-101.5 85
t-31.5 126.5q0 99 36 186t100.5 153t150 103.5t184.5 37.5q47 0 89 -1.5t81 -1.5q21 0 42.5 0.5t41.5 1.5l-5 -19q-49 -2 -67.5 -18.5t-27.5 -49.5l-141 -539q-20 -78 -56 -139t-91 -96t-135 -35q-53 0 -89.5 16t-37.5 53q0 28 21 49.5t56 21.5q26 0 43 -12.5t17 -35.5
q0 -22 -12.5 -40t-34.5 -32q8 -1 15 -2.5t15 -1.5q49 0 75 42.5t48 116.5z" />
    <glyph glyph-name="periodcentered" unicode="&#xb7;" horiz-adv-x="279" 
d="M55 244q0 37 26.5 63t62.5 26q29 0 45.5 -16t16.5 -43q0 -34 -27 -60.5t-63 -26.5q-28 0 -44.5 15.5t-16.5 41.5z" />
    <glyph glyph-name="cedilla" unicode="&#xb8;" horiz-adv-x="322" 
d="M117 0l-40 -70q10 4 23.5 6.5t25.5 2.5q24 0 39.5 -10.5t15.5 -30.5q0 -31 -23.5 -50t-58 -27.5t-68.5 -8.5q-30 0 -53 7t-34 13l7 16q7 -3 22 -7.5t38 -4.5q12 0 30 4t32 14t14 29q0 24 -28 24q-5 0 -14 -1.5t-17 -5.5l61 100h28z" />
    <glyph glyph-name="uni00B9" unicode="&#xb9;" horiz-adv-x="263" 
d="M329 753l-101 -316h-83l78 240q-24 -12 -50 -22.5t-65 -20.5l5 19q78 22 121 48.5t76 51.5h19z" />
    <glyph glyph-name="ordmasculine" unicode="&#xba;" horiz-adv-x="465" 
d="M341 704q-25 0 -47.5 -24.5t-40.5 -64.5t-28.5 -86.5t-10.5 -91.5q0 -58 40 -58q25 0 47.5 24.5t40.5 64t28.5 86.5t10.5 92q0 58 -40 58zM106 477q0 35 15 77t45.5 80t75.5 63t104 25q65 0 104 -29t39 -88q0 -35 -15.5 -77t-45.5 -80t-75 -62.5t-104 -24.5
q-65 0 -104 29t-39 87z" />
    <glyph glyph-name="guillemotright" unicode="&#xbb;" horiz-adv-x="562" 
d="M308 530q45 -74 97 -140.5t119 -119.5l-2 -9q-88 -57 -164 -126t-148 -149h-18q15 33 39.5 72t53.5 79.5t58.5 74t54.5 54.5q-23 25 -46 72t-39.5 99.5t-22.5 92.5h18zM119 514q42 -70 91 -132.5t113 -111.5l-2 -9q-83 -53 -154 -118t-138 -141h-18q14 31 36.5 68t49 75
t54 69.5t50.5 51.5q-22 23 -43 67.5t-36.5 93.5t-20.5 87h18z" />
    <glyph glyph-name="onequarter" unicode="&#xbc;" horiz-adv-x="647" 
d="M719 824l15 -13l-833 -866l-15 13zM329 753l-101 -316h-83l78 240q-24 -12 -50 -22.5t-65 -20.5l5 19q78 22 121 48.5t76 51.5h19zM470 317l5 -21l-287 -249l11 22h272l-16 -53h-314l5 18zM489 317l-117 -402h-68l94 325l72 77h19z" />
    <glyph glyph-name="onehalf" unicode="&#xbd;" horiz-adv-x="616" 
d="M719 824l15 -13l-833 -866l-15 13zM329 753l-101 -316h-83l78 240q-24 -12 -50 -22.5t-65 -20.5l5 19q78 22 121 48.5t76 51.5h19zM466 317q38 0 62 -13t24 -44q0 -29 -21 -56t-53.5 -51t-66.5 -45t-58 -39q25 0 62 -9t62 -9q19 0 31 8.5t12 22.5q0 11 -4 19l17 7
q7 -9 10.5 -20t3.5 -23q0 -29 -22.5 -49t-68.5 -20q-32 0 -62 8t-72 10q-24 2 -40 -1.5t-38 -12.5l4 18q21 15 57.5 38t74.5 53t63.5 63t25.5 67q0 22 -13 32t-37 10q-26 0 -52 -11.5t-51 -38.5l-14 11q25 29 66.5 52t97.5 23z" />
    <glyph glyph-name="threequarters" unicode="&#xbe;" horiz-adv-x="735" 
d="M819 824l15 -13l-833 -866l-15 13zM303 754q39 0 63.5 -13t24.5 -41t-25.5 -51.5t-61.5 -39.5t-68 -23q52 -1 88.5 -17.5t36.5 -56.5q0 -37 -31 -66.5t-80.5 -50.5t-105 -33t-105.5 -15v18q57 5 111.5 23.5t90.5 52t36 79.5q0 27 -12.5 38.5t-34.5 13.5q-11 -6 -19 -8
t-13 -2q-6 0 -12 3t-6 10q0 10 12.5 14t31.5 3q38 15 61.5 38.5t23.5 51.5q0 20 -12 29t-32 9q-25 0 -52.5 -11.5t-58.5 -41.5l-14 12q23 25 66 50t97 25zM570 317l5 -21l-287 -249l11 22h272l-16 -53h-314l5 18zM589 317l-117 -402h-68l94 325l72 77h19z" />
    <glyph glyph-name="questiondown" unicode="&#xbf;" horiz-adv-x="474" 
d="M165 -168q17 0 37 3.5t37.5 11t24.5 18.5q-19 3 -33.5 19t-13.5 39q1 25 20.5 41.5t47.5 16.5q25 0 41 -14.5t16 -41.5q0 -28 -19 -49.5t-50 -35.5t-68.5 -21t-75.5 -7q-77 0 -125 28t-48 79q0 30 16.5 55t51.5 52.5t91 64.5q44 30 73.5 52t44.5 42.5t15 47.5
q0 25 -16.5 44.5t-49.5 19.5q-25 0 -50 -8t-36 -22q14 -1 28 -14.5t13 -33.5q0 -21 -17 -36.5t-43 -15.5q-20 0 -34.5 10.5t-14.5 35.5q0 27 18 46.5t47 32t61.5 18.5t62.5 6q64 0 106 -25.5t42 -74.5q0 -36 -21.5 -65t-57.5 -55.5t-77 -55.5q-66 -44 -97.5 -73t-31.5 -66
q0 -32 23 -50.5t62 -18.5zM206 441q0 37 26.5 63t62.5 26q29 0 45.5 -16t16.5 -42q0 -34 -27 -61t-63 -27q-28 0 -44.5 15.5t-16.5 41.5z" />
    <glyph glyph-name="Agrave" unicode="&#xc0;" 
d="M67 150q-33 -47 -36.5 -75t18 -40.5t61.5 -14.5l-4 -20q-38 2 -68.5 2.5t-57.5 0.5q-23 0 -39 -0.5t-32 -2.5l5 20q24 6 48.5 28t60.5 72l422 593q9 -1 19.5 -1t19.5 1l40 -629q3 -36 18.5 -49.5t30.5 -14.5l-4 -20q-24 2 -61.5 2.5t-71.5 0.5q-42 0 -80 -0.5t-60 -2.5
l4 20q48 2 68 17.5t18 66.5l-26 472l26 24zM156 288h292l-8 -20h-302zM506 770q-47 27 -80.5 42.5t-57 26t-41.5 24.5q-16 11 -24.5 31t3.5 38q14 21 37.5 20t39.5 -14q19 -14 34.5 -35t37.5 -51t60 -71z" />
    <glyph glyph-name="Aacute" unicode="&#xc1;" 
d="M67 150q-33 -47 -36.5 -75t18 -40.5t61.5 -14.5l-4 -20q-38 2 -68.5 2.5t-57.5 0.5q-23 0 -39 -0.5t-32 -2.5l5 20q24 6 48.5 28t60.5 72l422 593q9 -1 19.5 -1t19.5 1l40 -629q3 -36 18.5 -49.5t30.5 -14.5l-4 -20q-24 2 -61.5 2.5t-71.5 0.5q-42 0 -80 -0.5t-60 -2.5
l4 20q48 2 68 17.5t18 66.5l-26 472l26 24zM156 288h292l-8 -20h-302zM450 783q51 39 83.5 68t58 51t50.5 36q19 11 45 11.5t38 -23.5q10 -21 -3.5 -39.5t-34.5 -30.5q-36 -20 -90 -34t-140 -50z" />
    <glyph glyph-name="Acircumflex" unicode="&#xc2;" 
d="M67 150q-33 -47 -36.5 -75t18 -40.5t61.5 -14.5l-4 -20q-38 2 -68.5 2.5t-57.5 0.5q-23 0 -39 -0.5t-32 -2.5l5 20q24 6 48.5 28t60.5 72l422 593q9 -1 19.5 -1t19.5 1l40 -629q3 -36 18.5 -49.5t30.5 -14.5l-4 -20q-24 2 -61.5 2.5t-71.5 0.5q-42 0 -80 -0.5t-60 -2.5
l4 20q48 2 68 17.5t18 66.5l-26 472l26 24zM156 288h292l-8 -20h-302zM472 834q-42 -16 -98.5 -33.5t-114.5 -29.5l-5 14q80 26 148.5 65t110.5 82h18q23 -49 53.5 -85.5t85.5 -61.5l-4 -14q-71 13 -113 29t-81 34z" />
    <glyph glyph-name="Atilde" unicode="&#xc3;" 
d="M67 150q-33 -47 -36.5 -75t18 -40.5t61.5 -14.5l-4 -20q-38 2 -68.5 2.5t-57.5 0.5q-23 0 -39 -0.5t-32 -2.5l5 20q24 6 48.5 28t60.5 72l422 593q9 -1 19.5 -1t19.5 1l40 -629q3 -36 18.5 -49.5t30.5 -14.5l-4 -20q-24 2 -61.5 2.5t-71.5 0.5q-42 0 -80 -0.5t-60 -2.5
l4 20q48 2 68 17.5t18 66.5l-26 472l26 24zM156 288h292l-8 -20h-302zM431 916q36 0 59.5 -11t41.5 -25.5t37 -25.5t46 -11q20 0 38.5 13.5t36.5 44.5l18 -5q-26 -68 -69 -97.5t-85 -29.5q-36 0 -59.5 11t-41.5 25.5t-37 25.5t-46 11q-20 0 -38.5 -13t-36.5 -45l-18 5
q27 69 69.5 98t84.5 29z" />
    <glyph glyph-name="Adieresis" unicode="&#xc4;" 
d="M67 150q-33 -47 -36.5 -75t18 -40.5t61.5 -14.5l-4 -20q-38 2 -68.5 2.5t-57.5 0.5q-23 0 -39 -0.5t-32 -2.5l5 20q24 6 48.5 28t60.5 72l422 593q9 -1 19.5 -1t19.5 1l40 -629q3 -36 18.5 -49.5t30.5 -14.5l-4 -20q-24 2 -61.5 2.5t-71.5 0.5q-42 0 -80 -0.5t-60 -2.5
l4 20q48 2 68 17.5t18 66.5l-26 472l26 24zM156 288h292l-8 -20h-302zM300 829q0 35 24 56.5t56 21.5q28 0 44 -17t16 -44q0 -36 -24.5 -57t-55.5 -21q-30 0 -45 17t-15 44zM530 829q0 35 24.5 56.5t55.5 21.5q29 0 44.5 -17t15.5 -44q0 -36 -24.5 -57t-55.5 -21
q-29 0 -44.5 17t-15.5 44z" />
    <glyph glyph-name="Aring" unicode="&#xc5;" 
d="M67 150q-33 -47 -36.5 -75t18 -40.5t61.5 -14.5l-4 -20q-38 2 -68.5 2.5t-57.5 0.5q-23 0 -39 -0.5t-32 -2.5l5 20q24 6 48.5 28t60.5 72l422 593q9 -1 19.5 -1t19.5 1l40 -629q3 -36 18.5 -49.5t30.5 -14.5l-4 -20q-24 2 -61.5 2.5t-71.5 0.5q-42 0 -80 -0.5t-60 -2.5
l4 20q48 2 68 17.5t18 66.5l-26 472l26 24zM156 288h292l-8 -20h-302zM494 933q39 0 66.5 -22.5t27.5 -61.5q0 -29 -17 -53.5t-44.5 -39t-59.5 -14.5q-38 0 -64 22.5t-26 61.5q0 46 34 76.5t83 30.5zM472 763q35 0 62.5 24.5t27.5 61.5q0 32 -23 47.5t-49 15.5
q-34 0 -60.5 -26t-26.5 -59q0 -32 22 -48t47 -16z" />
    <glyph glyph-name="AE" unicode="&#xc6;" horiz-adv-x="902" 
d="M621 773l-585 -679q-29 -33 -28 -51t61 -23v-20q-13 2 -37 2.5t-49 0.5q-18 0 -36.5 -0.5t-30.5 -2.5v20q31 2 86 64l593 689h26zM240 346l19 20h456l-4 -20h-471zM644 366q45 0 66 34.5t37 77.5h22q-13 -39 -19.5 -64.5t-14.5 -57.5q-6 -22 -11.5 -47t-14.5 -75h-22
q0 23 4 48t-4.5 43.5t-46.5 20.5zM487 106q-14 -55 -3 -69t60 -14h83q48 0 79.5 17t54.5 55.5t45 104.5h22q-5 -13 -10.5 -32t-10.5 -40q-5 -19 -13 -54.5t-13 -73.5q-51 2 -113.5 2.5t-112.5 0.5h-85.5t-113.5 -0.5t-113 -2.5l4 20q34 2 53 8t30 24t20 54l132 496
q14 55 2.5 69.5t-61.5 16.5l5 20q53 -1 112.5 -2t113 -1h85.5q46 0 103 0.5t104 2.5q-13 -35 -23 -68t-15 -50q-5 -18 -8 -34.5l-5 -27.5h-22q16 89 -2.5 123t-78.5 34h-73q-33 0 -51.5 -5.5t-28.5 -23t-20 -54.5z" />
    <glyph glyph-name="Ccedilla" unicode="&#xc7;" horiz-adv-x="685" 
d="M734 708q-15 -39 -31 -94.5t-33 -135.5h-22q9 51 7.5 88.5t-15.5 63.5q-19 36 -51.5 53t-71.5 17q-50 0 -97.5 -28t-87.5 -77t-70.5 -112t-47.5 -133.5t-17 -140.5q0 -100 37.5 -148.5t101.5 -48.5q38 0 82 18t76 52q27 28 46.5 64t43.5 94h22q-25 -91 -38.5 -146.5
t-20.5 -93.5h-22q3 21 3 34q0 22 -8 25t-25 -8q-40 -27 -84.5 -46t-108.5 -19q-127 0 -192 63t-65 180q0 70 22.5 140t64 133.5t99 113t128 78t151.5 28.5q63 0 94.5 -20t53.5 -45q14 -15 27 -3.5t28 54.5h21zM322 5l-33 -71q27 9 55 9q29 0 46 -11.5t17 -33.5
q0 -31 -26 -50t-64 -27.5t-74 -8.5q-37 0 -65 7t-42 13l7 16q8 -3 29.5 -7.5t50.5 -4.5q16 0 38 4t39 14t17 29q0 24 -34 24q-6 0 -16.5 -1.5t-20.5 -5.5l49 105h27z" />
    <glyph glyph-name="Egrave" unicode="&#xc8;" horiz-adv-x="621" 
d="M217 346l5 20h189l-5 -20h-189zM321 366q39 0 64.5 20t42 49t27.5 55h22q-16 -50 -23 -78t-15 -56q-4 -18 -8.5 -35t-9 -40t-11.5 -59h-23q3 28 1 57t-18.5 48t-57.5 19zM587 528q7 59 0 93.5t-31 49t-72 14.5h-45q-34 0 -52.5 -5.5t-29 -23t-20.5 -54.5l-133 -496
q-14 -55 -3 -69t62 -14h49q57 0 94 17t65 55.5t55 104.5h22q-5 -13 -10.5 -32t-10.5 -40q-5 -19 -13 -54.5t-14 -73.5q-51 2 -114.5 2.5t-113.5 0.5h-85.5t-114 -0.5t-112.5 -2.5l4 20q34 2 53 8t30 24t20 54l133 496q15 55 3.5 69.5t-61.5 16.5l5 20q52 -1 112.5 -2t114 -1
h85.5q45 0 101 0.5t102 2.5q-13 -35 -22.5 -64.5t-15.5 -53.5q-5 -18 -8.5 -34.5t-5.5 -27.5h-23zM467 770q-47 27 -80.5 42.5t-57 26t-41.5 24.5q-16 11 -24.5 31t3.5 38q14 21 37.5 20t39.5 -14q19 -14 34.5 -35t37.5 -51t60 -71z" />
    <glyph glyph-name="Eacute" unicode="&#xc9;" horiz-adv-x="621" 
d="M217 346l5 20h189l-5 -20h-189zM321 366q39 0 64.5 20t42 49t27.5 55h22q-16 -50 -23 -78t-15 -56q-4 -18 -8.5 -35t-9 -40t-11.5 -59h-23q3 28 1 57t-18.5 48t-57.5 19zM587 528q7 59 0 93.5t-31 49t-72 14.5h-45q-34 0 -52.5 -5.5t-29 -23t-20.5 -54.5l-133 -496
q-14 -55 -3 -69t62 -14h49q57 0 94 17t65 55.5t55 104.5h22q-5 -13 -10.5 -32t-10.5 -40q-5 -19 -13 -54.5t-14 -73.5q-51 2 -114.5 2.5t-113.5 0.5h-85.5t-114 -0.5t-112.5 -2.5l4 20q34 2 53 8t30 24t20 54l133 496q15 55 3.5 69.5t-61.5 16.5l5 20q52 -1 112.5 -2t114 -1
h85.5q45 0 101 0.5t102 2.5q-13 -35 -22.5 -64.5t-15.5 -53.5q-5 -18 -8.5 -34.5t-5.5 -27.5h-23zM411 783q51 39 83.5 68t58 51t50.5 36q19 11 45 11.5t38 -23.5q10 -21 -3.5 -39.5t-34.5 -30.5q-36 -20 -90 -34t-140 -50z" />
    <glyph glyph-name="Ecircumflex" unicode="&#xca;" horiz-adv-x="621" 
d="M217 346l5 20h189l-5 -20h-189zM321 366q39 0 64.5 20t42 49t27.5 55h22q-16 -50 -23 -78t-15 -56q-4 -18 -8.5 -35t-9 -40t-11.5 -59h-23q3 28 1 57t-18.5 48t-57.5 19zM587 528q7 59 0 93.5t-31 49t-72 14.5h-45q-34 0 -52.5 -5.5t-29 -23t-20.5 -54.5l-133 -496
q-14 -55 -3 -69t62 -14h49q57 0 94 17t65 55.5t55 104.5h22q-5 -13 -10.5 -32t-10.5 -40q-5 -19 -13 -54.5t-14 -73.5q-51 2 -114.5 2.5t-113.5 0.5h-85.5t-114 -0.5t-112.5 -2.5l4 20q34 2 53 8t30 24t20 54l133 496q15 55 3.5 69.5t-61.5 16.5l5 20q52 -1 112.5 -2t114 -1
h85.5q45 0 101 0.5t102 2.5q-13 -35 -22.5 -64.5t-15.5 -53.5q-5 -18 -8.5 -34.5t-5.5 -27.5h-23zM433 834q-42 -16 -98.5 -33.5t-114.5 -29.5l-5 14q80 26 148.5 65t110.5 82h18q23 -49 53.5 -85.5t85.5 -61.5l-4 -14q-71 13 -113 29t-81 34z" />
    <glyph glyph-name="Edieresis" unicode="&#xcb;" horiz-adv-x="621" 
d="M217 346l5 20h189l-5 -20h-189zM321 366q39 0 64.5 20t42 49t27.5 55h22q-16 -50 -23 -78t-15 -56q-4 -18 -8.5 -35t-9 -40t-11.5 -59h-23q3 28 1 57t-18.5 48t-57.5 19zM587 528q7 59 0 93.5t-31 49t-72 14.5h-45q-34 0 -52.5 -5.5t-29 -23t-20.5 -54.5l-133 -496
q-14 -55 -3 -69t62 -14h49q57 0 94 17t65 55.5t55 104.5h22q-5 -13 -10.5 -32t-10.5 -40q-5 -19 -13 -54.5t-14 -73.5q-51 2 -114.5 2.5t-113.5 0.5h-85.5t-114 -0.5t-112.5 -2.5l4 20q34 2 53 8t30 24t20 54l133 496q15 55 3.5 69.5t-61.5 16.5l5 20q52 -1 112.5 -2t114 -1
h85.5q45 0 101 0.5t102 2.5q-13 -35 -22.5 -64.5t-15.5 -53.5q-5 -18 -8.5 -34.5t-5.5 -27.5h-23zM262 829q0 35 24 56.5t56 21.5q28 0 44 -17t16 -44q0 -36 -24.5 -57t-55.5 -21q-30 0 -45 17t-15 44zM492 829q0 35 24.5 56.5t55.5 21.5q29 0 44.5 -17t15.5 -44
q0 -36 -24.5 -57t-55.5 -21q-29 0 -44.5 17t-15.5 44z" />
    <glyph glyph-name="Igrave" unicode="&#xcc;" horiz-adv-x="373" 
d="M204 106q-14 -55 -3 -69.5t62 -16.5l-4 -20q-26 2 -67 2.5t-84 0.5q-45 0 -83.5 -0.5t-63.5 -2.5l5 20q33 2 51.5 8t29.5 24t20 54l132 496q14 55 2.5 69.5t-61.5 16.5l5 20q24 -1 63 -2t84 -1q43 0 83 1t69 2l-5 -20q-34 -1 -53 -7.5t-29.5 -24t-20.5 -54.5zM347 770
q-47 27 -80.5 42.5t-57 26t-41.5 24.5q-16 11 -24.5 31t3.5 38q14 21 37.5 20t39.5 -14q19 -14 34.5 -35t37.5 -51t60 -71z" />
    <glyph glyph-name="Iacute" unicode="&#xcd;" horiz-adv-x="373" 
d="M204 106q-14 -55 -3 -69.5t62 -16.5l-4 -20q-26 2 -67 2.5t-84 0.5q-45 0 -83.5 -0.5t-63.5 -2.5l5 20q33 2 51.5 8t29.5 24t20 54l132 496q14 55 2.5 69.5t-61.5 16.5l5 20q24 -1 63 -2t84 -1q43 0 83 1t69 2l-5 -20q-34 -1 -53 -7.5t-29.5 -24t-20.5 -54.5zM291 783
q51 39 83.5 68t58 51t50.5 36q19 11 45 11.5t38 -23.5q10 -21 -3.5 -39.5t-34.5 -30.5q-36 -20 -90 -34t-140 -50z" />
    <glyph glyph-name="Icircumflex" unicode="&#xce;" horiz-adv-x="373" 
d="M204 106q-14 -55 -3 -69.5t62 -16.5l-4 -20q-26 2 -67 2.5t-84 0.5q-45 0 -83.5 -0.5t-63.5 -2.5l5 20q33 2 51.5 8t29.5 24t20 54l132 496q14 55 2.5 69.5t-61.5 16.5l5 20q24 -1 63 -2t84 -1q43 0 83 1t69 2l-5 -20q-34 -1 -53 -7.5t-29.5 -24t-20.5 -54.5zM313 834
q-42 -16 -98.5 -33.5t-114.5 -29.5l-5 14q80 26 148.5 65t110.5 82h18q23 -49 53.5 -85.5t85.5 -61.5l-4 -14q-71 13 -113 29t-81 34z" />
    <glyph glyph-name="Idieresis" unicode="&#xcf;" horiz-adv-x="373" 
d="M204 106q-14 -55 -3 -69.5t62 -16.5l-4 -20q-26 2 -67 2.5t-84 0.5q-45 0 -83.5 -0.5t-63.5 -2.5l5 20q33 2 51.5 8t29.5 24t20 54l132 496q14 55 2.5 69.5t-61.5 16.5l5 20q24 -1 63 -2t84 -1q43 0 83 1t69 2l-5 -20q-34 -1 -53 -7.5t-29.5 -24t-20.5 -54.5zM141 829
q0 35 24 56.5t56 21.5q28 0 44 -17t16 -44q0 -36 -24.5 -57t-55.5 -21q-30 0 -45 17t-15 44zM371 829q0 35 24.5 56.5t55.5 21.5q29 0 44.5 -17t15.5 -44q0 -36 -24.5 -57t-55.5 -21q-29 0 -44.5 17t-15.5 44z" />
    <glyph glyph-name="Eth" unicode="&#xd0;" horiz-adv-x="756" 
d="M739 475q0 -69 -20.5 -137t-60.5 -129t-99 -108t-135.5 -74t-171.5 -27q-23 0 -63.5 1.5t-83.5 1.5q-23 0 -50 -0.5t-50.5 -1t-39.5 -1.5l3 20q32 2 50.5 8t29.5 24t20 54l131 496q12 45 4 64.5t-62 21.5l3 20q17 -1 42 -2t53.5 -1h54.5q19 1 47 1.5l56 1t47 0.5
q144 0 219.5 -59t75.5 -174zM248 18q86 0 151 42t109.5 112t67.5 156.5t23 175.5q0 92 -42 139t-137 47q-27 0 -42 -6.5t-24 -25t-18 -54.5l-131 -500q-13 -47 -8.5 -66.5t51.5 -19.5zM445 366l-6 -25h-420l6 25h420z" />
    <glyph glyph-name="Ntilde" unicode="&#xd1;" horiz-adv-x="806" 
d="M517 -5l-247 590l-1.5 2.5t-3.5 6t-3 6l-1 2.5q8 37 5.5 54.5t-20 24t-56.5 7.5l5 20q16 -1 39.5 -2t49.5 -1q47 0 81 3l204 -512l-3 -20.5t-7.5 -50t-9 -59.5t-7.5 -50.5l-3 -20.5h-22zM823 735q-27 -1 -47.5 -15.5t-35.5 -37.5q-46 -68 -94 -239t-107 -448l-14 28
q18 84 40.5 182.5t47.5 193.5t52.5 172t56.5 119q19 27 45 45.5t63 18.5q42 0 62 -21.5t20 -51.5q0 -35 -22 -60.5t-58 -25.5q-29 0 -43.5 16t-14.5 37q0 29 17.5 51t43.5 32q-3 2 -5.5 3t-6.5 1zM12 -55q28 1 48.5 15.5t36.5 38.5q29 46 58.5 144t60 237t61.5 305l17 -21
q-20 -102 -42 -208t-45.5 -201t-47 -165.5t-46.5 -100.5q-18 -24 -42.5 -43.5t-64.5 -19.5q-43 0 -63 21.5t-20 52.5q0 34 22 59.5t58 25.5q30 0 44 -16t14 -37q0 -29 -17.5 -51t-42.5 -32q2 -2 5 -3t6 -1zM487 916q36 0 59.5 -11t41.5 -25.5t37 -25.5t46 -11
q20 0 38.5 13.5t36.5 44.5l18 -5q-26 -68 -69 -97.5t-85 -29.5q-36 0 -59.5 11t-41.5 25.5t-37 25.5t-46 11q-20 0 -38.5 -13t-36.5 -45l-18 5q27 69 69.5 98t84.5 29z" />
    <glyph glyph-name="Ograve" unicode="&#xd2;" horiz-adv-x="761" 
d="M478 704q-54 0 -104.5 -42t-90.5 -113t-63.5 -158.5t-23.5 -177.5q0 -98 33 -153.5t85 -55.5q54 0 104.5 42t90.5 113t63.5 158.5t23.5 177.5q0 98 -33 153.5t-85 55.5zM46 226q0 66 20 136t58 134t92.5 115t122.5 81t148 30q122 0 191 -62.5t69 -178.5
q0 -66 -20.5 -135.5t-58.5 -133.5t-92.5 -115t-123 -81t-147.5 -30q-122 0 -190.5 62.5t-68.5 177.5zM524 770q-47 27 -80.5 42.5t-57 26t-41.5 24.5q-16 11 -24.5 31t3.5 38q14 21 37.5 20t39.5 -14q19 -14 34.5 -35t37.5 -51t60 -71z" />
    <glyph glyph-name="Oacute" unicode="&#xd3;" horiz-adv-x="761" 
d="M478 704q-54 0 -104.5 -42t-90.5 -113t-63.5 -158.5t-23.5 -177.5q0 -98 33 -153.5t85 -55.5q54 0 104.5 42t90.5 113t63.5 158.5t23.5 177.5q0 98 -33 153.5t-85 55.5zM46 226q0 66 20 136t58 134t92.5 115t122.5 81t148 30q122 0 191 -62.5t69 -178.5
q0 -66 -20.5 -135.5t-58.5 -133.5t-92.5 -115t-123 -81t-147.5 -30q-122 0 -190.5 62.5t-68.5 177.5zM468 783q51 39 83.5 68t58 51t50.5 36q19 11 45 11.5t38 -23.5q10 -21 -3.5 -39.5t-34.5 -30.5q-36 -20 -90 -34t-140 -50z" />
    <glyph glyph-name="Ocircumflex" unicode="&#xd4;" horiz-adv-x="761" 
d="M478 704q-54 0 -104.5 -42t-90.5 -113t-63.5 -158.5t-23.5 -177.5q0 -98 33 -153.5t85 -55.5q54 0 104.5 42t90.5 113t63.5 158.5t23.5 177.5q0 98 -33 153.5t-85 55.5zM46 226q0 66 20 136t58 134t92.5 115t122.5 81t148 30q122 0 191 -62.5t69 -178.5
q0 -66 -20.5 -135.5t-58.5 -133.5t-92.5 -115t-123 -81t-147.5 -30q-122 0 -190.5 62.5t-68.5 177.5zM490 834q-42 -16 -98.5 -33.5t-114.5 -29.5l-5 14q80 26 148.5 65t110.5 82h18q23 -49 53.5 -85.5t85.5 -61.5l-4 -14q-71 13 -113 29t-81 34z" />
    <glyph glyph-name="Otilde" unicode="&#xd5;" horiz-adv-x="761" 
d="M478 704q-54 0 -104.5 -42t-90.5 -113t-63.5 -158.5t-23.5 -177.5q0 -98 33 -153.5t85 -55.5q54 0 104.5 42t90.5 113t63.5 158.5t23.5 177.5q0 98 -33 153.5t-85 55.5zM46 226q0 66 20 136t58 134t92.5 115t122.5 81t148 30q122 0 191 -62.5t69 -178.5
q0 -66 -20.5 -135.5t-58.5 -133.5t-92.5 -115t-123 -81t-147.5 -30q-122 0 -190.5 62.5t-68.5 177.5zM450 916q36 0 59.5 -11t41.5 -25.5t37 -25.5t46 -11q20 0 38.5 13.5t36.5 44.5l18 -5q-26 -68 -69 -97.5t-85 -29.5q-36 0 -59.5 11t-41.5 25.5t-37 25.5t-46 11
q-20 0 -38.5 -13t-36.5 -45l-18 5q27 69 69.5 98t84.5 29z" />
    <glyph glyph-name="Odieresis" unicode="&#xd6;" horiz-adv-x="761" 
d="M478 704q-54 0 -104.5 -42t-90.5 -113t-63.5 -158.5t-23.5 -177.5q0 -98 33 -153.5t85 -55.5q54 0 104.5 42t90.5 113t63.5 158.5t23.5 177.5q0 98 -33 153.5t-85 55.5zM46 226q0 66 20 136t58 134t92.5 115t122.5 81t148 30q122 0 191 -62.5t69 -178.5
q0 -66 -20.5 -135.5t-58.5 -133.5t-92.5 -115t-123 -81t-147.5 -30q-122 0 -190.5 62.5t-68.5 177.5zM319 829q0 35 24 56.5t56 21.5q28 0 44 -17t16 -44q0 -36 -24.5 -57t-55.5 -21q-30 0 -45 17t-15 44zM549 829q0 35 24.5 56.5t55.5 21.5q29 0 44.5 -17t15.5 -44
q0 -36 -24.5 -57t-55.5 -21q-29 0 -44.5 17t-15.5 44z" />
    <glyph glyph-name="multiply" unicode="&#xd7;" horiz-adv-x="502" 
d="M21 182l223 173l-125 175l26 18l123 -175l227 177l16 -22l-227 -176l125 -173l-25 -18l-124 173l-224 -174z" />
    <glyph glyph-name="Oslash" unicode="&#xd8;" horiz-adv-x="761" 
d="M478 704q-54 0 -104.5 -42t-90.5 -113t-63.5 -158.5t-23.5 -177.5q0 -98 33 -153.5t85 -55.5q54 0 104.5 42t90.5 113t63.5 158.5t23.5 177.5q0 98 -33 153.5t-85 55.5zM46 226q0 66 20 136t58 134t92.5 115t122.5 81t148 30q122 0 191 -62.5t69 -178.5
q0 -66 -20.5 -135.5t-58.5 -133.5t-92.5 -115t-123 -81t-147.5 -30q-122 0 -190.5 62.5t-68.5 177.5zM649 632l135 141l15 -13l-140 -148zM151 76l-142 -149l-17 14l146 153zM159 95l479 537l10 -20l-476 -535z" />
    <glyph glyph-name="Ugrave" unicode="&#xd9;" horiz-adv-x="690" 
d="M639 560q13 49 12 75t-18.5 38t-56.5 15l6 20q18 -1 48.5 -2t56.5 -1q25 0 49 1t41 2l-6 -20q-33 -3 -52.5 -14.5t-32 -36t-23.5 -69.5l-72 -277q-36 -138 -98 -212q-36 -42 -89.5 -67.5t-115.5 -25.5q-65 0 -110.5 18.5t-70.5 51.5q-29 40 -29 94.5t22 137.5l83 314
q14 55 2.5 69.5t-61.5 16.5l6 20q24 -1 65.5 -2t87.5 -1q41 0 79 1t66 2l-6 -20q-34 -1 -53 -7.5t-29.5 -24t-20.5 -54.5l-88 -331q-20 -77 -22.5 -133.5t20.5 -86.5t78 -30q75 0 125 33.5t82 92.5t51 133zM526 770q-47 27 -80.5 42.5t-57 26t-41.5 24.5q-16 11 -24.5 31
t3.5 38q14 21 37.5 20t39.5 -14q19 -14 34.5 -35t37.5 -51t60 -71z" />
    <glyph glyph-name="Uacute" unicode="&#xda;" horiz-adv-x="690" 
d="M639 560q13 49 12 75t-18.5 38t-56.5 15l6 20q18 -1 48.5 -2t56.5 -1q25 0 49 1t41 2l-6 -20q-33 -3 -52.5 -14.5t-32 -36t-23.5 -69.5l-72 -277q-36 -138 -98 -212q-36 -42 -89.5 -67.5t-115.5 -25.5q-65 0 -110.5 18.5t-70.5 51.5q-29 40 -29 94.5t22 137.5l83 314
q14 55 2.5 69.5t-61.5 16.5l6 20q24 -1 65.5 -2t87.5 -1q41 0 79 1t66 2l-6 -20q-34 -1 -53 -7.5t-29.5 -24t-20.5 -54.5l-88 -331q-20 -77 -22.5 -133.5t20.5 -86.5t78 -30q75 0 125 33.5t82 92.5t51 133zM470 783q51 39 83.5 68t58 51t50.5 36q19 11 45 11.5t38 -23.5
q10 -21 -3.5 -39.5t-34.5 -30.5q-36 -20 -90 -34t-140 -50z" />
    <glyph glyph-name="Ucircumflex" unicode="&#xdb;" horiz-adv-x="690" 
d="M639 560q13 49 12 75t-18.5 38t-56.5 15l6 20q18 -1 48.5 -2t56.5 -1q25 0 49 1t41 2l-6 -20q-33 -3 -52.5 -14.5t-32 -36t-23.5 -69.5l-72 -277q-36 -138 -98 -212q-36 -42 -89.5 -67.5t-115.5 -25.5q-65 0 -110.5 18.5t-70.5 51.5q-29 40 -29 94.5t22 137.5l83 314
q14 55 2.5 69.5t-61.5 16.5l6 20q24 -1 65.5 -2t87.5 -1q41 0 79 1t66 2l-6 -20q-34 -1 -53 -7.5t-29.5 -24t-20.5 -54.5l-88 -331q-20 -77 -22.5 -133.5t20.5 -86.5t78 -30q75 0 125 33.5t82 92.5t51 133zM492 834q-42 -16 -98.5 -33.5t-114.5 -29.5l-5 14q80 26 148.5 65
t110.5 82h18q23 -49 53.5 -85.5t85.5 -61.5l-4 -14q-71 13 -113 29t-81 34z" />
    <glyph glyph-name="Udieresis" unicode="&#xdc;" horiz-adv-x="690" 
d="M639 560q13 49 12 75t-18.5 38t-56.5 15l6 20q18 -1 48.5 -2t56.5 -1q25 0 49 1t41 2l-6 -20q-33 -3 -52.5 -14.5t-32 -36t-23.5 -69.5l-72 -277q-36 -138 -98 -212q-36 -42 -89.5 -67.5t-115.5 -25.5q-65 0 -110.5 18.5t-70.5 51.5q-29 40 -29 94.5t22 137.5l83 314
q14 55 2.5 69.5t-61.5 16.5l6 20q24 -1 65.5 -2t87.5 -1q41 0 79 1t66 2l-6 -20q-34 -1 -53 -7.5t-29.5 -24t-20.5 -54.5l-88 -331q-20 -77 -22.5 -133.5t20.5 -86.5t78 -30q75 0 125 33.5t82 92.5t51 133zM320 829q0 35 24 56.5t56 21.5q28 0 44 -17t16 -44
q0 -36 -24.5 -57t-55.5 -21q-30 0 -45 17t-15 44zM550 829q0 35 24.5 56.5t55.5 21.5q29 0 44.5 -17t15.5 -44q0 -36 -24.5 -57t-55.5 -21q-29 0 -44.5 17t-15.5 44z" />
    <glyph glyph-name="Yacute" unicode="&#xdd;" horiz-adv-x="712" 
d="M376 106q-13 -55 1.5 -69.5t65.5 -16.5l-5 -20q-17 1 -43 1.5t-55.5 1t-57.5 0.5q-45 0 -85.5 -0.5t-65.5 -2.5l5 20q34 2 53 8t30 24t20 54l69 274l55 -63l57 19l34 80zM706 703q-16 -1 -30 -6.5t-29 -16.5q-30 -22 -70.5 -74t-83.5 -135.5t-81 -200.5l-111 -5
q-4 46 -10.5 99t-16 104t-23 93.5t-31 68t-40.5 25.5q-18 0 -29 -12.5t-18 -34.5l-24 -70h-11h-11l29 84q18 54 48.5 77t77.5 23q64 0 99 -43t53.5 -123.5t30.5 -191.5q35 95 79.5 169.5t91.5 125.5q23 25 54 44t65 19q41 0 61 -23.5t19 -54.5q0 -31 -22 -56t-58 -25
q-30 0 -44.5 16t-13.5 40q0 27 17.5 48.5t42.5 31.5q-2 2 -5 3t-6 1zM463 783q51 39 83.5 68t58 51t50.5 36q19 11 45 11.5t38 -23.5q10 -21 -3.5 -39.5t-34.5 -30.5q-36 -20 -90 -34t-140 -50z" />
    <glyph glyph-name="Thorn" unicode="&#xde;" horiz-adv-x="642" 
d="M269 565q36 0 72.5 1t73.5 1q113 0 168 -41.5t55 -109.5q0 -78 -50.5 -139.5t-141 -97t-209.5 -35.5h-40l2.5 10l2.5 10h45q88 0 142.5 37.5t79 98.5t24.5 132q0 55 -28 85.5t-87 30.5q-27 0 -43.5 -1t-30 -2t-34.5 -3zM204 106q-14 -55 -3 -69.5t62 -16.5l-4 -20
q-26 2 -67 2.5t-84 0.5q-45 0 -83.5 -0.5t-63.5 -2.5l5 20q33 2 51.5 8t29.5 24t20 54l132 496q14 55 2.5 69.5t-61.5 16.5l5 20q24 -1 63 -2t84 -1q43 0 83 1t69 2l-5 -20q-34 -1 -53 -7.5t-29.5 -24t-20.5 -54.5z" />
    <glyph glyph-name="germandbls" unicode="&#xdf;" horiz-adv-x="587" 
d="M388 767q-39 0 -64.5 -38t-47.5 -121l-206 -782q-35 -1 -66.5 -4t-59.5 -10l184 698q24 90 57 150.5t86 91t134 30.5q93 0 131 -31t38 -69q0 -37 -24 -66.5t-61.5 -58t-77.5 -62.5q-28 -23 -36.5 -39.5t-8.5 -34.5q0 -26 13 -47.5t32.5 -42t38.5 -41.5q33 -35 54 -67.5
t21 -75.5q0 -52 -28 -87.5t-73.5 -54.5t-98.5 -19q-37 0 -68 12t-49 34t-18 54q0 28 14.5 46.5t37.5 18.5q19 0 31 -12t17 -30.5t5 -36.5q0 -17 -4.5 -33t-12.5 -27q5 -3 12.5 -4.5t18.5 -1.5q36 0 60 27t24 73q0 30 -9.5 61t-31.5 66q-15 27 -33.5 61.5t-18.5 72.5
q0 31 14 52.5t36 40.5t46 45q33 33 48 75.5t15 87.5q0 53 -21 76t-50 23z" />
    <glyph glyph-name="agrave" unicode="&#xe0;" horiz-adv-x="547" 
d="M161 32q18 0 41 21.5t47 60.5t46 93t38 118l-21 -108q-44 -128 -95 -179.5t-108 -51.5q-54 0 -80 33.5t-26 89.5q0 52 17 109.5t47.5 113t69.5 100t83 71.5t88 27q34 0 52 -28.5t9 -86.5l-11 -6q7 42 -3.5 66t-34.5 24q-28 0 -61 -36.5t-62 -96t-47.5 -129.5t-18.5 -137
q0 -37 7.5 -52.5t22.5 -15.5zM386 516q36 1 67.5 4t60.5 10l-129 -444q-4 -12 -5.5 -24.5t2 -21t16.5 -8.5q16 0 33 17t35 69l15 45h19l-25 -73q-22 -62 -57 -83t-69 -21q-48 0 -68 30q-13 22 -10 54t13 69zM366 599q-37 48 -65 78t-48 51.5t-34 43.5q-13 23 -9.5 43
t19.5 29q19 10 40 3t34 -29q14 -22 22 -50t19.5 -66.5t34.5 -96.5z" />
    <glyph glyph-name="aacute" unicode="&#xe1;" horiz-adv-x="547" 
d="M161 32q18 0 41 21.5t47 60.5t46 93t38 118l-21 -108q-44 -128 -95 -179.5t-108 -51.5q-54 0 -80 33.5t-26 89.5q0 52 17 109.5t47.5 113t69.5 100t83 71.5t88 27q34 0 52 -28.5t9 -86.5l-11 -6q7 42 -3.5 66t-34.5 24q-28 0 -61 -36.5t-62 -96t-47.5 -129.5t-18.5 -137
q0 -37 7.5 -52.5t22.5 -15.5zM386 516q36 1 67.5 4t60.5 10l-129 -444q-4 -12 -5.5 -24.5t2 -21t16.5 -8.5q16 0 33 17t35 69l15 45h19l-25 -73q-22 -62 -57 -83t-69 -21q-48 0 -68 30q-13 22 -10 54t13 69zM308 608q38 51 61.5 88.5t41 65t38.5 48.5q18 20 41 24t41 -11
q15 -15 10.5 -35.5t-26.5 -42.5q-19 -20 -46.5 -38.5t-65 -43.5t-85.5 -64z" />
    <glyph glyph-name="acircumflex" unicode="&#xe2;" horiz-adv-x="547" 
d="M161 32q18 0 41 21.5t47 60.5t46 93t38 118l-21 -108q-44 -128 -95 -179.5t-108 -51.5q-54 0 -80 33.5t-26 89.5q0 52 17 109.5t47.5 113t69.5 100t83 71.5t88 27q34 0 52 -28.5t9 -86.5l-11 -6q7 42 -3.5 66t-34.5 24q-28 0 -61 -36.5t-62 -96t-47.5 -129.5t-18.5 -137
q0 -37 7.5 -52.5t22.5 -15.5zM386 516q36 1 67.5 4t60.5 10l-129 -444q-4 -12 -5.5 -24.5t2 -21t16.5 -8.5q16 0 33 17t35 69l15 45h19l-25 -73q-22 -62 -57 -83t-69 -21q-48 0 -68 30q-13 22 -10 54t13 69zM356 696q-35 -23 -82.5 -45.5t-96.5 -38.5l-5 14q72 31 132.5 82
t98.5 106h18q13 -66 39.5 -110.5t79.5 -77.5l-4 -14q-64 15 -105 36t-75 48z" />
    <glyph glyph-name="atilde" unicode="&#xe3;" horiz-adv-x="547" 
d="M161 32q18 0 41 21.5t47 60.5t46 93t38 118l-21 -108q-44 -128 -95 -179.5t-108 -51.5q-54 0 -80 33.5t-26 89.5q0 52 17 109.5t47.5 113t69.5 100t83 71.5t88 27q34 0 52 -28.5t9 -86.5l-11 -6q7 42 -3.5 66t-34.5 24q-28 0 -61 -36.5t-62 -96t-47.5 -129.5t-18.5 -137
q0 -37 7.5 -52.5t22.5 -15.5zM386 516q36 1 67.5 4t60.5 10l-129 -444q-4 -12 -5.5 -24.5t2 -21t16.5 -8.5q16 0 33 17t35 69l15 45h19l-25 -73q-22 -62 -57 -83t-69 -21q-48 0 -68 30q-13 22 -10 54t13 69zM335 780q30 0 49.5 -11t34.5 -25.5t30.5 -25.5t37.5 -11
q19 0 36.5 13.5t34.5 44.5l18 -5q-26 -68 -66 -97.5t-80 -29.5q-30 0 -49.5 11t-34.5 25.5t-30.5 25.5t-37.5 11q-19 0 -36.5 -13t-34.5 -45l-18 5q25 68 65.5 97.5t80.5 29.5z" />
    <glyph glyph-name="adieresis" unicode="&#xe4;" horiz-adv-x="547" 
d="M161 32q18 0 41 21.5t47 60.5t46 93t38 118l-21 -108q-44 -128 -95 -179.5t-108 -51.5q-54 0 -80 33.5t-26 89.5q0 52 17 109.5t47.5 113t69.5 100t83 71.5t88 27q34 0 52 -28.5t9 -86.5l-11 -6q7 42 -3.5 66t-34.5 24q-28 0 -61 -36.5t-62 -96t-47.5 -129.5t-18.5 -137
q0 -37 7.5 -52.5t22.5 -15.5zM386 516q36 1 67.5 4t60.5 10l-129 -444q-4 -12 -5.5 -24.5t2 -21t16.5 -8.5q16 0 33 17t35 69l15 45h19l-25 -73q-22 -62 -57 -83t-69 -21q-48 0 -68 30q-13 22 -10 54t13 69zM206 676q0 35 24.5 57t55.5 22q29 0 44.5 -17.5t15.5 -44.5
q0 -35 -24.5 -56.5t-55.5 -21.5q-29 0 -44.5 17.5t-15.5 43.5zM429 676q0 35 24 57t56 22q28 0 44 -17.5t16 -44.5q0 -35 -25 -56.5t-56 -21.5q-29 0 -44 17.5t-15 43.5z" />
    <glyph glyph-name="aring" unicode="&#xe5;" horiz-adv-x="547" 
d="M161 32q18 0 41 21.5t47 60.5t46 93t38 118l-21 -108q-44 -128 -95 -179.5t-108 -51.5q-54 0 -80 33.5t-26 89.5q0 52 17 109.5t47.5 113t69.5 100t83 71.5t88 27q34 0 52 -28.5t9 -86.5l-11 -6q7 42 -3.5 66t-34.5 24q-28 0 -61 -36.5t-62 -96t-47.5 -129.5t-18.5 -137
q0 -37 7.5 -52.5t22.5 -15.5zM386 516q36 1 67.5 4t60.5 10l-129 -444q-4 -12 -5.5 -24.5t2 -21t16.5 -8.5q16 0 33 17t35 69l15 45h19l-25 -73q-22 -62 -57 -83t-69 -21q-48 0 -68 30q-13 22 -10 54t13 69zM405 795q39 0 66.5 -22.5t27.5 -61.5q0 -29 -17 -53.5t-44.5 -39
t-59.5 -14.5q-38 0 -64 22.5t-26 61.5q0 46 34 76.5t83 30.5zM383 625q34 0 62 24.5t28 61.5q0 32 -23.5 47.5t-48.5 15.5q-35 0 -61 -26t-26 -59q0 -32 21.5 -48t47.5 -16z" />
    <glyph glyph-name="ae" unicode="&#xe6;" horiz-adv-x="709" 
d="M368 220q45 17 85.5 35t66.5 39q39 33 61.5 79.5t22.5 100.5q0 37 -28 37q-27 0 -59 -33.5t-61 -89t-47.5 -121.5t-18.5 -131q0 -53 20.5 -74.5t54.5 -21.5q29 0 68 19t78 69l18 -8q-20 -33 -53 -64t-75.5 -50.5t-93.5 -19.5q-64 0 -106 35.5t-42 105.5q0 49 16.5 104.5
t47 108.5t72 96t93.5 68.5t110 25.5q45 0 75.5 -20t30.5 -61q0 -38 -22 -71.5t-59.5 -60.5t-82 -49t-89.5 -37t-84 -25zM171 32q26 0 57 23.5t58 84.5l7 -15q-32 -68 -80.5 -103.5t-105.5 -35.5t-83.5 31.5t-26.5 85.5q0 53 22 111t60.5 111.5t87.5 96.5t103.5 68.5
t107.5 25.5q23 0 47 -11t33 -47l-13 -9q-8 28 -25 35.5t-27 7.5q-40 0 -86.5 -33t-87.5 -89t-67.5 -126t-26.5 -146q0 -32 12.5 -49t33.5 -17z" />
    <glyph glyph-name="ccedilla" unicode="&#xe7;" horiz-adv-x="453" 
d="M347 510q-38 0 -74.5 -31t-66 -84.5t-47 -121t-17.5 -139.5q0 -52 20.5 -75t53.5 -23t68 20t70 72l20 -8q-20 -33 -51 -64t-71.5 -50.5t-89.5 -19.5q-66 0 -108 37.5t-42 113.5q0 61 22.5 129t65 128t103.5 98t137 38q51 0 83.5 -26t32.5 -67q0 -24 -11.5 -47t-31.5 -38
t-46 -15q-23 0 -37.5 14t-14.5 37q0 37 26.5 64t59.5 35q-9 10 -21.5 16.5t-32.5 6.5zM173 0l-40 -70q10 4 23.5 6.5t25.5 2.5q24 0 39.5 -10.5t15.5 -30.5q0 -31 -23.5 -50t-58 -27.5t-68.5 -8.5q-30 0 -53 7t-34 13l7 16q7 -3 22 -7.5t38 -4.5q12 0 30 4t32 14t14 29
q0 24 -28 24q-5 0 -14 -1.5t-17 -5.5l61 100h28z" />
    <glyph glyph-name="egrave" unicode="&#xe8;" horiz-adv-x="456" 
d="M115 220q47 18 86.5 37.5t66.5 41.5q37 33 60 77.5t23 97.5q0 23 -4 30t-12 7q-29 0 -63 -33.5t-64.5 -89t-50.5 -121.5t-20 -131q0 -53 20.5 -74.5t54.5 -21.5q29 0 69 19t79 69l16 -8q-20 -33 -53 -64t-75.5 -50.5t-93.5 -19.5q-64 0 -106 35.5t-42 105.5
q0 49 17 104.5t48.5 108.5t75 96t96.5 68.5t114 25.5q40 0 67 -18.5t27 -56.5q0 -39 -22 -73t-59.5 -62t-82 -50t-89.5 -38t-84 -26zM343 599q-37 48 -65 78t-48 51.5t-34 43.5q-13 23 -9.5 43t19.5 29q19 10 40 3t34 -29q14 -22 22 -50t19.5 -66.5t34.5 -96.5z" />
    <glyph glyph-name="eacute" unicode="&#xe9;" horiz-adv-x="456" 
d="M115 220q47 18 86.5 37.5t66.5 41.5q37 33 60 77.5t23 97.5q0 23 -4 30t-12 7q-29 0 -63 -33.5t-64.5 -89t-50.5 -121.5t-20 -131q0 -53 20.5 -74.5t54.5 -21.5q29 0 69 19t79 69l16 -8q-20 -33 -53 -64t-75.5 -50.5t-93.5 -19.5q-64 0 -106 35.5t-42 105.5
q0 49 17 104.5t48.5 108.5t75 96t96.5 68.5t114 25.5q40 0 67 -18.5t27 -56.5q0 -39 -22 -73t-59.5 -62t-82 -50t-89.5 -38t-84 -26zM285 608q38 51 61.5 88.5t41 65t38.5 48.5q18 20 41 24t41 -11q15 -15 10.5 -35.5t-26.5 -42.5q-19 -20 -46.5 -38.5t-65 -43.5t-85.5 -64z
" />
    <glyph glyph-name="ecircumflex" unicode="&#xea;" horiz-adv-x="456" 
d="M115 220q47 18 86.5 37.5t66.5 41.5q37 33 60 77.5t23 97.5q0 23 -4 30t-12 7q-29 0 -63 -33.5t-64.5 -89t-50.5 -121.5t-20 -131q0 -53 20.5 -74.5t54.5 -21.5q29 0 69 19t79 69l16 -8q-20 -33 -53 -64t-75.5 -50.5t-93.5 -19.5q-64 0 -106 35.5t-42 105.5
q0 49 17 104.5t48.5 108.5t75 96t96.5 68.5t114 25.5q40 0 67 -18.5t27 -56.5q0 -39 -22 -73t-59.5 -62t-82 -50t-89.5 -38t-84 -26zM332 696q-35 -23 -82.5 -45.5t-96.5 -38.5l-5 14q72 31 132.5 82t98.5 106h18q13 -66 39.5 -110.5t79.5 -77.5l-4 -14q-64 15 -105 36
t-75 48z" />
    <glyph glyph-name="edieresis" unicode="&#xeb;" horiz-adv-x="456" 
d="M115 220q47 18 86.5 37.5t66.5 41.5q37 33 60 77.5t23 97.5q0 23 -4 30t-12 7q-29 0 -63 -33.5t-64.5 -89t-50.5 -121.5t-20 -131q0 -53 20.5 -74.5t54.5 -21.5q29 0 69 19t79 69l16 -8q-20 -33 -53 -64t-75.5 -50.5t-93.5 -19.5q-64 0 -106 35.5t-42 105.5
q0 49 17 104.5t48.5 108.5t75 96t96.5 68.5t114 25.5q40 0 67 -18.5t27 -56.5q0 -39 -22 -73t-59.5 -62t-82 -50t-89.5 -38t-84 -26zM182 676q0 35 24.5 57t55.5 22q29 0 44.5 -17.5t15.5 -44.5q0 -35 -24.5 -56.5t-55.5 -21.5q-29 0 -44.5 17.5t-15.5 43.5zM405 676
q0 35 24 57t56 22q28 0 44 -17.5t16 -44.5q0 -35 -25 -56.5t-56 -21.5q-29 0 -44 17.5t-15 43.5z" />
    <glyph glyph-name="igrave" unicode="&#xec;" horiz-adv-x="315" 
d="M145 431q18 54 -12 54q-20 0 -36 -20.5t-33 -65.5l-18 -47h-19l27 75q22 60 58.5 81.5t75.5 21.5q46 0 64 -22t16.5 -54.5t-12.5 -63.5l-105 -305q-10 -27 -5.5 -40.5t19.5 -13.5q16 0 32 17.5t36 68.5l17 45h19l-26 -73q-21 -60 -57.5 -81.5t-73.5 -21.5q-43 0 -63 19.5
t-20 54t15 79.5zM224 599q-37 48 -65 78t-48 51.5t-34 43.5q-13 23 -9.5 43t19.5 29q19 10 40 3t34 -29q14 -22 22 -50t19.5 -66.5t34.5 -96.5z" />
    <glyph glyph-name="iacute" unicode="&#xed;" horiz-adv-x="315" 
d="M145 431q18 54 -12 54q-20 0 -36 -20.5t-33 -65.5l-18 -47h-19l27 75q22 60 58.5 81.5t75.5 21.5q46 0 64 -22t16.5 -54.5t-12.5 -63.5l-105 -305q-10 -27 -5.5 -40.5t19.5 -13.5q16 0 32 17.5t36 68.5l17 45h19l-26 -73q-21 -60 -57.5 -81.5t-73.5 -21.5q-43 0 -63 19.5
t-20 54t15 79.5zM166 608q38 51 61.5 88.5t41 65t38.5 48.5q18 20 41 24t41 -11q15 -15 10.5 -35.5t-26.5 -42.5q-19 -20 -46.5 -38.5t-65 -43.5t-85.5 -64z" />
    <glyph glyph-name="icircumflex" unicode="&#xee;" horiz-adv-x="315" 
d="M145 431q18 54 -12 54q-20 0 -36 -20.5t-33 -65.5l-18 -47h-19l27 75q22 60 58.5 81.5t75.5 21.5q46 0 64 -22t16.5 -54.5t-12.5 -63.5l-105 -305q-10 -27 -5.5 -40.5t19.5 -13.5q16 0 32 17.5t36 68.5l17 45h19l-26 -73q-21 -60 -57.5 -81.5t-73.5 -21.5q-43 0 -63 19.5
t-20 54t15 79.5zM214 696q-35 -23 -82.5 -45.5t-96.5 -38.5l-5 14q72 31 132.5 82t98.5 106h18q13 -66 39.5 -110.5t79.5 -77.5l-4 -14q-64 15 -105 36t-75 48z" />
    <glyph glyph-name="idieresis" unicode="&#xef;" horiz-adv-x="315" 
d="M145 431q18 54 -12 54q-20 0 -36 -20.5t-33 -65.5l-18 -47h-19l27 75q22 60 58.5 81.5t75.5 21.5q46 0 64 -22t16.5 -54.5t-12.5 -63.5l-105 -305q-10 -27 -5.5 -40.5t19.5 -13.5q16 0 32 17.5t36 68.5l17 45h19l-26 -73q-21 -60 -57.5 -81.5t-73.5 -21.5q-43 0 -63 19.5
t-20 54t15 79.5zM64 676q0 35 24.5 57t55.5 22q29 0 44.5 -17.5t15.5 -44.5q0 -35 -24.5 -56.5t-55.5 -21.5q-29 0 -44.5 17.5t-15.5 43.5zM287 676q0 35 24 57t56 22q28 0 44 -17.5t16 -44.5q0 -35 -25 -56.5t-56 -21.5q-29 0 -44 17.5t-15 43.5z" />
    <glyph glyph-name="eth" unicode="&#xf0;" horiz-adv-x="515" 
d="M329 684l172 76l6 -18l-164 -72zM343 669l-219 -97l-6 18l211 93zM355 421q0 93 -23 158.5t-63 110t-94 75.5l12 17q86 -30 152.5 -84t104 -131t37.5 -175q0 -68 -20 -139t-59.5 -131.5t-98 -98t-135.5 -37.5q-44 0 -78.5 16.5t-54.5 52.5t-20 94q0 55 19.5 121
t56.5 124.5t91 96t123 37.5q30 0 46 -9.5t30 -24.5l-7 -12q-10 13 -26 19.5t-37 6.5q-29 0 -55 -26.5t-47.5 -72t-36.5 -101t-23 -114.5t-8 -111q0 -43 10.5 -60t31.5 -17q35 0 66 39t55 102t37.5 135.5t13.5 138.5z" />
    <glyph glyph-name="ntilde" unicode="&#xf1;" horiz-adv-x="596" 
d="M145 0h-123l121 431q4 14 6 26t-1.5 20t-17.5 8q-19 0 -34.5 -18.5t-33.5 -67.5l-17 -47h-19l26 75q21 59 54 81t73 22q45 0 61 -22t15 -54t-10 -64zM182 182q37 103 71 170t66 106.5t66 55.5t71 16q49 0 68.5 -21.5t19 -56t-13.5 -73.5l-98 -294q-9 -27 -5 -40.5
t20 -13.5q15 0 31.5 17t35.5 69l16 45h19l-25 -73q-22 -63 -58.5 -83t-71.5 -20q-52 0 -73 32q-13 19 -11 49t16 72l91 275q5 16 8 32.5t-1 28t-21 11.5q-26 0 -58.5 -36t-66.5 -98.5t-66 -142t-56 -167.5zM336 780q30 0 49.5 -11t34.5 -25.5t30.5 -25.5t37.5 -11
q19 0 36.5 13.5t34.5 44.5l18 -5q-26 -68 -66 -97.5t-80 -29.5q-30 0 -49.5 11t-34.5 25.5t-30.5 25.5t-37.5 11q-19 0 -36.5 -13t-34.5 -45l-18 5q25 68 65.5 97.5t80.5 29.5z" />
    <glyph glyph-name="ograve" unicode="&#xf2;" horiz-adv-x="516" 
d="M322 510q-26 0 -53 -26.5t-51 -72t-43.5 -101.5t-30.5 -115.5t-11 -113.5q0 -40 10.5 -57.5t31.5 -17.5q25 0 52 26t51.5 70.5t43.5 100t30 115.5t11 117q0 42 -10.5 58.5t-30.5 16.5zM15 148q0 57 19.5 123t58.5 125t98 96.5t137 37.5q72 0 112.5 -40.5t40.5 -121.5
q0 -57 -19.5 -123t-58.5 -125t-98 -96.5t-137 -37.5q-72 0 -112.5 41t-40.5 121zM358 599q-37 48 -65 78t-48 51.5t-34 43.5q-13 23 -9.5 43t19.5 29q19 10 40 3t34 -29q14 -22 22 -50t19.5 -66.5t34.5 -96.5z" />
    <glyph glyph-name="oacute" unicode="&#xf3;" horiz-adv-x="516" 
d="M322 510q-26 0 -53 -26.5t-51 -72t-43.5 -101.5t-30.5 -115.5t-11 -113.5q0 -40 10.5 -57.5t31.5 -17.5q25 0 52 26t51.5 70.5t43.5 100t30 115.5t11 117q0 42 -10.5 58.5t-30.5 16.5zM15 148q0 57 19.5 123t58.5 125t98 96.5t137 37.5q72 0 112.5 -40.5t40.5 -121.5
q0 -57 -19.5 -123t-58.5 -125t-98 -96.5t-137 -37.5q-72 0 -112.5 41t-40.5 121zM299 608q38 51 61.5 88.5t41 65t38.5 48.5q18 20 41 24t41 -11q15 -15 10.5 -35.5t-26.5 -42.5q-19 -20 -46.5 -38.5t-65 -43.5t-85.5 -64z" />
    <glyph glyph-name="ocircumflex" unicode="&#xf4;" horiz-adv-x="516" 
d="M322 510q-26 0 -53 -26.5t-51 -72t-43.5 -101.5t-30.5 -115.5t-11 -113.5q0 -40 10.5 -57.5t31.5 -17.5q25 0 52 26t51.5 70.5t43.5 100t30 115.5t11 117q0 42 -10.5 58.5t-30.5 16.5zM15 148q0 57 19.5 123t58.5 125t98 96.5t137 37.5q72 0 112.5 -40.5t40.5 -121.5
q0 -57 -19.5 -123t-58.5 -125t-98 -96.5t-137 -37.5q-72 0 -112.5 41t-40.5 121zM347 696q-35 -23 -82.5 -45.5t-96.5 -38.5l-5 14q72 31 132.5 82t98.5 106h18q13 -66 39.5 -110.5t79.5 -77.5l-4 -14q-64 15 -105 36t-75 48z" />
    <glyph glyph-name="otilde" unicode="&#xf5;" horiz-adv-x="516" 
d="M322 510q-26 0 -53 -26.5t-51 -72t-43.5 -101.5t-30.5 -115.5t-11 -113.5q0 -40 10.5 -57.5t31.5 -17.5q25 0 52 26t51.5 70.5t43.5 100t30 115.5t11 117q0 42 -10.5 58.5t-30.5 16.5zM15 148q0 57 19.5 123t58.5 125t98 96.5t137 37.5q72 0 112.5 -40.5t40.5 -121.5
q0 -57 -19.5 -123t-58.5 -125t-98 -96.5t-137 -37.5q-72 0 -112.5 41t-40.5 121zM326 780q30 0 49.5 -11t34.5 -25.5t30.5 -25.5t37.5 -11q19 0 36.5 13.5t34.5 44.5l18 -5q-26 -68 -66 -97.5t-80 -29.5q-30 0 -49.5 11t-34.5 25.5t-30.5 25.5t-37.5 11q-19 0 -36.5 -13
t-34.5 -45l-18 5q25 68 65.5 97.5t80.5 29.5z" />
    <glyph glyph-name="odieresis" unicode="&#xf6;" horiz-adv-x="516" 
d="M322 510q-26 0 -53 -26.5t-51 -72t-43.5 -101.5t-30.5 -115.5t-11 -113.5q0 -40 10.5 -57.5t31.5 -17.5q25 0 52 26t51.5 70.5t43.5 100t30 115.5t11 117q0 42 -10.5 58.5t-30.5 16.5zM15 148q0 57 19.5 123t58.5 125t98 96.5t137 37.5q72 0 112.5 -40.5t40.5 -121.5
q0 -57 -19.5 -123t-58.5 -125t-98 -96.5t-137 -37.5q-72 0 -112.5 41t-40.5 121zM197 676q0 35 24.5 57t55.5 22q29 0 44.5 -17.5t15.5 -44.5q0 -35 -24.5 -56.5t-55.5 -21.5q-29 0 -44.5 17.5t-15.5 43.5zM420 676q0 35 24 57t56 22q28 0 44 -17.5t16 -44.5
q0 -35 -25 -56.5t-56 -21.5q-29 0 -44 17.5t-15 43.5z" />
    <glyph glyph-name="divide" unicode="&#xf7;" horiz-adv-x="643" 
d="M335 499q7 23 28 39t43 16q23 0 35 -16t5 -39t-28 -39t-44 -16q-22 0 -34 16t-5 39zM252 211q7 23 28 39t43 16q23 0 35 -16t5 -39t-28 -39.5t-44 -16.5q-22 0 -34 16.5t-5 39.5zM81 340l9 30h501l-9 -30h-501z" />
    <glyph glyph-name="oslash" unicode="&#xf8;" horiz-adv-x="516" 
d="M322 510q-26 0 -53 -26.5t-51 -72t-43.5 -101.5t-30.5 -115.5t-11 -113.5q0 -40 10.5 -57.5t31.5 -17.5q25 0 52 26t51.5 70.5t43.5 100t30 115.5t11 117q0 42 -10.5 58.5t-30.5 16.5zM15 148q0 57 19.5 123t58.5 125t98 96.5t137 37.5q72 0 112.5 -40.5t40.5 -121.5
q0 -57 -19.5 -123t-58.5 -125t-98 -96.5t-137 -37.5q-72 0 -112.5 41t-40.5 121zM385 465l97 130l15 -11l-102 -136zM387 451l-266 -404l-10 18l267 403zM111 47l-97 -127l-15 12l101 133z" />
    <glyph glyph-name="ugrave" unicode="&#xf9;" horiz-adv-x="587" 
d="M395 349q-38 -107 -71 -177t-65.5 -111t-66.5 -58t-72 -17q-64 0 -80.5 41.5t6.5 109.5l97 294q10 30 5 42t-20 12t-31.5 -17t-35.5 -69l-16 -45h-19l25 73q22 63 58.5 83t71.5 20q44 0 63.5 -19.5t20 -54t-15.5 -79.5l-91 -275q-24 -72 14 -72q26 0 58.5 36.5t66 100.5
t65 147.5t56.5 176.5zM426 85q-7 -25 -6 -39.5t18 -14.5q19 0 35.5 19.5t33.5 66.5l17 47h19l-26 -75q-22 -60 -58 -81.5t-72 -21.5q-24 0 -41 8.5t-25 23.5q-10 18 -8.5 44t11.5 64l100 390q36 1 68 4t59 10zM349 599q-37 48 -65 78t-48 51.5t-34 43.5q-13 23 -9.5 43
t19.5 29q19 10 40 3t34 -29q14 -22 22 -50t19.5 -66.5t34.5 -96.5z" />
    <glyph glyph-name="uacute" unicode="&#xfa;" horiz-adv-x="587" 
d="M395 349q-38 -107 -71 -177t-65.5 -111t-66.5 -58t-72 -17q-64 0 -80.5 41.5t6.5 109.5l97 294q10 30 5 42t-20 12t-31.5 -17t-35.5 -69l-16 -45h-19l25 73q22 63 58.5 83t71.5 20q44 0 63.5 -19.5t20 -54t-15.5 -79.5l-91 -275q-24 -72 14 -72q26 0 58.5 36.5t66 100.5
t65 147.5t56.5 176.5zM426 85q-7 -25 -6 -39.5t18 -14.5q19 0 35.5 19.5t33.5 66.5l17 47h19l-26 -75q-22 -60 -58 -81.5t-72 -21.5q-24 0 -41 8.5t-25 23.5q-10 18 -8.5 44t11.5 64l100 390q36 1 68 4t59 10zM291 608q38 51 61.5 88.5t41 65t38.5 48.5q18 20 41 24t41 -11
q15 -15 10.5 -35.5t-26.5 -42.5q-19 -20 -46.5 -38.5t-65 -43.5t-85.5 -64z" />
    <glyph glyph-name="ucircumflex" unicode="&#xfb;" horiz-adv-x="587" 
d="M395 349q-38 -107 -71 -177t-65.5 -111t-66.5 -58t-72 -17q-64 0 -80.5 41.5t6.5 109.5l97 294q10 30 5 42t-20 12t-31.5 -17t-35.5 -69l-16 -45h-19l25 73q22 63 58.5 83t71.5 20q44 0 63.5 -19.5t20 -54t-15.5 -79.5l-91 -275q-24 -72 14 -72q26 0 58.5 36.5t66 100.5
t65 147.5t56.5 176.5zM426 85q-7 -25 -6 -39.5t18 -14.5q19 0 35.5 19.5t33.5 66.5l17 47h19l-26 -75q-22 -60 -58 -81.5t-72 -21.5q-24 0 -41 8.5t-25 23.5q-10 18 -8.5 44t11.5 64l100 390q36 1 68 4t59 10zM338 696q-35 -23 -82.5 -45.5t-96.5 -38.5l-5 14
q72 31 132.5 82t98.5 106h18q13 -66 39.5 -110.5t79.5 -77.5l-4 -14q-64 15 -105 36t-75 48z" />
    <glyph glyph-name="udieresis" unicode="&#xfc;" horiz-adv-x="587" 
d="M395 349q-38 -107 -71 -177t-65.5 -111t-66.5 -58t-72 -17q-64 0 -80.5 41.5t6.5 109.5l97 294q10 30 5 42t-20 12t-31.5 -17t-35.5 -69l-16 -45h-19l25 73q22 63 58.5 83t71.5 20q44 0 63.5 -19.5t20 -54t-15.5 -79.5l-91 -275q-24 -72 14 -72q26 0 58.5 36.5t66 100.5
t65 147.5t56.5 176.5zM426 85q-7 -25 -6 -39.5t18 -14.5q19 0 35.5 19.5t33.5 66.5l17 47h19l-26 -75q-22 -60 -58 -81.5t-72 -21.5q-24 0 -41 8.5t-25 23.5q-10 18 -8.5 44t11.5 64l100 390q36 1 68 4t59 10zM188 676q0 35 24.5 57t55.5 22q29 0 44.5 -17.5t15.5 -44.5
q0 -35 -24.5 -56.5t-55.5 -21.5q-29 0 -44.5 17.5t-15.5 43.5zM411 676q0 35 24 57t56 22q28 0 44 -17.5t16 -44.5q0 -35 -25 -56.5t-56 -21.5q-29 0 -44 17.5t-15 43.5z" />
    <glyph glyph-name="yacute" unicode="&#xfd;" horiz-adv-x="482" 
d="M299 54l-93 -105l-80 480q-4 29 -10 40t-17 11t-22.5 -15.5t-29.5 -65.5l-16 -44h-19l25 73q21 61 52.5 81.5t68.5 20.5t59.5 -21.5t30.5 -81.5zM67 -139q45 22 94.5 61.5t102.5 106.5q56 72 100.5 156.5t64.5 165.5q-33 18 -61 48.5t-27 69.5q2 29 18.5 45t43.5 16
q32 0 47 -22.5t15 -64.5q0 -49 -16.5 -106t-44.5 -116.5t-63.5 -115t-72.5 -102.5q-27 -32 -61.5 -65t-76 -61.5t-88.5 -46.5q-24 -10 -43 -14t-32 -4q-28 0 -46 13.5t-18 37.5q0 25 18.5 40.5t46.5 15.5t52.5 -16t46.5 -42zM255 608q38 51 61.5 88.5t41 65t38.5 48.5
q18 20 41 24t41 -11q15 -15 10.5 -35.5t-26.5 -42.5q-19 -20 -46.5 -38.5t-65 -43.5t-85.5 -64z" />
    <glyph glyph-name="thorn" unicode="&#xfe;" horiz-adv-x="573" 
d="M376 484q-19 0 -43 -22t-48 -61t-45 -88t-34 -104l21 104q47 119 93.5 168t102.5 49t86.5 -38t30.5 -112q0 -46 -12.5 -99t-37.5 -105t-61 -95.5t-82.5 -69t-103.5 -25.5q-31 0 -56.5 14t-36.5 39l7 17q12 -23 26.5 -33t33.5 -10q31 0 60 24.5t54 66t44 92.5t29 104
t10 99q0 48 -10 66.5t-28 18.5zM245 771q36 3 68 8.5t61 15.5l-249 -875q-13 -48 9 -64t70 -16l-6 -21q-22 1 -63 2.5t-87 1.5q-37 0 -74.5 -1.5t-56.5 -2.5l6 21q36 0 52 13.5t26 48.5zM15 353q37 38 69.5 76.5t64 91t63.5 132.5l3 -16q-33 -104 -81.5 -171t-107.5 -126z
" />
    <glyph glyph-name="ydieresis" unicode="&#xff;" horiz-adv-x="482" 
d="M299 54l-93 -105l-80 480q-4 29 -10 40t-17 11t-22.5 -15.5t-29.5 -65.5l-16 -44h-19l25 73q21 61 52.5 81.5t68.5 20.5t59.5 -21.5t30.5 -81.5zM67 -139q45 22 94.5 61.5t102.5 106.5q56 72 100.5 156.5t64.5 165.5q-33 18 -61 48.5t-27 69.5q2 29 18.5 45t43.5 16
q32 0 47 -22.5t15 -64.5q0 -49 -16.5 -106t-44.5 -116.5t-63.5 -115t-72.5 -102.5q-27 -32 -61.5 -65t-76 -61.5t-88.5 -46.5q-24 -10 -43 -14t-32 -4q-28 0 -46 13.5t-18 37.5q0 25 18.5 40.5t46.5 15.5t52.5 -16t46.5 -42zM153 676q0 35 24.5 57t55.5 22q29 0 44.5 -17.5
t15.5 -44.5q0 -35 -24.5 -56.5t-55.5 -21.5q-29 0 -44.5 17.5t-15.5 43.5zM376 676q0 35 24 57t56 22q28 0 44 -17.5t16 -44.5q0 -35 -25 -56.5t-56 -21.5q-29 0 -44 17.5t-15 43.5z" />
    <glyph glyph-name="Amacron" unicode="&#x100;" 
d="M67 150q-33 -47 -36.5 -75t18 -40.5t61.5 -14.5l-4 -20q-38 2 -68.5 2.5t-57.5 0.5q-23 0 -39 -0.5t-32 -2.5l5 20q24 6 48.5 28t60.5 72l422 593q9 -1 19.5 -1t19.5 1l40 -629q3 -36 18.5 -49.5t30.5 -14.5l-4 -20q-24 2 -61.5 2.5t-71.5 0.5q-42 0 -80 -0.5t-60 -2.5
l4 20q48 2 68 17.5t18 66.5l-26 472l26 24zM156 288h292l-8 -20h-302zM662 844l-6 -25h-384l6 25h384z" />
    <glyph glyph-name="amacron" unicode="&#x101;" horiz-adv-x="547" 
d="M161 32q18 0 41 21.5t47 60.5t46 93t38 118l-21 -108q-44 -128 -95 -179.5t-108 -51.5q-54 0 -80 33.5t-26 89.5q0 52 17 109.5t47.5 113t69.5 100t83 71.5t88 27q34 0 52 -28.5t9 -86.5l-11 -6q7 42 -3.5 66t-34.5 24q-28 0 -61 -36.5t-62 -96t-47.5 -129.5t-18.5 -137
q0 -37 7.5 -52.5t22.5 -15.5zM386 516q36 1 67.5 4t60.5 10l-129 -444q-4 -12 -5.5 -24.5t2 -21t16.5 -8.5q16 0 33 17t35 69l15 45h19l-25 -73q-22 -62 -57 -83t-69 -21q-48 0 -68 30q-13 22 -10 54t13 69zM553 712l-6 -25h-328l6 25h328z" />
    <glyph glyph-name="Abreve" unicode="&#x102;" 
d="M67 150q-33 -47 -36.5 -75t18 -40.5t61.5 -14.5l-4 -20q-38 2 -68.5 2.5t-57.5 0.5q-23 0 -39 -0.5t-32 -2.5l5 20q24 6 48.5 28t60.5 72l422 593q9 -1 19.5 -1t19.5 1l40 -629q3 -36 18.5 -49.5t30.5 -14.5l-4 -20q-24 2 -61.5 2.5t-71.5 0.5q-42 0 -80 -0.5t-60 -2.5
l4 20q48 2 68 17.5t18 66.5l-26 472l26 24zM156 288h292l-8 -20h-302zM486 862q61 0 119.5 14.5t106.5 42.5l11 -10q-26 -33 -68 -64t-91 -51t-96 -20q-68 0 -106.5 40t-50.5 95l16 6q28 -29 65 -41t94 -12z" />
    <glyph glyph-name="abreve" unicode="&#x103;" horiz-adv-x="547" 
d="M161 32q18 0 41 21.5t47 60.5t46 93t38 118l-21 -108q-44 -128 -95 -179.5t-108 -51.5q-54 0 -80 33.5t-26 89.5q0 52 17 109.5t47.5 113t69.5 100t83 71.5t88 27q34 0 52 -28.5t9 -86.5l-11 -6q7 42 -3.5 66t-34.5 24q-28 0 -61 -36.5t-62 -96t-47.5 -129.5t-18.5 -137
q0 -37 7.5 -52.5t22.5 -15.5zM386 516q36 1 67.5 4t60.5 10l-129 -444q-4 -12 -5.5 -24.5t2 -21t16.5 -8.5q16 0 33 17t35 69l15 45h19l-25 -73q-22 -62 -57 -83t-69 -21q-48 0 -68 30q-13 22 -10 54t13 69zM383 713q51 0 106 19.5t98 55.5l11 -10q-24 -37 -62.5 -72.5
t-84 -58t-88.5 -22.5q-55 0 -85 45t-39 108l15 6q23 -39 51.5 -55t77.5 -16z" />
    <glyph glyph-name="Aogonek" unicode="&#x104;" 
d="M67 150q-33 -47 -36.5 -75t18 -40.5t61.5 -14.5l-4 -20q-38 2 -68.5 2.5t-57.5 0.5q-23 0 -39 -0.5t-32 -2.5l5 20q24 6 48.5 28t60.5 72l422 593q9 -1 19.5 -1t19.5 1l40 -629q3 -36 18.5 -49.5t30.5 -14.5l-4 -20q-24 2 -61.5 2.5t-71.5 0.5q-42 0 -80 -0.5t-60 -2.5
l4 20q48 2 68 17.5t18 66.5l-26 472l26 24zM156 288h292l-8 -20h-302zM549 3q-29 -9 -54 -25.5t-40.5 -38t-15.5 -45.5q0 -33 35 -33q18 0 38.5 6.5t36.5 16.5l11 -17q-35 -29 -70 -42t-71 -13q-38 0 -59 16t-21 43q0 33 27.5 58.5t69.5 44t83 29.5h30z" />
    <glyph glyph-name="aogonek" unicode="&#x105;" horiz-adv-x="547" 
d="M161 32q18 0 41 21.5t47 60.5t46 93t38 118l-21 -108q-44 -128 -95 -179.5t-108 -51.5q-54 0 -80 33.5t-26 89.5q0 52 17 109.5t47.5 113t69.5 100t83 71.5t88 27q34 0 52 -28.5t9 -86.5l-11 -6q7 42 -3.5 66t-34.5 24q-28 0 -61 -36.5t-62 -96t-47.5 -129.5t-18.5 -137
q0 -37 7.5 -52.5t22.5 -15.5zM386 516q36 1 67.5 4t60.5 10l-129 -444q-4 -12 -5.5 -24.5t2 -21t16.5 -8.5q16 0 33 17t35 69l15 45h19l-25 -73q-22 -62 -57 -83t-69 -21q-48 0 -68 30q-13 22 -10 54t13 69zM412 3q-27 -9 -52.5 -25.5t-41.5 -38t-16 -45.5q0 -33 32 -33
q17 0 35 9t29 22l14 -12q-29 -35 -62.5 -51.5t-68.5 -16.5q-37 0 -58 16.5t-21 43.5q0 32 27.5 57.5t69.5 44t83 29.5h30z" />
    <glyph glyph-name="Cacute" unicode="&#x106;" horiz-adv-x="685" 
d="M734 708q-15 -39 -31 -94.5t-33 -135.5h-22q9 51 7.5 88.5t-15.5 63.5q-19 36 -51.5 53t-71.5 17q-50 0 -97.5 -28t-87.5 -77t-70.5 -112t-47.5 -133.5t-17 -140.5q0 -100 37.5 -148.5t101.5 -48.5q38 0 82 18t76 52q27 28 46.5 64t43.5 94h22q-25 -91 -38.5 -146.5
t-20.5 -93.5h-22q3 21 3 34q0 22 -8 25t-25 -8q-40 -27 -84.5 -46t-108.5 -19q-127 0 -192 63t-65 180q0 70 22.5 140t64 133.5t99 113t128 78t151.5 28.5q63 0 94.5 -20t53.5 -45q14 -15 27 -3.5t28 54.5h21zM485 783q51 39 83.5 68t58 51t50.5 36q19 11 45 11.5t38 -23.5
q10 -21 -3.5 -39.5t-34.5 -30.5q-36 -20 -90 -34t-140 -50z" />
    <glyph glyph-name="cacute" unicode="&#x107;" horiz-adv-x="453" 
d="M347 510q-38 0 -74.5 -31t-66 -84.5t-47 -121t-17.5 -139.5q0 -52 20.5 -75t53.5 -23t68 20t70 72l20 -8q-20 -33 -51 -64t-71.5 -50.5t-89.5 -19.5q-66 0 -108 37.5t-42 113.5q0 61 22.5 129t65 128t103.5 98t137 38q51 0 83.5 -26t32.5 -67q0 -24 -11.5 -47t-31.5 -38
t-46 -15q-23 0 -37.5 14t-14.5 37q0 37 26.5 64t59.5 35q-9 10 -21.5 16.5t-32.5 6.5zM279 608q38 51 61.5 88.5t41 65t38.5 48.5q18 20 41 24t41 -11q15 -15 10.5 -35.5t-26.5 -42.5q-19 -20 -46.5 -38.5t-65 -43.5t-85.5 -64z" />
    <glyph glyph-name="Ccircumflex" unicode="&#x108;" horiz-adv-x="685" 
d="M734 708q-15 -39 -31 -94.5t-33 -135.5h-22q9 51 7.5 88.5t-15.5 63.5q-19 36 -51.5 53t-71.5 17q-50 0 -97.5 -28t-87.5 -77t-70.5 -112t-47.5 -133.5t-17 -140.5q0 -100 37.5 -148.5t101.5 -48.5q38 0 82 18t76 52q27 28 46.5 64t43.5 94h22q-25 -91 -38.5 -146.5
t-20.5 -93.5h-22q3 21 3 34q0 22 -8 25t-25 -8q-40 -27 -84.5 -46t-108.5 -19q-127 0 -192 63t-65 180q0 70 22.5 140t64 133.5t99 113t128 78t151.5 28.5q63 0 94.5 -20t53.5 -45q14 -15 27 -3.5t28 54.5h21zM508 834q-42 -16 -98.5 -33.5t-114.5 -29.5l-5 14
q80 26 148.5 65t110.5 82h18q23 -49 53.5 -85.5t85.5 -61.5l-4 -14q-71 13 -113 29t-81 34z" />
    <glyph glyph-name="ccircumflex" unicode="&#x109;" horiz-adv-x="453" 
d="M347 510q-38 0 -74.5 -31t-66 -84.5t-47 -121t-17.5 -139.5q0 -52 20.5 -75t53.5 -23t68 20t70 72l20 -8q-20 -33 -51 -64t-71.5 -50.5t-89.5 -19.5q-66 0 -108 37.5t-42 113.5q0 61 22.5 129t65 128t103.5 98t137 38q51 0 83.5 -26t32.5 -67q0 -24 -11.5 -47t-31.5 -38
t-46 -15q-23 0 -37.5 14t-14.5 37q0 37 26.5 64t59.5 35q-9 10 -21.5 16.5t-32.5 6.5zM327 696q-35 -23 -82.5 -45.5t-96.5 -38.5l-5 14q72 31 132.5 82t98.5 106h18q13 -66 39.5 -110.5t79.5 -77.5l-4 -14q-64 15 -105 36t-75 48z" />
    <glyph glyph-name="Cdotaccent" unicode="&#x10a;" horiz-adv-x="685" 
d="M734 708q-15 -39 -31 -94.5t-33 -135.5h-22q9 51 7.5 88.5t-15.5 63.5q-19 36 -51.5 53t-71.5 17q-50 0 -97.5 -28t-87.5 -77t-70.5 -112t-47.5 -133.5t-17 -140.5q0 -100 37.5 -148.5t101.5 -48.5q38 0 82 18t76 52q27 28 46.5 64t43.5 94h22q-25 -91 -38.5 -146.5
t-20.5 -93.5h-22q3 21 3 34q0 22 -8 25t-25 -8q-40 -27 -84.5 -46t-108.5 -19q-127 0 -192 63t-65 180q0 70 22.5 140t64 133.5t99 113t128 78t151.5 28.5q63 0 94.5 -20t53.5 -45q14 -15 27 -3.5t28 54.5h21zM447 825q0 38 27 63t67 25q31 0 48.5 -16t17.5 -43
q0 -35 -27 -61t-67 -26q-31 0 -48.5 16t-17.5 42z" />
    <glyph glyph-name="cdotaccent" unicode="&#x10b;" horiz-adv-x="453" 
d="M347 510q-38 0 -74.5 -31t-66 -84.5t-47 -121t-17.5 -139.5q0 -52 20.5 -75t53.5 -23t68 20t70 72l20 -8q-20 -33 -51 -64t-71.5 -50.5t-89.5 -19.5q-66 0 -108 37.5t-42 113.5q0 61 22.5 129t65 128t103.5 98t137 38q51 0 83.5 -26t32.5 -67q0 -24 -11.5 -47t-31.5 -38
t-46 -15q-23 0 -37.5 14t-14.5 37q0 37 26.5 64t59.5 35q-9 10 -21.5 16.5t-32.5 6.5zM280 683q0 37 26.5 63t66.5 26q31 0 48.5 -15.5t17.5 -42.5q0 -35 -27 -61.5t-67 -26.5q-31 0 -48 15.5t-17 41.5z" />
    <glyph glyph-name="Ccaron" unicode="&#x10c;" horiz-adv-x="685" 
d="M734 708q-15 -39 -31 -94.5t-33 -135.5h-22q9 51 7.5 88.5t-15.5 63.5q-19 36 -51.5 53t-71.5 17q-50 0 -97.5 -28t-87.5 -77t-70.5 -112t-47.5 -133.5t-17 -140.5q0 -100 37.5 -148.5t101.5 -48.5q38 0 82 18t76 52q27 28 46.5 64t43.5 94h22q-25 -91 -38.5 -146.5
t-20.5 -93.5h-22q3 21 3 34q0 22 -8 25t-25 -8q-40 -27 -84.5 -46t-108.5 -19q-127 0 -192 63t-65 180q0 70 22.5 140t64 133.5t99 113t128 78t151.5 28.5q63 0 94.5 -20t53.5 -45q14 -15 27 -3.5t28 54.5h21zM553 870q43 17 99.5 34.5t114.5 28.5l5 -14
q-80 -25 -148.5 -64.5t-110.5 -82.5h-18q-23 50 -54 86t-85 61l4 14q71 -13 112.5 -28.5t80.5 -34.5z" />
    <glyph glyph-name="ccaron" unicode="&#x10d;" horiz-adv-x="453" 
d="M347 510q-38 0 -74.5 -31t-66 -84.5t-47 -121t-17.5 -139.5q0 -52 20.5 -75t53.5 -23t68 20t70 72l20 -8q-20 -33 -51 -64t-71.5 -50.5t-89.5 -19.5q-66 0 -108 37.5t-42 113.5q0 61 22.5 129t65 128t103.5 98t137 38q51 0 83.5 -26t32.5 -67q0 -24 -11.5 -47t-31.5 -38
t-46 -15q-23 0 -37.5 14t-14.5 37q0 37 26.5 64t59.5 35q-9 10 -21.5 16.5t-32.5 6.5zM388 730q36 23 82.5 46t96.5 38l5 -14q-72 -30 -133 -81.5t-98 -106.5h-18q-13 67 -39.5 111t-79.5 77l4 14q64 -15 104.5 -36t75.5 -48z" />
    <glyph glyph-name="Dcaron" unicode="&#x10e;" horiz-adv-x="756" 
d="M739 475q0 -69 -20.5 -137t-60.5 -129t-99 -108t-135.5 -74t-171.5 -27q-23 0 -63.5 1.5t-83.5 1.5q-23 0 -50 -0.5t-50.5 -1t-39.5 -1.5l3 20q32 2 50.5 8t29.5 24t20 54l131 496q12 45 4 64.5t-62 21.5l3 20q17 -1 42 -2t53.5 -1h54.5q19 1 47 1.5l56 1t47 0.5
q144 0 219.5 -59t75.5 -174zM248 18q86 0 151 42t109.5 112t67.5 156.5t23 175.5q0 92 -42 139t-137 47q-27 0 -42 -6.5t-24 -25t-18 -54.5l-131 -500q-13 -47 -8.5 -66.5t51.5 -19.5zM488 870q43 17 99.5 34.5t114.5 28.5l5 -14q-80 -25 -148.5 -64.5t-110.5 -82.5h-18
q-23 50 -54 86t-85 61l4 14q71 -13 112.5 -28.5t80.5 -34.5z" />
    <glyph glyph-name="dcaron" unicode="&#x10f;" horiz-adv-x="566" 
d="M405 85q-7 -24 -4 -39t20 -15q16 0 31.5 17.5t33.5 68.5l16 45h19l-24 -73q-20 -62 -56.5 -82.5t-70.5 -20.5q-62 0 -74 49q-6 18 -4 44t12 60l140 528q9 34 -3 50t-61 16l7 21q66 1 117 11.5t97 29.5zM171 30q20 0 46 24.5t53.5 70t53 109.5t43.5 142l-15 -108
q-35 -99 -69.5 -161t-73.5 -91.5t-88 -29.5t-81.5 33t-32.5 105q0 46 15 100.5t43 108.5t69 98.5t91.5 71.5t110.5 27q30 0 47 -15.5t19 -44.5l-8 -20q-4 30 -16 43.5t-32 13.5q-38 0 -75.5 -37t-68 -97t-49 -130t-18.5 -138q0 -38 8.5 -56.5t27.5 -18.5zM608 540
q34 74 47.5 124t13.5 69t-13 19l3 21q7 0 13 -0.5t12 -0.5q30 0 51 4t37 8q2 -2 2 -10q0 -38 -41 -101t-111 -137z" />
    <glyph glyph-name="Dcroat" unicode="&#x110;" horiz-adv-x="756" 
d="M739 475q0 -69 -20.5 -137t-60.5 -129t-99 -108t-135.5 -74t-171.5 -27q-23 0 -63.5 1.5t-83.5 1.5q-23 0 -50 -0.5t-50.5 -1t-39.5 -1.5l3 20q32 2 50.5 8t29.5 24t20 54l131 496q12 45 4 64.5t-62 21.5l3 20q17 -1 42 -2t53.5 -1h54.5q19 1 47 1.5l56 1t47 0.5
q144 0 219.5 -59t75.5 -174zM248 18q86 0 151 42t109.5 112t67.5 156.5t23 175.5q0 92 -42 139t-137 47q-27 0 -42 -6.5t-24 -25t-18 -54.5l-131 -500q-13 -47 -8.5 -66.5t51.5 -19.5zM445 366l-6 -25h-420l6 25h420z" />
    <glyph glyph-name="dcroat" unicode="&#x111;" horiz-adv-x="566" 
d="M405 85q-7 -24 -4 -39t20 -15q16 0 31.5 17.5t33.5 68.5l16 45h19l-24 -73q-20 -62 -56.5 -82.5t-70.5 -20.5q-62 0 -74 49q-6 18 -4 44t12 60l140 528q9 34 -3 50t-61 16l7 21q66 1 117 11.5t97 29.5zM171 30q20 0 46 24.5t53.5 70t53 109.5t43.5 142l-15 -108
q-35 -99 -69.5 -161t-73.5 -91.5t-88 -29.5t-81.5 33t-32.5 105q0 46 15 100.5t43 108.5t69 98.5t91.5 71.5t110.5 27q30 0 47 -15.5t19 -44.5l-8 -20q-4 30 -16 43.5t-32 13.5q-38 0 -75.5 -37t-68 -97t-49 -130t-18.5 -138q0 -38 8.5 -56.5t27.5 -18.5zM642 628l-6 -20
h-372l6 20h372z" />
    <glyph glyph-name="Emacron" unicode="&#x112;" horiz-adv-x="621" 
d="M217 346l5 20h189l-5 -20h-189zM321 366q39 0 64.5 20t42 49t27.5 55h22q-16 -50 -23 -78t-15 -56q-4 -18 -8.5 -35t-9 -40t-11.5 -59h-23q3 28 1 57t-18.5 48t-57.5 19zM587 528q7 59 0 93.5t-31 49t-72 14.5h-45q-34 0 -52.5 -5.5t-29 -23t-20.5 -54.5l-133 -496
q-14 -55 -3 -69t62 -14h49q57 0 94 17t65 55.5t55 104.5h22q-5 -13 -10.5 -32t-10.5 -40q-5 -19 -13 -54.5t-14 -73.5q-51 2 -114.5 2.5t-113.5 0.5h-85.5t-114 -0.5t-112.5 -2.5l4 20q34 2 53 8t30 24t20 54l133 496q15 55 3.5 69.5t-61.5 16.5l5 20q52 -1 112.5 -2t114 -1
h85.5q45 0 101 0.5t102 2.5q-13 -35 -22.5 -64.5t-15.5 -53.5q-5 -18 -8.5 -34.5t-5.5 -27.5h-23zM623 844l-6 -25h-384l6 25h384z" />
    <glyph glyph-name="emacron" unicode="&#x113;" horiz-adv-x="456" 
d="M115 220q47 18 86.5 37.5t66.5 41.5q37 33 60 77.5t23 97.5q0 23 -4 30t-12 7q-29 0 -63 -33.5t-64.5 -89t-50.5 -121.5t-20 -131q0 -53 20.5 -74.5t54.5 -21.5q29 0 69 19t79 69l16 -8q-20 -33 -53 -64t-75.5 -50.5t-93.5 -19.5q-64 0 -106 35.5t-42 105.5
q0 49 17 104.5t48.5 108.5t75 96t96.5 68.5t114 25.5q40 0 67 -18.5t27 -56.5q0 -39 -22 -73t-59.5 -62t-82 -50t-89.5 -38t-84 -26zM529 712l-6 -25h-328l6 25h328z" />
    <glyph glyph-name="Ebreve" unicode="&#x114;" horiz-adv-x="621" 
d="M217 346l5 20h189l-5 -20h-189zM321 366q39 0 64.5 20t42 49t27.5 55h22q-16 -50 -23 -78t-15 -56q-4 -18 -8.5 -35t-9 -40t-11.5 -59h-23q3 28 1 57t-18.5 48t-57.5 19zM587 528q7 59 0 93.5t-31 49t-72 14.5h-45q-34 0 -52.5 -5.5t-29 -23t-20.5 -54.5l-133 -496
q-14 -55 -3 -69t62 -14h49q57 0 94 17t65 55.5t55 104.5h22q-5 -13 -10.5 -32t-10.5 -40q-5 -19 -13 -54.5t-14 -73.5q-51 2 -114.5 2.5t-113.5 0.5h-85.5t-114 -0.5t-112.5 -2.5l4 20q34 2 53 8t30 24t20 54l133 496q15 55 3.5 69.5t-61.5 16.5l5 20q52 -1 112.5 -2t114 -1
h85.5q45 0 101 0.5t102 2.5q-13 -35 -22.5 -64.5t-15.5 -53.5q-5 -18 -8.5 -34.5t-5.5 -27.5h-23zM447 862q61 0 119.5 14.5t106.5 42.5l11 -10q-26 -33 -68 -64t-91 -51t-96 -20q-68 0 -106.5 40t-50.5 95l16 6q28 -29 65 -41t94 -12z" />
    <glyph glyph-name="ebreve" unicode="&#x115;" horiz-adv-x="456" 
d="M115 220q47 18 86.5 37.5t66.5 41.5q37 33 60 77.5t23 97.5q0 23 -4 30t-12 7q-29 0 -63 -33.5t-64.5 -89t-50.5 -121.5t-20 -131q0 -53 20.5 -74.5t54.5 -21.5q29 0 69 19t79 69l16 -8q-20 -33 -53 -64t-75.5 -50.5t-93.5 -19.5q-64 0 -106 35.5t-42 105.5
q0 49 17 104.5t48.5 108.5t75 96t96.5 68.5t114 25.5q40 0 67 -18.5t27 -56.5q0 -39 -22 -73t-59.5 -62t-82 -50t-89.5 -38t-84 -26zM360 713q51 0 106 19.5t98 55.5l11 -10q-24 -37 -62.5 -72.5t-84 -58t-88.5 -22.5q-55 0 -85 45t-39 108l15 6q23 -39 51.5 -55t77.5 -16z
" />
    <glyph glyph-name="Edotaccent" unicode="&#x116;" horiz-adv-x="621" 
d="M217 346l5 20h189l-5 -20h-189zM321 366q39 0 64.5 20t42 49t27.5 55h22q-16 -50 -23 -78t-15 -56q-4 -18 -8.5 -35t-9 -40t-11.5 -59h-23q3 28 1 57t-18.5 48t-57.5 19zM587 528q7 59 0 93.5t-31 49t-72 14.5h-45q-34 0 -52.5 -5.5t-29 -23t-20.5 -54.5l-133 -496
q-14 -55 -3 -69t62 -14h49q57 0 94 17t65 55.5t55 104.5h22q-5 -13 -10.5 -32t-10.5 -40q-5 -19 -13 -54.5t-14 -73.5q-51 2 -114.5 2.5t-113.5 0.5h-85.5t-114 -0.5t-112.5 -2.5l4 20q34 2 53 8t30 24t20 54l133 496q15 55 3.5 69.5t-61.5 16.5l5 20q52 -1 112.5 -2t114 -1
h85.5q45 0 101 0.5t102 2.5q-13 -35 -22.5 -64.5t-15.5 -53.5q-5 -18 -8.5 -34.5t-5.5 -27.5h-23zM372 825q0 38 27 63t67 25q31 0 48.5 -16t17.5 -43q0 -35 -27 -61t-67 -26q-31 0 -48.5 16t-17.5 42z" />
    <glyph glyph-name="edotaccent" unicode="&#x117;" horiz-adv-x="456" 
d="M115 220q47 18 86.5 37.5t66.5 41.5q37 33 60 77.5t23 97.5q0 23 -4 30t-12 7q-29 0 -63 -33.5t-64.5 -89t-50.5 -121.5t-20 -131q0 -53 20.5 -74.5t54.5 -21.5q29 0 69 19t79 69l16 -8q-20 -33 -53 -64t-75.5 -50.5t-93.5 -19.5q-64 0 -106 35.5t-42 105.5
q0 49 17 104.5t48.5 108.5t75 96t96.5 68.5t114 25.5q40 0 67 -18.5t27 -56.5q0 -39 -22 -73t-59.5 -62t-82 -50t-89.5 -38t-84 -26zM285 683q0 37 26.5 63t66.5 26q31 0 48.5 -15.5t17.5 -42.5q0 -35 -27 -61.5t-67 -26.5q-31 0 -48 15.5t-17 41.5z" />
    <glyph glyph-name="Eogonek" unicode="&#x118;" horiz-adv-x="621" 
d="M217 346l5 20h189l-5 -20h-189zM321 366q39 0 64.5 20t42 49t27.5 55h22q-16 -50 -23 -78t-15 -56q-4 -18 -8.5 -35t-9 -40t-11.5 -59h-23q3 28 1 57t-18.5 48t-57.5 19zM587 528q7 59 0 93.5t-31 49t-72 14.5h-45q-34 0 -52.5 -5.5t-29 -23t-20.5 -54.5l-133 -496
q-14 -55 -3 -69t62 -14h49q57 0 94 17t65 55.5t55 104.5h22q-5 -13 -10.5 -32t-10.5 -40q-5 -19 -13 -54.5t-14 -73.5q-51 2 -114.5 2.5t-113.5 0.5h-85.5t-114 -0.5t-112.5 -2.5l4 20q34 2 53 8t30 24t20 54l133 496q15 55 3.5 69.5t-61.5 16.5l5 20q52 -1 112.5 -2t114 -1
h85.5q45 0 101 0.5t102 2.5q-13 -35 -22.5 -64.5t-15.5 -53.5q-5 -18 -8.5 -34.5t-5.5 -27.5h-23zM497 3q-29 -9 -54 -25.5t-40.5 -38t-15.5 -45.5q0 -33 35 -33q18 0 38.5 6.5t36.5 16.5l11 -17q-35 -29 -70 -42t-71 -13q-38 0 -59 16t-21 43q0 33 27.5 58.5t69.5 44
t83 29.5h30z" />
    <glyph glyph-name="eogonek" unicode="&#x119;" horiz-adv-x="456" 
d="M115 220q47 18 86.5 37.5t66.5 41.5q37 33 60 77.5t23 97.5q0 23 -4 30t-12 7q-29 0 -63 -33.5t-64.5 -89t-50.5 -121.5t-20 -131q0 -53 20.5 -74.5t54.5 -21.5q29 0 69 19t79 69l16 -8q-20 -33 -53 -64t-75.5 -50.5t-93.5 -19.5q-64 0 -106 35.5t-42 105.5
q0 49 17 104.5t48.5 108.5t75 96t96.5 68.5t114 25.5q40 0 67 -18.5t27 -56.5q0 -39 -22 -73t-59.5 -62t-82 -50t-89.5 -38t-84 -26zM240 3q-27 -9 -52.5 -25.5t-41.5 -38t-16 -45.5q0 -33 32 -33q17 0 35 9t29 22l14 -12q-29 -35 -62.5 -51.5t-68.5 -16.5q-37 0 -58 16.5
t-21 43.5q0 32 27.5 57.5t69.5 44t83 29.5h30z" />
    <glyph glyph-name="Ecaron" unicode="&#x11a;" horiz-adv-x="621" 
d="M217 346l5 20h189l-5 -20h-189zM321 366q39 0 64.5 20t42 49t27.5 55h22q-16 -50 -23 -78t-15 -56q-4 -18 -8.5 -35t-9 -40t-11.5 -59h-23q3 28 1 57t-18.5 48t-57.5 19zM587 528q7 59 0 93.5t-31 49t-72 14.5h-45q-34 0 -52.5 -5.5t-29 -23t-20.5 -54.5l-133 -496
q-14 -55 -3 -69t62 -14h49q57 0 94 17t65 55.5t55 104.5h22q-5 -13 -10.5 -32t-10.5 -40q-5 -19 -13 -54.5t-14 -73.5q-51 2 -114.5 2.5t-113.5 0.5h-85.5t-114 -0.5t-112.5 -2.5l4 20q34 2 53 8t30 24t20 54l133 496q15 55 3.5 69.5t-61.5 16.5l5 20q52 -1 112.5 -2t114 -1
h85.5q45 0 101 0.5t102 2.5q-13 -35 -22.5 -64.5t-15.5 -53.5q-5 -18 -8.5 -34.5t-5.5 -27.5h-23zM479 870q43 17 99.5 34.5t114.5 28.5l5 -14q-80 -25 -148.5 -64.5t-110.5 -82.5h-18q-23 50 -54 86t-85 61l4 14q71 -13 112.5 -28.5t80.5 -34.5z" />
    <glyph glyph-name="ecaron" unicode="&#x11b;" horiz-adv-x="456" 
d="M115 220q47 18 86.5 37.5t66.5 41.5q37 33 60 77.5t23 97.5q0 23 -4 30t-12 7q-29 0 -63 -33.5t-64.5 -89t-50.5 -121.5t-20 -131q0 -53 20.5 -74.5t54.5 -21.5q29 0 69 19t79 69l16 -8q-20 -33 -53 -64t-75.5 -50.5t-93.5 -19.5q-64 0 -106 35.5t-42 105.5
q0 49 17 104.5t48.5 108.5t75 96t96.5 68.5t114 25.5q40 0 67 -18.5t27 -56.5q0 -39 -22 -73t-59.5 -62t-82 -50t-89.5 -38t-84 -26zM393 730q36 23 82.5 46t96.5 38l5 -14q-72 -30 -133 -81.5t-98 -106.5h-18q-13 67 -39.5 111t-79.5 77l4 14q64 -15 104.5 -36t75.5 -48z
" />
    <glyph glyph-name="Gcircumflex" unicode="&#x11c;" horiz-adv-x="727" 
d="M332 6q27 0 50.5 7.5t38.5 16.5q19 12 27.5 28.5t15.5 41.5l23 88q11 41 8.5 61t-22 27t-61.5 8l5 20q29 -1 75.5 -2t84.5 -1q40 0 73.5 1t55.5 2l-5 -20q-22 -1 -34.5 -7t-21 -24t-18.5 -55l-53 -198h-20q3 23 -2 40t-21 17q-15 0 -31 -8l-38 -19q-38 -22 -74.5 -33
t-78.5 -11q-128 0 -197.5 60t-69.5 169q0 68 21.5 139t62.5 137t98 118t129 82.5t155 30.5q65 0 100.5 -19t63.5 -46q15 -15 28 -5t29 56h22q-15 -39 -31 -94.5t-33 -135.5h-22q2 20 3.5 38.5t1.5 36.5q0 21 -3 38.5t-11 34.5q-20 37 -60.5 57.5t-93.5 20.5
q-63 0 -114.5 -35.5t-90.5 -94t-65 -128t-39.5 -139t-13.5 -125.5q0 -90 38 -133t115 -43zM514 834q-42 -16 -98.5 -33.5t-114.5 -29.5l-5 14q80 26 148.5 65t110.5 82h18q23 -49 53.5 -85.5t85.5 -61.5l-4 -14q-71 13 -113 29t-81 34z" />
    <glyph glyph-name="gcircumflex" unicode="&#x11d;" horiz-adv-x="464" 
d="M221 226l39 2q-58 -27 -94.5 -46.5t-36.5 -37.5q0 -9 12 -16.5t38 -14.5l80 -25q30 -9 55.5 -21t41.5 -31t16 -49q0 -33 -21.5 -65t-61 -57.5t-94.5 -41t-122 -15.5q-51 0 -90.5 9.5t-61 26.5t-21.5 40q0 18 14 34t38 29t54 23t63 15l4 -15q-35 -18 -48.5 -39.5
t-13.5 -42.5q0 -33 23.5 -48t60.5 -15q41 0 82.5 15.5t70 41t28.5 55.5q0 18 -12 24.5t-35 11.5l-147 41q-24 7 -41 22.5t-17 41.5q0 24 20.5 46.5t64 47t112.5 54.5zM267 512q-30 0 -50 -24t-32 -60t-17.5 -73t-5.5 -64q0 -32 10.5 -45t29.5 -13q28 0 47.5 21t31.5 54
t17 69.5t5 67.5q0 29 -6.5 48t-29.5 19zM279 530q64 0 104.5 -26.5t40.5 -86.5q0 -48 -29 -95t-82.5 -77t-125.5 -30q-61 0 -102.5 26.5t-41.5 84.5q0 30 14 65.5t43 67t73.5 51.5t105.5 20zM356 477l-20 7q15 37 49 63t72 26q30 0 46 -16.5t16 -45.5t-14 -43t-32 -14
q-16 0 -30.5 11.5t-17.5 35.5t13 62l9 -5q-39 -15 -58 -33t-33 -48zM303 696q-35 -23 -82.5 -45.5t-96.5 -38.5l-5 14q72 31 132.5 82t98.5 106h18q13 -66 39.5 -110.5t79.5 -77.5l-4 -14q-64 15 -105 36t-75 48z" />
    <glyph glyph-name="Gbreve" unicode="&#x11e;" horiz-adv-x="727" 
d="M332 6q27 0 50.5 7.5t38.5 16.5q19 12 27.5 28.5t15.5 41.5l23 88q11 41 8.5 61t-22 27t-61.5 8l5 20q29 -1 75.5 -2t84.5 -1q40 0 73.5 1t55.5 2l-5 -20q-22 -1 -34.5 -7t-21 -24t-18.5 -55l-53 -198h-20q3 23 -2 40t-21 17q-15 0 -31 -8l-38 -19q-38 -22 -74.5 -33
t-78.5 -11q-128 0 -197.5 60t-69.5 169q0 68 21.5 139t62.5 137t98 118t129 82.5t155 30.5q65 0 100.5 -19t63.5 -46q15 -15 28 -5t29 56h22q-15 -39 -31 -94.5t-33 -135.5h-22q2 20 3.5 38.5t1.5 36.5q0 21 -3 38.5t-11 34.5q-20 37 -60.5 57.5t-93.5 20.5
q-63 0 -114.5 -35.5t-90.5 -94t-65 -128t-39.5 -139t-13.5 -125.5q0 -90 38 -133t115 -43zM528 862q61 0 119.5 14.5t106.5 42.5l11 -10q-26 -33 -68 -64t-91 -51t-96 -20q-68 0 -106.5 40t-50.5 95l16 6q28 -29 65 -41t94 -12z" />
    <glyph glyph-name="gbreve" unicode="&#x11f;" horiz-adv-x="464" 
d="M221 226l39 2q-58 -27 -94.5 -46.5t-36.5 -37.5q0 -9 12 -16.5t38 -14.5l80 -25q30 -9 55.5 -21t41.5 -31t16 -49q0 -33 -21.5 -65t-61 -57.5t-94.5 -41t-122 -15.5q-51 0 -90.5 9.5t-61 26.5t-21.5 40q0 18 14 34t38 29t54 23t63 15l4 -15q-35 -18 -48.5 -39.5
t-13.5 -42.5q0 -33 23.5 -48t60.5 -15q41 0 82.5 15.5t70 41t28.5 55.5q0 18 -12 24.5t-35 11.5l-147 41q-24 7 -41 22.5t-17 41.5q0 24 20.5 46.5t64 47t112.5 54.5zM267 512q-30 0 -50 -24t-32 -60t-17.5 -73t-5.5 -64q0 -32 10.5 -45t29.5 -13q28 0 47.5 21t31.5 54
t17 69.5t5 67.5q0 29 -6.5 48t-29.5 19zM279 530q64 0 104.5 -26.5t40.5 -86.5q0 -48 -29 -95t-82.5 -77t-125.5 -30q-61 0 -102.5 26.5t-41.5 84.5q0 30 14 65.5t43 67t73.5 51.5t105.5 20zM356 477l-20 7q15 37 49 63t72 26q30 0 46 -16.5t16 -45.5t-14 -43t-32 -14
q-16 0 -30.5 11.5t-17.5 35.5t13 62l9 -5q-39 -15 -58 -33t-33 -48zM330 713q51 0 106 19.5t98 55.5l11 -10q-24 -37 -62.5 -72.5t-84 -58t-88.5 -22.5q-55 0 -85 45t-39 108l15 6q23 -39 51.5 -55t77.5 -16z" />
    <glyph glyph-name="Gdotaccent" unicode="&#x120;" horiz-adv-x="727" 
d="M332 6q27 0 50.5 7.5t38.5 16.5q19 12 27.5 28.5t15.5 41.5l23 88q11 41 8.5 61t-22 27t-61.5 8l5 20q29 -1 75.5 -2t84.5 -1q40 0 73.5 1t55.5 2l-5 -20q-22 -1 -34.5 -7t-21 -24t-18.5 -55l-53 -198h-20q3 23 -2 40t-21 17q-15 0 -31 -8l-38 -19q-38 -22 -74.5 -33
t-78.5 -11q-128 0 -197.5 60t-69.5 169q0 68 21.5 139t62.5 137t98 118t129 82.5t155 30.5q65 0 100.5 -19t63.5 -46q15 -15 28 -5t29 56h22q-15 -39 -31 -94.5t-33 -135.5h-22q2 20 3.5 38.5t1.5 36.5q0 21 -3 38.5t-11 34.5q-20 37 -60.5 57.5t-93.5 20.5
q-63 0 -114.5 -35.5t-90.5 -94t-65 -128t-39.5 -139t-13.5 -125.5q0 -90 38 -133t115 -43zM453 825q0 38 27 63t67 25q31 0 48.5 -16t17.5 -43q0 -35 -27 -61t-67 -26q-31 0 -48.5 16t-17.5 42z" />
    <glyph glyph-name="gdotaccent" unicode="&#x121;" horiz-adv-x="464" 
d="M221 226l39 2q-58 -27 -94.5 -46.5t-36.5 -37.5q0 -9 12 -16.5t38 -14.5l80 -25q30 -9 55.5 -21t41.5 -31t16 -49q0 -33 -21.5 -65t-61 -57.5t-94.5 -41t-122 -15.5q-51 0 -90.5 9.5t-61 26.5t-21.5 40q0 18 14 34t38 29t54 23t63 15l4 -15q-35 -18 -48.5 -39.5
t-13.5 -42.5q0 -33 23.5 -48t60.5 -15q41 0 82.5 15.5t70 41t28.5 55.5q0 18 -12 24.5t-35 11.5l-147 41q-24 7 -41 22.5t-17 41.5q0 24 20.5 46.5t64 47t112.5 54.5zM267 512q-30 0 -50 -24t-32 -60t-17.5 -73t-5.5 -64q0 -32 10.5 -45t29.5 -13q28 0 47.5 21t31.5 54
t17 69.5t5 67.5q0 29 -6.5 48t-29.5 19zM279 530q64 0 104.5 -26.5t40.5 -86.5q0 -48 -29 -95t-82.5 -77t-125.5 -30q-61 0 -102.5 26.5t-41.5 84.5q0 30 14 65.5t43 67t73.5 51.5t105.5 20zM356 477l-20 7q15 37 49 63t72 26q30 0 46 -16.5t16 -45.5t-14 -43t-32 -14
q-16 0 -30.5 11.5t-17.5 35.5t13 62l9 -5q-39 -15 -58 -33t-33 -48zM255 683q0 37 26.5 63t66.5 26q31 0 48.5 -15.5t17.5 -42.5q0 -35 -27 -61.5t-67 -26.5q-31 0 -48 15.5t-17 41.5z" />
    <glyph glyph-name="uni0122" unicode="&#x122;" horiz-adv-x="727" 
d="M332 6q27 0 50.5 7.5t38.5 16.5q19 12 27.5 28.5t15.5 41.5l23 88q11 41 8.5 61t-22 27t-61.5 8l5 20q29 -1 75.5 -2t84.5 -1q40 0 73.5 1t55.5 2l-5 -20q-22 -1 -34.5 -7t-21 -24t-18.5 -55l-53 -198h-20q3 23 -2 40t-21 17q-15 0 -31 -8l-38 -19q-38 -22 -74.5 -33
t-78.5 -11q-128 0 -197.5 60t-69.5 169q0 68 21.5 139t62.5 137t98 118t129 82.5t155 30.5q65 0 100.5 -19t63.5 -46q15 -15 28 -5t29 56h22q-15 -39 -31 -94.5t-33 -135.5h-22q2 20 3.5 38.5t1.5 36.5q0 21 -3 38.5t-11 34.5q-20 37 -60.5 57.5t-93.5 20.5
q-63 0 -114.5 -35.5t-90.5 -94t-65 -128t-39.5 -139t-13.5 -125.5q0 -90 38 -133t115 -43zM310 -58q27 0 45.5 -16t18.5 -45q0 -43 -29.5 -76t-94.5 -46l-5 19q33 4 60.5 20t31.5 40q-10 -8 -23.5 -12.5t-30.5 -4.5q-25 0 -40 11.5t-15 34.5q0 30 23 52.5t59 22.5z" />
    <glyph glyph-name="uni0123" unicode="&#x123;" horiz-adv-x="464" 
d="M221 226l39 2q-58 -27 -94.5 -46.5t-36.5 -37.5q0 -9 12 -16.5t38 -14.5l80 -25q30 -9 55.5 -21t41.5 -31t16 -49q0 -33 -21.5 -65t-61 -57.5t-94.5 -41t-122 -15.5q-51 0 -90.5 9.5t-61 26.5t-21.5 40q0 18 14 34t38 29t54 23t63 15l4 -15q-35 -18 -48.5 -39.5
t-13.5 -42.5q0 -33 23.5 -48t60.5 -15q41 0 82.5 15.5t70 41t28.5 55.5q0 18 -12 24.5t-35 11.5l-147 41q-24 7 -41 22.5t-17 41.5q0 24 20.5 46.5t64 47t112.5 54.5zM267 512q-30 0 -50 -24t-32 -60t-17.5 -73t-5.5 -64q0 -32 10.5 -45t29.5 -13q28 0 47.5 21t31.5 54
t17 69.5t5 67.5q0 29 -6.5 48t-29.5 19zM279 530q64 0 104.5 -26.5t40.5 -86.5q0 -48 -29 -95t-82.5 -77t-125.5 -30q-61 0 -102.5 26.5t-41.5 84.5q0 30 14 65.5t43 67t73.5 51.5t105.5 20zM356 477l-20 7q15 37 49 63t72 26q30 0 46 -16.5t16 -45.5t-14 -43t-32 -14
q-16 0 -30.5 11.5t-17.5 35.5t13 62l9 -5q-39 -15 -58 -33t-33 -48zM307 622q-27 0 -45.5 16t-18.5 45q0 43 29.5 76t94.5 46l5 -19q-33 -4 -60.5 -20t-31.5 -40q10 8 23.5 12.5t30.5 4.5q25 0 40 -11.5t15 -34.5q0 -30 -23 -52.5t-59 -22.5z" />
    <glyph glyph-name="Hcircumflex" unicode="&#x124;" horiz-adv-x="791" 
d="M229 346l7 20h353l-8 -20h-352zM617 602q15 55 3 69.5t-62 16.5l5 20q26 -1 66 -2t81 -1q46 0 86.5 1t65.5 2l-5 -20q-34 -1 -53 -7.5t-29.5 -24t-20.5 -54.5l-132 -496q-14 -55 -3 -69.5t62 -16.5l-4 -20q-24 2 -64.5 2.5t-86.5 0.5q-41 0 -81 -0.5t-67 -2.5l4 20
q34 2 53 8t30 24t20 54zM204 106q-14 -55 -3 -69.5t62 -16.5l-4 -20q-26 2 -66 2.5t-81 0.5q-46 0 -85.5 -0.5t-65.5 -2.5l5 20q33 2 51.5 8t29.5 24t20 54l132 496q14 55 2.5 69.5t-61.5 16.5l5 20q24 -1 64.5 -2t86.5 -1q41 0 80.5 1t67.5 2l-5 -20q-34 -1 -53 -7.5
t-29.5 -24t-20.5 -54.5zM516 834q-42 -16 -98.5 -33.5t-114.5 -29.5l-5 14q80 26 148.5 65t110.5 82h18q23 -49 53.5 -85.5t85.5 -61.5l-4 -14q-71 13 -113 29t-81 34z" />
    <glyph glyph-name="hcircumflex" unicode="&#x125;" horiz-adv-x="558" 
d="M108 0h-123l198 667q10 34 -2.5 50t-61.5 16l7 21q66 1 117.5 11.5t97.5 29.5zM134 146q39 112 73.5 186.5t68 118t69 61.5t74.5 18q48 0 68 -21.5t19.5 -56.5t-13.5 -73l-98 -294q-9 -27 -5.5 -40.5t19.5 -13.5q15 0 32 17t36 69l16 45h19l-25 -73q-22 -63 -58.5 -83
t-71.5 -20q-45 0 -64.5 20t-18.5 55t14 78l92 275q5 16 8 33t-1 28t-21 11q-27 0 -60.5 -37.5t-68 -103t-67 -151t-59.5 -181.5zM491 936q-35 -23 -82.5 -45.5t-96.5 -38.5l-5 14q72 31 132.5 82t98.5 106h18q13 -66 39.5 -110.5t79.5 -77.5l-4 -14q-64 15 -105 36t-75 48z
" />
    <glyph glyph-name="Hbar" unicode="&#x126;" horiz-adv-x="791" 
d="M229 346l7 20h353l-8 -20h-352zM617 602q15 55 3 69.5t-62 16.5l5 20q26 -1 66 -2t81 -1q46 0 86.5 1t65.5 2l-5 -20q-34 -1 -53 -7.5t-29.5 -24t-20.5 -54.5l-132 -496q-14 -55 -3 -69.5t62 -16.5l-4 -20q-24 2 -64.5 2.5t-86.5 0.5q-41 0 -81 -0.5t-67 -2.5l4 20
q34 2 53 8t30 24t20 54zM204 106q-14 -55 -3 -69.5t62 -16.5l-4 -20q-26 2 -66 2.5t-81 0.5q-46 0 -85.5 -0.5t-65.5 -2.5l5 20q33 2 51.5 8t29.5 24t20 54l132 496q14 55 2.5 69.5t-61.5 16.5l5 20q24 -1 64.5 -2t86.5 -1q41 0 80.5 1t67.5 2l-5 -20q-34 -1 -53 -7.5
t-29.5 -24t-20.5 -54.5zM855 533l-5 -20h-789l5 20h789z" />
    <glyph glyph-name="hbar" unicode="&#x127;" horiz-adv-x="558" 
d="M108 0h-123l198 667q10 34 -2.5 50t-61.5 16l7 21q66 1 117.5 11.5t97.5 29.5zM134 146q39 112 73.5 186.5t68 118t69 61.5t74.5 18q48 0 68 -21.5t19.5 -56.5t-13.5 -73l-98 -294q-9 -27 -5.5 -40.5t19.5 -13.5q15 0 32 17t36 69l16 45h19l-25 -73q-22 -63 -58.5 -83
t-71.5 -20q-45 0 -64.5 20t-18.5 55t14 78l92 275q5 16 8 33t-1 28t-21 11q-27 0 -60.5 -37.5t-68 -103t-67 -151t-59.5 -181.5zM455 628l-6 -20h-372l6 20h372z" />
    <glyph glyph-name="Itilde" unicode="&#x128;" horiz-adv-x="373" 
d="M204 106q-14 -55 -3 -69.5t62 -16.5l-4 -20q-26 2 -67 2.5t-84 0.5q-45 0 -83.5 -0.5t-63.5 -2.5l5 20q33 2 51.5 8t29.5 24t20 54l132 496q14 55 2.5 69.5t-61.5 16.5l5 20q24 -1 63 -2t84 -1q43 0 83 1t69 2l-5 -20q-34 -1 -53 -7.5t-29.5 -24t-20.5 -54.5zM272 916
q36 0 59.5 -11t41.5 -25.5t37 -25.5t46 -11q20 0 38.5 13.5t36.5 44.5l18 -5q-26 -68 -69 -97.5t-85 -29.5q-36 0 -59.5 11t-41.5 25.5t-37 25.5t-46 11q-20 0 -38.5 -13t-36.5 -45l-18 5q27 69 69.5 98t84.5 29z" />
    <glyph glyph-name="itilde" unicode="&#x129;" horiz-adv-x="315" 
d="M145 431q18 54 -12 54q-20 0 -36 -20.5t-33 -65.5l-18 -47h-19l27 75q22 60 58.5 81.5t75.5 21.5q46 0 64 -22t16.5 -54.5t-12.5 -63.5l-105 -305q-10 -27 -5.5 -40.5t19.5 -13.5q16 0 32 17.5t36 68.5l17 45h19l-26 -73q-21 -60 -57.5 -81.5t-73.5 -21.5q-43 0 -63 19.5
t-20 54t15 79.5zM193 780q30 0 49.5 -11t34.5 -25.5t30.5 -25.5t37.5 -11q19 0 36.5 13.5t34.5 44.5l18 -5q-26 -68 -66 -97.5t-80 -29.5q-30 0 -49.5 11t-34.5 25.5t-30.5 25.5t-37.5 11q-19 0 -36.5 -13t-34.5 -45l-18 5q25 68 65.5 97.5t80.5 29.5z" />
    <glyph glyph-name="Imacron" unicode="&#x12a;" horiz-adv-x="373" 
d="M204 106q-14 -55 -3 -69.5t62 -16.5l-4 -20q-26 2 -67 2.5t-84 0.5q-45 0 -83.5 -0.5t-63.5 -2.5l5 20q33 2 51.5 8t29.5 24t20 54l132 496q14 55 2.5 69.5t-61.5 16.5l5 20q24 -1 63 -2t84 -1q43 0 83 1t69 2l-5 -20q-34 -1 -53 -7.5t-29.5 -24t-20.5 -54.5zM503 844
l-6 -25h-384l6 25h384z" />
    <glyph glyph-name="imacron" unicode="&#x12b;" horiz-adv-x="315" 
d="M145 431q18 54 -12 54q-20 0 -36 -20.5t-33 -65.5l-18 -47h-19l27 75q22 60 58.5 81.5t75.5 21.5q46 0 64 -22t16.5 -54.5t-12.5 -63.5l-105 -305q-10 -27 -5.5 -40.5t19.5 -13.5q16 0 32 17.5t36 68.5l17 45h19l-26 -73q-21 -60 -57.5 -81.5t-73.5 -21.5q-43 0 -63 19.5
t-20 54t15 79.5zM379.839 712l-5.09961 -25h-278.792l5.09961 25h278.792z" />
    <glyph glyph-name="Ibreve" unicode="&#x12c;" horiz-adv-x="373" 
d="M204 106q-14 -55 -3 -69.5t62 -16.5l-4 -20q-26 2 -67 2.5t-84 0.5q-45 0 -83.5 -0.5t-63.5 -2.5l5 20q33 2 51.5 8t29.5 24t20 54l132 496q14 55 2.5 69.5t-61.5 16.5l5 20q24 -1 63 -2t84 -1q43 0 83 1t69 2l-5 -20q-34 -1 -53 -7.5t-29.5 -24t-20.5 -54.5zM327 862
q61 0 119.5 14.5t106.5 42.5l11 -10q-26 -33 -68 -64t-91 -51t-96 -20q-68 0 -106.5 40t-50.5 95l16 6q28 -29 65 -41t94 -12z" />
    <glyph glyph-name="ibreve" unicode="&#x12d;" horiz-adv-x="315" 
d="M145 431q18 54 -12 54q-20 0 -36 -20.5t-33 -65.5l-18 -47h-19l27 75q22 60 58.5 81.5t75.5 21.5q46 0 64 -22t16.5 -54.5t-12.5 -63.5l-105 -305q-10 -27 -5.5 -40.5t19.5 -13.5q16 0 32 17.5t36 68.5l17 45h19l-26 -73q-21 -60 -57.5 -81.5t-73.5 -21.5q-43 0 -63 19.5
t-20 54t15 79.5zM241 713q51 0 106 19.5t98 55.5l11 -10q-24 -37 -62.5 -72.5t-84 -58t-88.5 -22.5q-55 0 -85 45t-39 108l15 6q23 -39 51.5 -55t77.5 -16z" />
    <glyph glyph-name="Iogonek" unicode="&#x12e;" horiz-adv-x="373" 
d="M204 106q-14 -55 -3 -69.5t62 -16.5l-4 -20q-26 2 -67 2.5t-84 0.5q-45 0 -83.5 -0.5t-63.5 -2.5l5 20q33 2 51.5 8t29.5 24t20 54l132 496q14 55 2.5 69.5t-61.5 16.5l5 20q24 -1 63 -2t84 -1q43 0 83 1t69 2l-5 -20q-34 -1 -53 -7.5t-29.5 -24t-20.5 -54.5zM261 3
q-29 -9 -54 -25.5t-40.5 -38t-15.5 -45.5q0 -33 35 -33q18 0 38.5 6.5t36.5 16.5l11 -17q-35 -29 -70 -42t-71 -13q-38 0 -59 16t-21 43q0 33 27.5 58.5t69.5 44t83 29.5h30z" />
    <glyph glyph-name="iogonek" unicode="&#x12f;" horiz-adv-x="316" 
d="M181 688q3 37 30 59t63 22q33 0 50.5 -18.5t14.5 -47.5q-3 -34 -30 -57t-63 -23q-33 0 -50.5 18.5t-14.5 46.5zM146 431q18 54 -12 54q-20 0 -36 -20.5t-34 -65.5l-17 -47h-19l26 75q22 60 58.5 81.5t75.5 21.5q47 0 64.5 -22t16.5 -54.5t-12 -63.5l-106 -305
q-9 -27 -5 -40.5t19 -13.5q16 0 32.5 17.5t35.5 68.5l17 45h19l-25 -73q-22 -60 -58 -81.5t-73 -21.5q-44 0 -64 19.5t-20 54t16 79.5zM178 3q-27 -9 -52.5 -25.5t-41.5 -38t-16 -45.5q0 -33 32 -33q17 0 35 9t29 22l14 -12q-29 -35 -62.5 -51.5t-68.5 -16.5q-37 0 -58 16.5
t-21 43.5q0 32 27.5 57.5t69.5 44t83 29.5h30z" />
    <glyph glyph-name="Idotaccent" unicode="&#x130;" horiz-adv-x="373" 
d="M204 106q-14 -55 -3 -69.5t62 -16.5l-4 -20q-26 2 -67 2.5t-84 0.5q-45 0 -83.5 -0.5t-63.5 -2.5l5 20q33 2 51.5 8t29.5 24t20 54l132 496q14 55 2.5 69.5t-61.5 16.5l5 20q24 -1 63 -2t84 -1q43 0 83 1t69 2l-5 -20q-34 -1 -53 -7.5t-29.5 -24t-20.5 -54.5zM252 825
q0 38 27 63t67 25q31 0 48.5 -16t17.5 -43q0 -35 -27 -61t-67 -26q-31 0 -48.5 16t-17.5 42z" />
    <glyph glyph-name="dotlessi" unicode="&#x131;" horiz-adv-x="315" 
d="M145 431q18 54 -12 54q-20 0 -36 -20.5t-33 -65.5l-18 -47h-19l27 75q22 60 58.5 81.5t75.5 21.5q46 0 64 -22t16.5 -54.5t-12.5 -63.5l-105 -305q-10 -27 -5.5 -40.5t19.5 -13.5q16 0 32 17.5t36 68.5l17 45h19l-26 -73q-21 -60 -57.5 -81.5t-73.5 -21.5q-43 0 -63 19.5
t-20 54t15 79.5z" />
    <glyph glyph-name="Jcircumflex" unicode="&#x134;" horiz-adv-x="668" 
d="M615 366l-3 -20h-365l3 20h365zM439 579q-45 0 -81 13t-70 26t-75 13q-29 0 -45.5 -15.5t-15.5 -44.5q0 -31 24.5 -50.5t74.5 -25.5l-1 -9.5l-1 -9.5q-63 7 -107.5 38t-45.5 95q-1 57 33 93.5t100 36.5q46 0 80 -15.5t64.5 -36t65 -36t80.5 -15.5q44 0 85.5 10.5
t86.5 30.5q21 32 41 49t35 4q12 -10 -1 -27t-66 -37q-77 -57 -124 -150t-77 -209l-62 -242q-17 -68 -52 -125.5t-90 -92.5t-135 -35q-53 0 -89.5 16t-37.5 53q-1 28 19 49t56 21q27 0 46 -14t19 -39q1 -22 -13 -38.5t-37 -27.5q8 -1 15 -2.5t15 -1.5q34 0 57 21t39 57.5
t29.5 85t28.5 103.5l45 167q28 101 74.5 170t109.5 122.5t138 103.5q-34 -13 -63 -27t-56 -25.5t-55.5 -19t-60.5 -7.5zM520 834q-42 -16 -98.5 -33.5t-114.5 -29.5l-5 14q80 26 148.5 65t110.5 82h18q23 -49 53.5 -85.5t85.5 -61.5l-4 -14q-71 13 -113 29t-81 34z" />
    <glyph glyph-name="jcircumflex" unicode="&#x135;" horiz-adv-x="293" 
d="M-138 -188l5 17q53 2 93 43.5t60 122.5l122 436q8 30 5.5 42t-18.5 12q-17 0 -33.5 -19.5t-33.5 -66.5l-17 -47h-19l25 75q21 60 57.5 81.5t77.5 21.5q45 0 62 -21t16 -53t-11 -66l-80 -289q-21 -80 -51 -137t-79 -95q-32 -25 -76.5 -41t-104.5 -16zM225 696
q-35 -23 -82.5 -45.5t-96.5 -38.5l-5 14q72 31 132.5 82t98.5 106h18q13 -66 39.5 -110.5t79.5 -77.5l-4 -14q-64 15 -105 36t-75 48z" />
    <glyph glyph-name="uni0136" unicode="&#x136;" horiz-adv-x="718" 
d="M204 106q-14 -55 -3 -69.5t62 -16.5l-4 -20q-26 2 -66 2.5t-81 0.5q-46 0 -85.5 -0.5t-65.5 -2.5l5 20q33 2 51.5 8t29.5 24t20 54l132 496q14 55 2.5 69.5t-61.5 16.5l5 20q24 -1 64.5 -2t86.5 -1q41 0 80.5 1t67.5 2l-5 -20q-34 -1 -53 -7.5t-29.5 -24t-20.5 -54.5z
M558 53q21 0 35.5 16.5t25.5 49.5l17 51h20l-26 -77q-19 -55 -52.5 -81t-77.5 -26q-58 0 -84 33t-20 90l16 131q4 41 1 64.5t-12 37t-26 23.5l2 10q63 -5 100.5 -20t52.5 -50.5t10 -102.5l-9 -108q-1 -18 4.5 -29.5t22.5 -11.5zM389 360q-54 -15 -73.5 -11t-17.5 20
q1 15 20 19.5t71 -10.5v-18zM617 683q-22 -23 -36 -61.5t-27.5 -82.5t-34 -83.5t-54.5 -64t-89 -23.5l2 10q51 5 81.5 31t48.5 65t30.5 81.5t26.5 79.5t37 60q17 16 34.5 21.5t33.5 5.5q41 0 62.5 -22.5t20.5 -57.5q-1 -28 -20.5 -57.5t-59.5 -29.5q-26 0 -42 16.5t-16 42.5
q1 24 17.5 48.5t43.5 38.5q-3 0 -5.5 1t-7.5 1q-16 -1 -26 -6t-20 -14zM268 -58q27 0 45.5 -16t18.5 -45q0 -43 -29.5 -76t-94.5 -46l-5 19q33 4 60.5 20t31.5 40q-10 -8 -23.5 -12.5t-30.5 -4.5q-25 0 -40 11.5t-15 34.5q0 30 23 52.5t59 22.5z" />
    <glyph glyph-name="uni0137" unicode="&#x137;" horiz-adv-x="540" 
d="M108 0h-123l198 667q10 34 -2.5 50t-61.5 16l7 21q66 1 117.5 11.5t97.5 29.5zM374 72q-4 -23 0 -32t17 -9q16 0 32 17.5t34 68.5l15 45h19l-24 -73q-14 -41 -35.5 -63t-47.5 -31t-52 -9q-44 0 -65 27t-9 82l18 80q13 55 -8 80t-91 31v4q42 3 84 0t75 -17.5t49 -42.5
t6 -74zM435 510q-13 0 -22.5 -4t-18.5 -11q-18 -15 -30 -40.5t-23.5 -54.5t-29 -55t-46.5 -42.5t-76 -15.5l-10 -1l2 11q46 3 73.5 20t43.5 42.5t26.5 53.5t22.5 53t32 41q17 14 33 18.5t29 4.5q44 0 63 -24t18 -57q0 -30 -20 -54.5t-55 -24.5q-29 0 -42.5 16.5t-13.5 37.5
q1 24 17.5 45.5t37.5 35.5q-2 2 -5 3.5t-6 1.5zM173 -58q27 0 45.5 -16t18.5 -45q0 -43 -29.5 -76t-94.5 -46l-5 19q33 4 60.5 20t31.5 40q-10 -8 -23.5 -12.5t-30.5 -4.5q-25 0 -40 11.5t-15 34.5q0 30 23 52.5t59 22.5z" />
    <glyph glyph-name="kgreenlandic" unicode="&#x138;" horiz-adv-x="581" 
d="M404 72q-4 -24 -0.5 -32.5t17.5 -8.5q15 0 31 17.5t34 68.5l16 45h19l-25 -73q-13 -41 -35 -63t-48 -31t-52 -9q-44 0 -63.5 26t-9.5 83l8 51q10 56 -9 80.5t-90 30.5v4q42 3 83.5 0.5t73.5 -16.5t48.5 -42.5t9.5 -75.5zM464 510q-13 0 -22.5 -4t-17.5 -11
q-19 -16 -31.5 -44.5t-25 -62t-31 -63.5t-48.5 -49t-79 -18l-10 -1l2 11q48 3 76.5 22.5t45.5 48.5t28.5 61.5t24 60.5t33.5 46q16 14 32 18.5t29 4.5q44 0 63.5 -24t18.5 -57q-1 -30 -21 -54.5t-55 -24.5q-28 0 -42 16.5t-13 37.5q0 24 16.5 45.5t37.5 35.5q-2 2 -4.5 3.5
t-6.5 1.5zM145 0h-13h-30.5h-36h-31h-12.5l120 431q9 28 6.5 41t-18.5 13q-19 0 -35 -19t-33 -67l-17 -47h-19l26 75q21 59 54.5 81t72.5 22q42 0 59 -19.5t17 -51.5t-10 -69z" />
    <glyph glyph-name="Lacute" unicode="&#x139;" horiz-adv-x="598" 
d="M553 210q-6 -16 -12 -37t-13 -45q-5 -19 -13 -54.5t-13 -73.5q-51 2 -114.5 2.5t-113.5 0.5h-86.5t-115 -0.5t-112.5 -2.5l4 20q34 2 53 8t30 24t20 54l133 496q15 55 3.5 69.5t-61.5 16.5l5 20q24 -1 65 -2t87 -1q41 0 79.5 1t66.5 2l-5 -20q-34 -1 -53 -7.5t-29.5 -24
t-20.5 -54.5l-133 -496q-15 -55 -3.5 -69t61.5 -14h51q52 0 90.5 18t69.5 59t57 110h23zM287 783q51 39 83.5 68t58 51t50.5 36q19 11 45 11.5t38 -23.5q10 -21 -3.5 -39.5t-34.5 -30.5q-36 -20 -90 -34t-140 -50z" />
    <glyph glyph-name="lacute" unicode="&#x13a;" horiz-adv-x="293" 
d="M129 85q-8 -27 -3.5 -40.5t19.5 -13.5q14 0 30.5 17.5t35.5 68.5l16 45h19l-25 -73q-14 -40 -35 -62.5t-45 -31.5t-49 -9q-42 0 -62 20.5t-20.5 55.5t12.5 77l159 528q10 34 -2 50t-61 16l7 21q65 1 116 11.5t98 29.5zM251 847q51 39 83.5 68t58 51t50.5 36
q19 11 45 11.5t38 -23.5q10 -21 -3.5 -39.5t-34.5 -30.5q-36 -20 -90 -34t-140 -50z" />
    <glyph glyph-name="uni013B" unicode="&#x13b;" horiz-adv-x="598" 
d="M553 210q-6 -16 -12 -37t-13 -45q-5 -19 -13 -54.5t-13 -73.5q-51 2 -114.5 2.5t-113.5 0.5h-86.5t-115 -0.5t-112.5 -2.5l4 20q34 2 53 8t30 24t20 54l133 496q15 55 3.5 69.5t-61.5 16.5l5 20q24 -1 65 -2t87 -1q41 0 79.5 1t66.5 2l-5 -20q-34 -1 -53 -7.5t-29.5 -24
t-20.5 -54.5l-133 -496q-15 -55 -3.5 -69t61.5 -14h51q52 0 90.5 18t69.5 59t57 110h23zM260 -58q27 0 45.5 -16t18.5 -45q0 -43 -29.5 -76t-94.5 -46l-5 19q33 4 60.5 20t31.5 40q-10 -8 -23.5 -12.5t-30.5 -4.5q-25 0 -40 11.5t-15 34.5q0 30 23 52.5t59 22.5z" />
    <glyph glyph-name="uni013C" unicode="&#x13c;" horiz-adv-x="293" 
d="M129 85q-8 -27 -3.5 -40.5t19.5 -13.5q14 0 30.5 17.5t35.5 68.5l16 45h19l-25 -73q-14 -40 -35 -62.5t-45 -31.5t-49 -9q-42 0 -62 20.5t-20.5 55.5t12.5 77l159 528q10 34 -2 50t-61 16l7 21q65 1 116 11.5t98 29.5zM80 -58q27 0 45.5 -16t18.5 -45q0 -43 -29.5 -76
t-94.5 -46l-5 19q33 4 60.5 20t31.5 40q-10 -8 -23.5 -12.5t-30.5 -4.5q-25 0 -40 11.5t-15 34.5q0 30 23 52.5t59 22.5z" />
    <glyph glyph-name="Lcaron" unicode="&#x13d;" horiz-adv-x="598" 
d="M553 210q-6 -16 -12 -37t-13 -45q-5 -19 -13 -54.5t-13 -73.5q-51 2 -114.5 2.5t-113.5 0.5h-86.5t-115 -0.5t-112.5 -2.5l4 20q34 2 53 8t30 24t20 54l133 496q15 55 3.5 69.5t-61.5 16.5l5 20q24 -1 65 -2t87 -1q41 0 79.5 1t66.5 2l-5 -20q-34 -1 -53 -7.5t-29.5 -24
t-20.5 -54.5l-133 -496q-15 -55 -3.5 -69t61.5 -14h51q52 0 90.5 18t69.5 59t57 110h23zM446 485q35 70 49 117.5t14 65.5q0 9 -5.5 14t-23.5 5l3 21q12 0 21.5 -0.5t19.5 -0.5q31 0 51.5 4t37.5 8q1 -2 1 -10q0 -36 -41 -96.5t-113 -131.5z" />
    <glyph glyph-name="lcaron" unicode="&#x13e;" horiz-adv-x="293" 
d="M129 85q-8 -27 -3.5 -40.5t19.5 -13.5q14 0 30.5 17.5t35.5 68.5l16 45h19l-25 -73q-14 -40 -35 -62.5t-45 -31.5t-49 -9q-42 0 -62 20.5t-20.5 55.5t12.5 77l159 528q10 34 -2 50t-61 16l7 21q65 1 116 11.5t98 29.5zM345 540q34 74 47.5 124t13.5 69t-13 19l3 21
q7 0 13 -0.5t12 -0.5q30 0 51 4t37 8q2 -2 2 -10q0 -38 -41 -101t-111 -137z" />
    <glyph glyph-name="Ldot" unicode="&#x13f;" horiz-adv-x="613" 
d="M553 210q-6 -16 -12 -37t-13 -45q-5 -19 -13 -54.5t-13 -73.5q-51 2 -114.5 2.5t-113.5 0.5h-86.5t-115 -0.5t-112.5 -2.5l4 20q34 2 53 8t30 24t20 54l133 496q15 55 3.5 69.5t-61.5 16.5l5 20q24 -1 65 -2t87 -1q41 0 79.5 1t66.5 2l-5 -20q-34 -1 -53 -7.5t-29.5 -24
t-20.5 -54.5l-133 -496q-15 -55 -3.5 -69t61.5 -14h51q52 0 90.5 18t69.5 59t57 110h23zM457 348q0 37 26.5 63t62.5 26q29 0 45.5 -16t16.5 -43q0 -34 -27 -60.5t-63 -26.5q-28 0 -44.5 15.5t-16.5 41.5z" />
    <glyph glyph-name="ldot" unicode="&#x140;" horiz-adv-x="445" 
d="M129 85q-8 -27 -3.5 -40.5t19.5 -13.5q14 0 30.5 17.5t35.5 68.5l16 45h19l-25 -73q-14 -40 -35 -62.5t-45 -31.5t-49 -9q-42 0 -62 20.5t-20.5 55.5t12.5 77l159 528q10 34 -2 50t-61 16l7 21q65 1 116 11.5t98 29.5zM278 278q0 37 26.5 63t62.5 26q29 0 45.5 -16
t16.5 -43q0 -34 -27 -60.5t-63 -26.5q-28 0 -44.5 15.5t-16.5 41.5z" />
    <glyph glyph-name="Lslash" unicode="&#x141;" horiz-adv-x="599" 
d="M189 308l328 165l-6 -23l-328 -165zM185 295l-169 -85l6 23l169 85zM555 210q-6 -16 -12 -37t-13 -45q-5 -19 -13 -54.5t-14 -73.5q-51 2 -114 2.5t-113 0.5h-87t-114.5 -0.5t-113.5 -2.5l5 20q34 2 53 8t29.5 24t20.5 54l133 496q14 55 2.5 69.5t-61.5 16.5l5 20
q24 -1 65 -2t88 -1q41 0 79.5 1t66.5 2l-5 -20q-34 -1 -53 -7.5t-30 -24t-21 -54.5l-132 -496q-15 -55 -3.5 -69t61.5 -14h51q51 0 90 18t70 59t57 110h23z" />
    <glyph glyph-name="lslash" unicode="&#x142;" horiz-adv-x="316" 
d="M190 384l173 115l-4 -30l-173 -115zM168 368l-174 -117l4 30l174 117zM140 85q-8 -27 -3.5 -40.5t19.5 -13.5q14 0 30.5 17.5t35.5 68.5l16 45h19l-25 -73q-14 -40 -35 -62.5t-45 -31.5t-49 -9q-42 0 -62 20.5t-20.5 55.5t12.5 77l159 528q10 34 -2 50t-61 16l7 21
q65 1 116 11.5t98 29.5z" />
    <glyph glyph-name="Nacute" unicode="&#x143;" horiz-adv-x="806" 
d="M517 -5l-247 590l-1.5 2.5t-3.5 6t-3 6l-1 2.5q8 37 5.5 54.5t-20 24t-56.5 7.5l5 20q16 -1 39.5 -2t49.5 -1q47 0 81 3l204 -512l-3 -20.5t-7.5 -50t-9 -59.5t-7.5 -50.5l-3 -20.5h-22zM823 735q-27 -1 -47.5 -15.5t-35.5 -37.5q-46 -68 -94 -239t-107 -448l-14 28
q18 84 40.5 182.5t47.5 193.5t52.5 172t56.5 119q19 27 45 45.5t63 18.5q42 0 62 -21.5t20 -51.5q0 -35 -22 -60.5t-58 -25.5q-29 0 -43.5 16t-14.5 37q0 29 17.5 51t43.5 32q-3 2 -5.5 3t-6.5 1zM12 -55q28 1 48.5 15.5t36.5 38.5q29 46 58.5 144t60 237t61.5 305l17 -21
q-20 -102 -42 -208t-45.5 -201t-47 -165.5t-46.5 -100.5q-18 -24 -42.5 -43.5t-64.5 -19.5q-43 0 -63 21.5t-20 52.5q0 34 22 59.5t58 25.5q30 0 44 -16t14 -37q0 -29 -17.5 -51t-42.5 -32q2 -2 5 -3t6 -1zM506 783q51 39 83.5 68t58 51t50.5 36q19 11 45 11.5t38 -23.5
q10 -21 -3.5 -39.5t-34.5 -30.5q-36 -20 -90 -34t-140 -50z" />
    <glyph glyph-name="nacute" unicode="&#x144;" horiz-adv-x="596" 
d="M145 0h-123l121 431q4 14 6 26t-1.5 20t-17.5 8q-19 0 -34.5 -18.5t-33.5 -67.5l-17 -47h-19l26 75q21 59 54 81t73 22q45 0 61 -22t15 -54t-10 -64zM182 182q37 103 71 170t66 106.5t66 55.5t71 16q49 0 68.5 -21.5t19 -56t-13.5 -73.5l-98 -294q-9 -27 -5 -40.5
t20 -13.5q15 0 31.5 17t35.5 69l16 45h19l-25 -73q-22 -63 -58.5 -83t-71.5 -20q-52 0 -73 32q-13 19 -11 49t16 72l91 275q5 16 8 32.5t-1 28t-21 11.5q-26 0 -58.5 -36t-66.5 -98.5t-66 -142t-56 -167.5zM310 608q38 51 61.5 88.5t41 65t38.5 48.5q18 20 41 24t41 -11
q15 -15 10.5 -35.5t-26.5 -42.5q-19 -20 -46.5 -38.5t-65 -43.5t-85.5 -64z" />
    <glyph glyph-name="uni0145" unicode="&#x145;" horiz-adv-x="806" 
d="M517 -5l-247 590l-1.5 2.5t-3.5 6t-3 6l-1 2.5q8 37 5.5 54.5t-20 24t-56.5 7.5l5 20q16 -1 39.5 -2t49.5 -1q47 0 81 3l204 -512l-3 -20.5t-7.5 -50t-9 -59.5t-7.5 -50.5l-3 -20.5h-22zM823 735q-27 -1 -47.5 -15.5t-35.5 -37.5q-46 -68 -94 -239t-107 -448l-14 28
q18 84 40.5 182.5t47.5 193.5t52.5 172t56.5 119q19 27 45 45.5t63 18.5q42 0 62 -21.5t20 -51.5q0 -35 -22 -60.5t-58 -25.5q-29 0 -43.5 16t-14.5 37q0 29 17.5 51t43.5 32q-3 2 -5.5 3t-6.5 1zM12 -55q28 1 48.5 15.5t36.5 38.5q29 46 58.5 144t60 237t61.5 305l17 -21
q-20 -102 -42 -208t-45.5 -201t-47 -165.5t-46.5 -100.5q-18 -24 -42.5 -43.5t-64.5 -19.5q-43 0 -63 21.5t-20 52.5q0 34 22 59.5t58 25.5q30 0 44 -16t14 -37q0 -29 -17.5 -51t-42.5 -32q2 -2 5 -3t6 -1zM296 -58q27 0 45.5 -16t18.5 -45q0 -43 -29.5 -76t-94.5 -46l-5 19
q33 4 60.5 20t31.5 40q-10 -8 -23.5 -12.5t-30.5 -4.5q-25 0 -40 11.5t-15 34.5q0 30 23 52.5t59 22.5z" />
    <glyph glyph-name="uni0146" unicode="&#x146;" horiz-adv-x="596" 
d="M145 0h-123l121 431q4 14 6 26t-1.5 20t-17.5 8q-19 0 -34.5 -18.5t-33.5 -67.5l-17 -47h-19l26 75q21 59 54 81t73 22q45 0 61 -22t15 -54t-10 -64zM182 182q37 103 71 170t66 106.5t66 55.5t71 16q49 0 68.5 -21.5t19 -56t-13.5 -73.5l-98 -294q-9 -27 -5 -40.5
t20 -13.5q15 0 31.5 17t35.5 69l16 45h19l-25 -73q-22 -63 -58.5 -83t-71.5 -20q-52 0 -73 32q-13 19 -11 49t16 72l91 275q5 16 8 32.5t-1 28t-21 11.5q-26 0 -58.5 -36t-66.5 -98.5t-66 -142t-56 -167.5zM203 -58q27 0 45.5 -16t18.5 -45q0 -43 -29.5 -76t-94.5 -46l-5 19
q33 4 60.5 20t31.5 40q-10 -8 -23.5 -12.5t-30.5 -4.5q-25 0 -40 11.5t-15 34.5q0 30 23 52.5t59 22.5z" />
    <glyph glyph-name="Ncaron" unicode="&#x147;" horiz-adv-x="806" 
d="M517 -5l-247 590l-1.5 2.5t-3.5 6t-3 6l-1 2.5q8 37 5.5 54.5t-20 24t-56.5 7.5l5 20q16 -1 39.5 -2t49.5 -1q47 0 81 3l204 -512l-3 -20.5t-7.5 -50t-9 -59.5t-7.5 -50.5l-3 -20.5h-22zM823 735q-27 -1 -47.5 -15.5t-35.5 -37.5q-46 -68 -94 -239t-107 -448l-14 28
q18 84 40.5 182.5t47.5 193.5t52.5 172t56.5 119q19 27 45 45.5t63 18.5q42 0 62 -21.5t20 -51.5q0 -35 -22 -60.5t-58 -25.5q-29 0 -43.5 16t-14.5 37q0 29 17.5 51t43.5 32q-3 2 -5.5 3t-6.5 1zM12 -55q28 1 48.5 15.5t36.5 38.5q29 46 58.5 144t60 237t61.5 305l17 -21
q-20 -102 -42 -208t-45.5 -201t-47 -165.5t-46.5 -100.5q-18 -24 -42.5 -43.5t-64.5 -19.5q-43 0 -63 21.5t-20 52.5q0 34 22 59.5t58 25.5q30 0 44 -16t14 -37q0 -29 -17.5 -51t-42.5 -32q2 -2 5 -3t6 -1zM573 870q43 17 99.5 34.5t114.5 28.5l5 -14q-80 -25 -148.5 -64.5
t-110.5 -82.5h-18q-23 50 -54 86t-85 61l4 14q71 -13 112.5 -28.5t80.5 -34.5z" />
    <glyph glyph-name="ncaron" unicode="&#x148;" horiz-adv-x="596" 
d="M145 0h-123l121 431q4 14 6 26t-1.5 20t-17.5 8q-19 0 -34.5 -18.5t-33.5 -67.5l-17 -47h-19l26 75q21 59 54 81t73 22q45 0 61 -22t15 -54t-10 -64zM182 182q37 103 71 170t66 106.5t66 55.5t71 16q49 0 68.5 -21.5t19 -56t-13.5 -73.5l-98 -294q-9 -27 -5 -40.5
t20 -13.5q15 0 31.5 17t35.5 69l16 45h19l-25 -73q-22 -63 -58.5 -83t-71.5 -20q-52 0 -73 32q-13 19 -11 49t16 72l91 275q5 16 8 32.5t-1 28t-21 11.5q-26 0 -58.5 -36t-66.5 -98.5t-66 -142t-56 -167.5zM418 730q36 23 82.5 46t96.5 38l5 -14q-72 -30 -133 -81.5
t-98 -106.5h-18q-13 67 -39.5 111t-79.5 77l4 14q64 -15 104.5 -36t75.5 -48z" />
    <glyph glyph-name="napostrophe" unicode="&#x149;" horiz-adv-x="596" 
d="M145 0h-123l121 431q4 14 6 26t-1.5 20t-17.5 8q-19 0 -34.5 -18.5t-33.5 -67.5l-17 -47h-19l26 75q21 59 54 81t73 22q45 0 61 -22t15 -54t-10 -64zM182 182q37 103 71 170t66 106.5t66 55.5t71 16q49 0 68.5 -21.5t19 -56t-13.5 -73.5l-98 -294q-9 -27 -5 -40.5
t20 -13.5q15 0 31.5 17t35.5 69l16 45h19l-25 -73q-22 -63 -58.5 -83t-71.5 -20q-52 0 -73 32q-13 19 -11 49t16 72l91 275q5 16 8 32.5t-1 28t-21 11.5q-26 0 -58.5 -36t-66.5 -98.5t-66 -142t-56 -167.5zM149 710q0 -59 -39.5 -112.5t-108.5 -86.5l-5 16q45 24 75 59
t33 74q-13 -12 -28 -19.5t-32 -7.5q-54 0 -54 47q0 26 14 48t37 36.5t49 14.5q29 0 44 -18.5t15 -50.5z" />
    <glyph glyph-name="Eng" unicode="&#x14a;" horiz-adv-x="715" 
d="M662 596q14 55 2.5 72.5t-66.5 19.5l5 20q17 -1 44.5 -2t53.5 -1t51 1t42 2l-5 -20q-34 -1 -53.5 -9t-30.5 -27t-21 -56l-147 -558l-32 -46l-287 589l-124 -469q-15 -55 -3 -72.5t66 -19.5l-4 -20q-18 2 -44 2.5t-52 0.5t-52 -0.5t-43 -2.5l5 20q35 2 53.5 9.5t30 27
t20.5 55.5l130 490q14 55 2 69.5t-66 16.5l5 20q16 -1 39.5 -2t49.5 -1q47 0 81 3l245 -510zM537 41q-15 -73 -39 -124.5t-59 -78t-85 -26.5q-26 0 -51 7t-41.5 22t-17.5 40q-1 29 19.5 49.5t55.5 20.5q27 0 46 -14t19 -39q1 -22 -13.5 -38.5t-37.5 -27.5q13 -4 27 -4
q35 0 61 19.5t44.5 51.5t31 70.5t20.5 77.5z" />
    <glyph glyph-name="eng" unicode="&#x14b;" horiz-adv-x="570" 
d="M145 0h-13h-30.5h-36h-31h-12.5l120 431q8 28 6.5 41t-18.5 13q-19 0 -35 -19t-33 -67l-17 -47h-19l26 75q21 59 54.5 81t72.5 22q42 0 59 -19t17 -50.5t-10 -70.5zM454 115q-31 -107 -71.5 -176.5t-98.5 -97.5q-26 -17 -57 -23t-53 -6q-43 0 -62.5 16.5t-15.5 44.5
q3 24 22.5 42t47.5 18q26 0 39 -16t10 -36q-2 -14 -10 -28t-24 -26q38 5 60.5 28.5t38.5 79.5l136 479q10 35 9 53.5t-23 18.5q-26 0 -58 -36t-66.5 -98.5t-66 -142t-56.5 -167.5l29 140q37 103 70 170t65 106.5t65.5 55.5t71.5 16q46 0 66 -19.5t20.5 -53.5t-13.5 -78z" />
    <glyph glyph-name="Omacron" unicode="&#x14c;" horiz-adv-x="761" 
d="M478 704q-54 0 -104.5 -42t-90.5 -113t-63.5 -158.5t-23.5 -177.5q0 -98 33 -153.5t85 -55.5q54 0 104.5 42t90.5 113t63.5 158.5t23.5 177.5q0 98 -33 153.5t-85 55.5zM46 226q0 66 20 136t58 134t92.5 115t122.5 81t148 30q122 0 191 -62.5t69 -178.5
q0 -66 -20.5 -135.5t-58.5 -133.5t-92.5 -115t-123 -81t-147.5 -30q-122 0 -190.5 62.5t-68.5 177.5zM680 844l-6 -25h-384l6 25h384z" />
    <glyph glyph-name="omacron" unicode="&#x14d;" horiz-adv-x="516" 
d="M322 510q-26 0 -53 -26.5t-51 -72t-43.5 -101.5t-30.5 -115.5t-11 -113.5q0 -40 10.5 -57.5t31.5 -17.5q25 0 52 26t51.5 70.5t43.5 100t30 115.5t11 117q0 42 -10.5 58.5t-30.5 16.5zM15 148q0 57 19.5 123t58.5 125t98 96.5t137 37.5q72 0 112.5 -40.5t40.5 -121.5
q0 -57 -19.5 -123t-58.5 -125t-98 -96.5t-137 -37.5q-72 0 -112.5 41t-40.5 121zM544 712l-6 -25h-328l6 25h328z" />
    <glyph glyph-name="Obreve" unicode="&#x14e;" horiz-adv-x="761" 
d="M478 704q-54 0 -104.5 -42t-90.5 -113t-63.5 -158.5t-23.5 -177.5q0 -98 33 -153.5t85 -55.5q54 0 104.5 42t90.5 113t63.5 158.5t23.5 177.5q0 98 -33 153.5t-85 55.5zM46 226q0 66 20 136t58 134t92.5 115t122.5 81t148 30q122 0 191 -62.5t69 -178.5
q0 -66 -20.5 -135.5t-58.5 -133.5t-92.5 -115t-123 -81t-147.5 -30q-122 0 -190.5 62.5t-68.5 177.5zM504 862q61 0 119.5 14.5t106.5 42.5l11 -10q-26 -33 -68 -64t-91 -51t-96 -20q-68 0 -106.5 40t-50.5 95l16 6q28 -29 65 -41t94 -12z" />
    <glyph glyph-name="obreve" unicode="&#x14f;" horiz-adv-x="516" 
d="M322 510q-26 0 -53 -26.5t-51 -72t-43.5 -101.5t-30.5 -115.5t-11 -113.5q0 -40 10.5 -57.5t31.5 -17.5q25 0 52 26t51.5 70.5t43.5 100t30 115.5t11 117q0 42 -10.5 58.5t-30.5 16.5zM15 148q0 57 19.5 123t58.5 125t98 96.5t137 37.5q72 0 112.5 -40.5t40.5 -121.5
q0 -57 -19.5 -123t-58.5 -125t-98 -96.5t-137 -37.5q-72 0 -112.5 41t-40.5 121zM375 713q51 0 106 19.5t98 55.5l11 -10q-24 -37 -62.5 -72.5t-84 -58t-88.5 -22.5q-55 0 -85 45t-39 108l15 6q23 -39 51.5 -55t77.5 -16z" />
    <glyph glyph-name="Ohungarumlaut" unicode="&#x150;" horiz-adv-x="761" 
d="M478 704q-54 0 -104.5 -42t-90.5 -113t-63.5 -158.5t-23.5 -177.5q0 -98 33 -153.5t85 -55.5q54 0 104.5 42t90.5 113t63.5 158.5t23.5 177.5q0 98 -33 153.5t-85 55.5zM46 226q0 66 20 136t58 134t92.5 115t122.5 81t148 30q122 0 191 -62.5t69 -178.5
q0 -66 -20.5 -135.5t-58.5 -133.5t-92.5 -115t-123 -81t-147.5 -30q-122 0 -190.5 62.5t-68.5 177.5zM535 783q31 31 54.5 59t43.5 51t41 37q15 12 38 13t37 -19q13 -19 3 -39t-29 -33q-31 -22 -77 -37t-104 -43zM332 783q31 31 54.5 59t43.5 51t41 37q16 12 39.5 13
t35.5 -21q11 -18 2.5 -37.5t-28.5 -32.5q-31 -22 -77 -37t-104 -43z" />
    <glyph glyph-name="ohungarumlaut" unicode="&#x151;" horiz-adv-x="516" 
d="M322 510q-26 0 -53 -26.5t-51 -72t-43.5 -101.5t-30.5 -115.5t-11 -113.5q0 -40 10.5 -57.5t31.5 -17.5q25 0 52 26t51.5 70.5t43.5 100t30 115.5t11 117q0 42 -10.5 58.5t-30.5 16.5zM15 148q0 57 19.5 123t58.5 125t98 96.5t137 37.5q72 0 112.5 -40.5t40.5 -121.5
q0 -57 -19.5 -123t-58.5 -125t-98 -96.5t-137 -37.5q-72 0 -112.5 41t-40.5 121zM229 607q27 49 41.5 84.5t25 61t24.5 43.5q16 21 37.5 23.5t37.5 -10.5t17.5 -33t-15.5 -41q-21 -27 -59 -53.5t-97 -82.5zM408 607q26 49 41 84.5t25.5 61t24.5 43.5q15 21 36.5 23.5
t38.5 -10.5q15 -13 16.5 -33t-14.5 -41q-22 -27 -60 -53.5t-97 -82.5z" />
    <glyph glyph-name="OE" unicode="&#x152;" horiz-adv-x="982" 
d="M582 346l4 20h208l-4 -20h-208zM723 366q45 0 66 34.5t37 77.5h22q-13 -39 -19.5 -64.5t-14.5 -57.5q-6 -22 -11.5 -47t-14.5 -75h-22q0 23 4 48t-4.5 43.5t-46.5 20.5zM310 4q48 0 77.5 16.5t42.5 65.5l137 516q12 43 3.5 65t-32 29.5t-58.5 7.5q-57 0 -108 -42
t-90.5 -113t-62 -158.5t-22.5 -177.5q0 -98 30.5 -153.5t82.5 -55.5zM952 528q16 89 -2.5 123t-78.5 34h-67q-33 0 -51.5 -5.5t-28.5 -23t-20 -54.5l-132 -496q-14 -55 -3 -69t60 -14h77q48 0 79.5 17t54.5 55.5t45 104.5h22q-5 -13 -10 -32t-11 -40q-5 -19 -13 -54.5
t-13 -73.5q-49 2 -110 2.5t-110 0.5h-64t-87.5 -0.5t-90.5 -1.5q-24 -7 -50.5 -11t-53.5 -4q-116 0 -181.5 62.5t-65.5 177.5q0 66 19.5 136t57 134t90 115t119 81t143.5 30q27 0 51 -4t45 -12q46 0 95.5 -0.5t93.5 -0.5h69q43 0 97 0.5t98 2.5q-13 -35 -22 -64.5t-16 -53.5
q-5 -18 -8.5 -34.5t-4.5 -27.5h-22z" />
    <glyph glyph-name="oe" unicode="&#x153;" horiz-adv-x="757" 
d="M416 220q47 17 88.5 36.5t68.5 43.5q36 32 57.5 77t21.5 97q0 37 -28 37q-27 0 -59 -33.5t-61 -89t-47.5 -121.5t-18.5 -131q0 -53 20.5 -74.5t54.5 -21.5q29 0 68 19t78 69l18 -8q-20 -33 -53 -64t-75.5 -50.5t-93.5 -19.5q-64 0 -106 35.5t-42 105.5q0 49 16.5 104.5
t47 108.5t72 96t93.5 68.5t110 25.5q45 0 75.5 -20t30.5 -61q0 -38 -22 -71.5t-59.5 -60.5t-82 -49t-89.5 -37t-84 -25zM425 409q4 22 0.5 40.5t-16.5 30t-37 11.5q-46 0 -88.5 -33.5t-76 -89t-53 -122t-19.5 -131.5q0 -46 14 -66t40 -20q37 0 74 35.5t60 94.5l14 -8
q-18 -45 -44.5 -82.5t-61 -60t-80.5 -22.5q-65 0 -103.5 41t-38.5 121q0 56 25 121t71 123t109.5 95t141.5 37q55 0 77.5 -31t9.5 -82z" />
    <glyph glyph-name="Racute" unicode="&#x154;" horiz-adv-x="695" 
d="M258 354q38 -1 61.5 -3t39 -3.5t30.5 -4.5q52 -5 90 -18t57.5 -40t12.5 -77l-11 -103q-4 -31 2.5 -53t28.5 -21q19 1 33 20.5t27 55.5l5 14h23l-4 -13q-18 -62 -51 -92t-90 -30q-63 0 -90 31.5t-21 78.5l12 112q5 46 -4.5 74.5t-44 42t-108.5 13.5zM244 339l5 18h37
q76 0 128.5 27t79.5 77t27 118q0 56 -25 82.5t-79 26.5q-35 0 -50.5 -14.5t-26.5 -57.5l-136 -510q-8 -31 -9 -49t14.5 -27t53.5 -10l-4 -20q-27 2 -65 2.5t-81 0.5q-44 0 -85.5 -0.5t-66.5 -2.5l4 20q34 2 53 8t30 24t20 54l132 496q8 31 8 49.5t-15 27t-52 9.5l5 20
q16 -1 40 -1.5t51.5 -1t50.5 -0.5q43 0 78.5 1t70.5 1q115 0 170 -35.5t55 -104.5q0 -68 -47.5 -119t-132.5 -79.5t-198 -28.5zM402 783q51 39 83.5 68t58 51t50.5 36q19 11 45 11.5t38 -23.5q10 -21 -3.5 -39.5t-34.5 -30.5q-36 -20 -90 -34t-140 -50z" />
    <glyph glyph-name="racute" unicode="&#x155;" horiz-adv-x="455" 
d="M145 0h-123l120 431q9 30 6 42t-18 12q-19 0 -35 -19t-33 -67l-17 -47h-19l26 75q21 60 57 81.5t75 21.5q42 0 57 -22t13.5 -54.5t-9.5 -63.5zM401 507q-22 0 -45 -15.5t-48 -49.5t-50.5 -89.5t-52.5 -135t-54 -187.5l24 133q31 105 58.5 175.5t54 113t56.5 60.5t65 18
q36 0 55.5 -21t19.5 -52q0 -38 -25.5 -65.5t-62.5 -27.5q-25 0 -39.5 13t-14.5 38q0 32 21 56t50 32q-2 2 -5 3t-7 1zM258 608q38 51 61.5 88.5t41 65t38.5 48.5q18 20 41 24t41 -11q15 -15 10.5 -35.5t-26.5 -42.5q-19 -20 -46.5 -38.5t-65 -43.5t-85.5 -64z" />
    <glyph glyph-name="uni0156" unicode="&#x156;" horiz-adv-x="695" 
d="M258 354q38 -1 61.5 -3t39 -3.5t30.5 -4.5q52 -5 90 -18t57.5 -40t12.5 -77l-11 -103q-4 -31 2.5 -53t28.5 -21q19 1 33 20.5t27 55.5l5 14h23l-4 -13q-18 -62 -51 -92t-90 -30q-63 0 -90 31.5t-21 78.5l12 112q5 46 -4.5 74.5t-44 42t-108.5 13.5zM244 339l5 18h37
q76 0 128.5 27t79.5 77t27 118q0 56 -25 82.5t-79 26.5q-35 0 -50.5 -14.5t-26.5 -57.5l-136 -510q-8 -31 -9 -49t14.5 -27t53.5 -10l-4 -20q-27 2 -65 2.5t-81 0.5q-44 0 -85.5 -0.5t-66.5 -2.5l4 20q34 2 53 8t30 24t20 54l132 496q8 31 8 49.5t-15 27t-52 9.5l5 20
q16 -1 40 -1.5t51.5 -1t50.5 -0.5q43 0 78.5 1t70.5 1q115 0 170 -35.5t55 -104.5q0 -68 -47.5 -119t-132.5 -79.5t-198 -28.5zM295 -58q27 0 45.5 -16t18.5 -45q0 -43 -29.5 -76t-94.5 -46l-5 19q33 4 60.5 20t31.5 40q-10 -8 -23.5 -12.5t-30.5 -4.5q-25 0 -40 11.5
t-15 34.5q0 30 23 52.5t59 22.5z" />
    <glyph glyph-name="uni0157" unicode="&#x157;" horiz-adv-x="455" 
d="M145 0h-123l120 431q9 30 6 42t-18 12q-19 0 -35 -19t-33 -67l-17 -47h-19l26 75q21 60 57 81.5t75 21.5q42 0 57 -22t13.5 -54.5t-9.5 -63.5zM401 507q-22 0 -45 -15.5t-48 -49.5t-50.5 -89.5t-52.5 -135t-54 -187.5l24 133q31 105 58.5 175.5t54 113t56.5 60.5t65 18
q36 0 55.5 -21t19.5 -52q0 -38 -25.5 -65.5t-62.5 -27.5q-25 0 -39.5 13t-14.5 38q0 32 21 56t50 32q-2 2 -5 3t-7 1zM65 -58q27 0 45.5 -16t18.5 -45q0 -43 -29.5 -76t-94.5 -46l-5 19q33 4 60.5 20t31.5 40q-10 -8 -23.5 -12.5t-30.5 -4.5q-25 0 -40 11.5t-15 34.5
q0 30 23 52.5t59 22.5z" />
    <glyph glyph-name="Rcaron" unicode="&#x158;" horiz-adv-x="695" 
d="M258 354q38 -1 61.5 -3t39 -3.5t30.5 -4.5q52 -5 90 -18t57.5 -40t12.5 -77l-11 -103q-4 -31 2.5 -53t28.5 -21q19 1 33 20.5t27 55.5l5 14h23l-4 -13q-18 -62 -51 -92t-90 -30q-63 0 -90 31.5t-21 78.5l12 112q5 46 -4.5 74.5t-44 42t-108.5 13.5zM244 339l5 18h37
q76 0 128.5 27t79.5 77t27 118q0 56 -25 82.5t-79 26.5q-35 0 -50.5 -14.5t-26.5 -57.5l-136 -510q-8 -31 -9 -49t14.5 -27t53.5 -10l-4 -20q-27 2 -65 2.5t-81 0.5q-44 0 -85.5 -0.5t-66.5 -2.5l4 20q34 2 53 8t30 24t20 54l132 496q8 31 8 49.5t-15 27t-52 9.5l5 20
q16 -1 40 -1.5t51.5 -1t50.5 -0.5q43 0 78.5 1t70.5 1q115 0 170 -35.5t55 -104.5q0 -68 -47.5 -119t-132.5 -79.5t-198 -28.5zM469 870q43 17 99.5 34.5t114.5 28.5l5 -14q-80 -25 -148.5 -64.5t-110.5 -82.5h-18q-23 50 -54 86t-85 61l4 14q71 -13 112.5 -28.5t80.5 -34.5
z" />
    <glyph glyph-name="rcaron" unicode="&#x159;" horiz-adv-x="455" 
d="M145 0h-123l120 431q9 30 6 42t-18 12q-19 0 -35 -19t-33 -67l-17 -47h-19l26 75q21 60 57 81.5t75 21.5q42 0 57 -22t13.5 -54.5t-9.5 -63.5zM401 507q-22 0 -45 -15.5t-48 -49.5t-50.5 -89.5t-52.5 -135t-54 -187.5l24 133q31 105 58.5 175.5t54 113t56.5 60.5t65 18
q36 0 55.5 -21t19.5 -52q0 -38 -25.5 -65.5t-62.5 -27.5q-25 0 -39.5 13t-14.5 38q0 32 21 56t50 32q-2 2 -5 3t-7 1zM367 730q36 23 82.5 46t96.5 38l5 -14q-72 -30 -133 -81.5t-98 -106.5h-18q-13 67 -39.5 111t-79.5 77l4 14q64 -15 104.5 -36t75.5 -48z" />
    <glyph glyph-name="Sacute" unicode="&#x15a;" horiz-adv-x="576" 
d="M605 715q-10 -26 -26.5 -75.5t-32.5 -128.5h-20q6 29 6 56q0 58 -35 95.5t-108 37.5q-53 0 -90 -27.5t-37 -87.5q0 -44 24.5 -82t60.5 -74.5t72 -74t60 -79t24 -91.5q0 -53 -25.5 -90.5t-65.5 -61t-86.5 -35t-90.5 -11.5q-45 0 -74.5 6.5t-49.5 17.5t-39 22
q-10 8 -19.5 11.5t-15.5 3.5q-13 0 -21.5 -12.5t-20.5 -41.5h-20q14 32 30 84t38 156h20q-4 -19 -7 -39.5t-2 -40.5q3 -70 43.5 -108t119.5 -38q67 0 101 28.5t34 83.5q0 50 -22 90t-54.5 74.5t-65 70t-55 76.5t-22.5 94q0 50 21.5 87t56 61.5t76.5 37t83 12.5q54 0 89 -13
t60 -31q11 -7 19.5 -11.5t13.5 -4.5q14 0 33 53h20zM381 783q51 39 83.5 68t58 51t50.5 36q19 11 45 11.5t38 -23.5q10 -21 -3.5 -39.5t-34.5 -30.5q-36 -20 -90 -34t-140 -50z" />
    <glyph glyph-name="sacute" unicode="&#x15b;" horiz-adv-x="407" 
d="M69 15q8 -4 17 -6.5t25 -2.5q38 0 63.5 24.5t25.5 68.5q0 32 -13.5 65t-40.5 73q-24 35 -43.5 69t-19.5 78q0 64 47 105t125 41q34 0 67 -8t54 -29t21 -61q0 -21 -13 -44t-43 -23q-21 0 -35 16.5t-14 42.5q0 23 8.5 43t20.5 35q-14 8 -40 8q-36 0 -58 -23t-22 -65
q-1 -34 16 -61t43 -68q28 -45 44 -80.5t16 -72.5q0 -44 -23.5 -79t-64.5 -55t-96 -20q-39 0 -74.5 10.5t-58 34.5t-22.5 66q0 23 12.5 42.5t38.5 19.5t39 -21t13 -52q0 -22 -5.5 -40.5t-9.5 -30.5zM236 608q38 51 61.5 88.5t41 65t38.5 48.5q18 20 41 24t41 -11
q15 -15 10.5 -35.5t-26.5 -42.5q-19 -20 -46.5 -38.5t-65 -43.5t-85.5 -64z" />
    <glyph glyph-name="Scircumflex" unicode="&#x15c;" horiz-adv-x="576" 
d="M605 715q-10 -26 -26.5 -75.5t-32.5 -128.5h-20q6 29 6 56q0 58 -35 95.5t-108 37.5q-53 0 -90 -27.5t-37 -87.5q0 -44 24.5 -82t60.5 -74.5t72 -74t60 -79t24 -91.5q0 -53 -25.5 -90.5t-65.5 -61t-86.5 -35t-90.5 -11.5q-45 0 -74.5 6.5t-49.5 17.5t-39 22
q-10 8 -19.5 11.5t-15.5 3.5q-13 0 -21.5 -12.5t-20.5 -41.5h-20q14 32 30 84t38 156h20q-4 -19 -7 -39.5t-2 -40.5q3 -70 43.5 -108t119.5 -38q67 0 101 28.5t34 83.5q0 50 -22 90t-54.5 74.5t-65 70t-55 76.5t-22.5 94q0 50 21.5 87t56 61.5t76.5 37t83 12.5q54 0 89 -13
t60 -31q11 -7 19.5 -11.5t13.5 -4.5q14 0 33 53h20zM403 834q-42 -16 -98.5 -33.5t-114.5 -29.5l-5 14q80 26 148.5 65t110.5 82h18q23 -49 53.5 -85.5t85.5 -61.5l-4 -14q-71 13 -113 29t-81 34z" />
    <glyph glyph-name="scircumflex" unicode="&#x15d;" horiz-adv-x="407" 
d="M69 15q8 -4 17 -6.5t25 -2.5q38 0 63.5 24.5t25.5 68.5q0 32 -13.5 65t-40.5 73q-24 35 -43.5 69t-19.5 78q0 64 47 105t125 41q34 0 67 -8t54 -29t21 -61q0 -21 -13 -44t-43 -23q-21 0 -35 16.5t-14 42.5q0 23 8.5 43t20.5 35q-14 8 -40 8q-36 0 -58 -23t-22 -65
q-1 -34 16 -61t43 -68q28 -45 44 -80.5t16 -72.5q0 -44 -23.5 -79t-64.5 -55t-96 -20q-39 0 -74.5 10.5t-58 34.5t-22.5 66q0 23 12.5 42.5t38.5 19.5t39 -21t13 -52q0 -22 -5.5 -40.5t-9.5 -30.5zM284 696q-35 -23 -82.5 -45.5t-96.5 -38.5l-5 14q72 31 132.5 82t98.5 106
h18q13 -66 39.5 -110.5t79.5 -77.5l-4 -14q-64 15 -105 36t-75 48z" />
    <glyph glyph-name="Scedilla" unicode="&#x15e;" horiz-adv-x="576" 
d="M605 715q-10 -26 -26.5 -75.5t-32.5 -128.5h-20q6 29 6 56q0 58 -35 95.5t-108 37.5q-53 0 -90 -27.5t-37 -87.5q0 -44 24.5 -82t60.5 -74.5t72 -74t60 -79t24 -91.5q0 -53 -25.5 -90.5t-65.5 -61t-86.5 -35t-90.5 -11.5q-45 0 -74.5 6.5t-49.5 17.5t-39 22
q-10 8 -19.5 11.5t-15.5 3.5q-13 0 -21.5 -12.5t-20.5 -41.5h-20q14 32 30 84t38 156h20q-4 -19 -7 -39.5t-2 -40.5q3 -70 43.5 -108t119.5 -38q67 0 101 28.5t34 83.5q0 50 -22 90t-54.5 74.5t-65 70t-55 76.5t-22.5 94q0 50 21.5 87t56 61.5t76.5 37t83 12.5q54 0 89 -13
t60 -31q11 -7 19.5 -11.5t13.5 -4.5q14 0 33 53h20zM239 5l-33 -71q27 9 55 9q29 0 46 -11.5t17 -33.5q0 -31 -26 -50t-64 -27.5t-74 -8.5q-37 0 -65 7t-42 13l7 16q8 -3 29.5 -7.5t50.5 -4.5q16 0 38 4t39 14t17 29q0 24 -34 24q-6 0 -16.5 -1.5t-20.5 -5.5l49 105h27z" />
    <glyph glyph-name="scedilla" unicode="&#x15f;" horiz-adv-x="407" 
d="M69 15q8 -4 17 -6.5t25 -2.5q38 0 63.5 24.5t25.5 68.5q0 32 -13.5 65t-40.5 73q-24 35 -43.5 69t-19.5 78q0 64 47 105t125 41q34 0 67 -8t54 -29t21 -61q0 -21 -13 -44t-43 -23q-21 0 -35 16.5t-14 42.5q0 23 8.5 43t20.5 35q-14 8 -40 8q-36 0 -58 -23t-22 -65
q-1 -34 16 -61t43 -68q28 -45 44 -80.5t16 -72.5q0 -44 -23.5 -79t-64.5 -55t-96 -20q-39 0 -74.5 10.5t-58 34.5t-22.5 66q0 23 12.5 42.5t38.5 19.5t39 -21t13 -52q0 -22 -5.5 -40.5t-9.5 -30.5zM140 0l-40 -70q10 4 23.5 6.5t25.5 2.5q24 0 39.5 -10.5t15.5 -30.5
q0 -31 -23.5 -50t-58 -27.5t-68.5 -8.5q-30 0 -53 7t-34 13l7 16q7 -3 22 -7.5t38 -4.5q12 0 30 4t32 14t14 29q0 24 -28 24q-5 0 -14 -1.5t-17 -5.5l61 100h28z" />
    <glyph glyph-name="Scaron" unicode="&#x160;" horiz-adv-x="576" 
d="M605 715q-10 -26 -26.5 -75.5t-32.5 -128.5h-20q6 29 6 56q0 58 -35 95.5t-108 37.5q-53 0 -90 -27.5t-37 -87.5q0 -44 24.5 -82t60.5 -74.5t72 -74t60 -79t24 -91.5q0 -53 -25.5 -90.5t-65.5 -61t-86.5 -35t-90.5 -11.5q-45 0 -74.5 6.5t-49.5 17.5t-39 22
q-10 8 -19.5 11.5t-15.5 3.5q-13 0 -21.5 -12.5t-20.5 -41.5h-20q14 32 30 84t38 156h20q-4 -19 -7 -39.5t-2 -40.5q3 -70 43.5 -108t119.5 -38q67 0 101 28.5t34 83.5q0 50 -22 90t-54.5 74.5t-65 70t-55 76.5t-22.5 94q0 50 21.5 87t56 61.5t76.5 37t83 12.5q54 0 89 -13
t60 -31q11 -7 19.5 -11.5t13.5 -4.5q14 0 33 53h20zM449 870q43 17 99.5 34.5t114.5 28.5l5 -14q-80 -25 -148.5 -64.5t-110.5 -82.5h-18q-23 50 -54 86t-85 61l4 14q71 -13 112.5 -28.5t80.5 -34.5z" />
    <glyph glyph-name="scaron" unicode="&#x161;" horiz-adv-x="407" 
d="M69 15q8 -4 17 -6.5t25 -2.5q38 0 63.5 24.5t25.5 68.5q0 32 -13.5 65t-40.5 73q-24 35 -43.5 69t-19.5 78q0 64 47 105t125 41q34 0 67 -8t54 -29t21 -61q0 -21 -13 -44t-43 -23q-21 0 -35 16.5t-14 42.5q0 23 8.5 43t20.5 35q-14 8 -40 8q-36 0 -58 -23t-22 -65
q-1 -34 16 -61t43 -68q28 -45 44 -80.5t16 -72.5q0 -44 -23.5 -79t-64.5 -55t-96 -20q-39 0 -74.5 10.5t-58 34.5t-22.5 66q0 23 12.5 42.5t38.5 19.5t39 -21t13 -52q0 -22 -5.5 -40.5t-9.5 -30.5zM345 730q36 23 82.5 46t96.5 38l5 -14q-72 -30 -133 -81.5t-98 -106.5h-18
q-13 67 -39.5 111t-79.5 77l4 14q64 -15 104.5 -36t75.5 -48z" />
    <glyph glyph-name="uni0162" unicode="&#x162;" horiz-adv-x="673" 
d="M777 845q32 0 49 -19t17 -45q0 -28 -16.5 -50t-45.5 -36q-28 -15 -69 -23t-95 -8q-51 0 -108 6.5l-114 13t-107 6.5q-33 0 -64 -3.5t-49 -13.5q20 -8 33.5 -28t13.5 -46q0 -29 -18.5 -51.5t-50.5 -22.5q-30 0 -46 20t-16 48q0 23 12.5 48.5t48.5 43.5q23 11 49 16t49 6
t36 1q61 0 118 -6t112 -12t109 -6q42 0 70.5 4.5t50.5 14.5l-2 -8q-13 12 -24.5 31.5t-11.5 45.5q0 30 18.5 51.5t50.5 21.5zM413 689l13.5 -1t33.5 -3l40 -4t33 -3l13 -1l-148 -561q-16 -56 -1 -74.5t76 -21.5l-4 -20q-30 2 -76.5 2.5t-96.5 0.5q-49 0 -94 -0.5t-72 -2.5
l4 20q42 2 65.5 10.5t37 29t24.5 56.5zM312 5l-33 -71q27 9 55 9q29 0 46 -11.5t17 -33.5q0 -31 -26 -50t-64 -27.5t-74 -8.5q-37 0 -65 7t-42 13l7 16q8 -3 29.5 -7.5t50.5 -4.5q16 0 38 4t39 14t17 29q0 24 -34 24q-6 0 -16.5 -1.5t-20.5 -5.5l49 105h27z" />
    <glyph glyph-name="uni0163" unicode="&#x163;" horiz-adv-x="348" 
d="M393 516l-3 -20h-335l5 20h333zM150 85q-8 -28 2.5 -41t28.5 -13q21 0 42.5 20t39.5 70l15 41h19l-20 -60q-21 -62 -58 -89t-88 -27q-67 0 -87 44t-1 109l151 527q36 1 67.5 4t59.5 10zM118 0l-40 -70q10 4 23.5 6.5t25.5 2.5q24 0 39.5 -10.5t15.5 -30.5
q0 -31 -23.5 -50t-58 -27.5t-68.5 -8.5q-30 0 -53 7t-34 13l7 16q7 -3 22 -7.5t38 -4.5q12 0 30 4t32 14t14 29q0 24 -28 24q-5 0 -14 -1.5t-17 -5.5l61 100h28z" />
    <glyph glyph-name="Tcaron" unicode="&#x164;" horiz-adv-x="673" 
d="M777 845q32 0 49 -19t17 -45q0 -28 -16.5 -50t-45.5 -36q-28 -15 -69 -23t-95 -8q-51 0 -108 6.5l-114 13t-107 6.5q-33 0 -64 -3.5t-49 -13.5q20 -8 33.5 -28t13.5 -46q0 -29 -18.5 -51.5t-50.5 -22.5q-30 0 -46 20t-16 48q0 23 12.5 48.5t48.5 43.5q23 11 49 16t49 6
t36 1q61 0 118 -6t112 -12t109 -6q42 0 70.5 4.5t50.5 14.5l-2 -8q-13 12 -24.5 31.5t-11.5 45.5q0 30 18.5 51.5t50.5 21.5zM413 689l13.5 -1t33.5 -3l40 -4t33 -3l13 -1l-148 -561q-16 -56 -1 -74.5t76 -21.5l-4 -20q-30 2 -76.5 2.5t-96.5 0.5q-49 0 -94 -0.5t-72 -2.5
l4 20q42 2 65.5 10.5t37 29t24.5 56.5zM530 870q43 17 99.5 34.5t114.5 28.5l5 -14q-80 -25 -148.5 -64.5t-110.5 -82.5h-18q-23 50 -54 86t-85 61l4 14q71 -13 112.5 -28.5t80.5 -34.5z" />
    <glyph glyph-name="tcaron" unicode="&#x165;" horiz-adv-x="348" 
d="M393 516l-3 -20h-335l5 20h333zM150 85q-8 -28 2.5 -41t28.5 -13q21 0 42.5 20t39.5 70l15 41h19l-20 -60q-21 -62 -58 -89t-88 -27q-67 0 -87 44t-1 109l151 527q36 1 67.5 4t59.5 10zM347 560q34 74 47.5 124t13.5 69t-13 19l3 21q7 0 13 -0.5t12 -0.5q30 0 51 4t37 8
q2 -2 2 -10q0 -38 -41 -101t-111 -137z" />
    <glyph glyph-name="Tbar" unicode="&#x166;" horiz-adv-x="673" 
d="M777 845q32 0 49 -19t17 -45q0 -28 -16.5 -50t-45.5 -36q-28 -15 -69 -23t-95 -8q-51 0 -108 6.5l-114 13t-107 6.5q-33 0 -64 -3.5t-49 -13.5q20 -8 33.5 -28t13.5 -46q0 -29 -18.5 -51.5t-50.5 -22.5q-30 0 -46 20t-16 48q0 23 12.5 48.5t48.5 43.5q23 11 49 16t49 6
t36 1q61 0 118 -6t112 -12t109 -6q42 0 70.5 4.5t50.5 14.5l-2 -8q-13 12 -24.5 31.5t-11.5 45.5q0 30 18.5 51.5t50.5 21.5zM413 689l13.5 -1t33.5 -3l40 -4t33 -3l13 -1l-148 -561q-16 -56 -1 -74.5t76 -21.5l-4 -20q-30 2 -76.5 2.5t-96.5 0.5q-49 0 -94 -0.5t-72 -2.5
l4 20q42 2 65.5 10.5t37 29t24.5 56.5zM597 366l-6 -25h-420l6 25h420z" />
    <glyph glyph-name="tbar" unicode="&#x167;" horiz-adv-x="348" 
d="M371 421l-3 -20h-335l5 20h333zM393 516l-3 -20h-335l5 20h333zM150 85q-8 -28 2.5 -41t28.5 -13q21 0 42.5 20t39.5 70l15 41h19l-20 -60q-21 -62 -58 -89t-88 -27q-67 0 -87 44t-1 109l151 527q36 1 67.5 4t59.5 10z" />
    <glyph glyph-name="Utilde" unicode="&#x168;" horiz-adv-x="690" 
d="M639 560q13 49 12 75t-18.5 38t-56.5 15l6 20q18 -1 48.5 -2t56.5 -1q25 0 49 1t41 2l-6 -20q-33 -3 -52.5 -14.5t-32 -36t-23.5 -69.5l-72 -277q-36 -138 -98 -212q-36 -42 -89.5 -67.5t-115.5 -25.5q-65 0 -110.5 18.5t-70.5 51.5q-29 40 -29 94.5t22 137.5l83 314
q14 55 2.5 69.5t-61.5 16.5l6 20q24 -1 65.5 -2t87.5 -1q41 0 79 1t66 2l-6 -20q-34 -1 -53 -7.5t-29.5 -24t-20.5 -54.5l-88 -331q-20 -77 -22.5 -133.5t20.5 -86.5t78 -30q75 0 125 33.5t82 92.5t51 133zM451 916q36 0 59.5 -11t41.5 -25.5t37 -25.5t46 -11
q20 0 38.5 13.5t36.5 44.5l18 -5q-26 -68 -69 -97.5t-85 -29.5q-36 0 -59.5 11t-41.5 25.5t-37 25.5t-46 11q-20 0 -38.5 -13t-36.5 -45l-18 5q27 69 69.5 98t84.5 29z" />
    <glyph glyph-name="utilde" unicode="&#x169;" horiz-adv-x="587" 
d="M395 349q-38 -107 -71 -177t-65.5 -111t-66.5 -58t-72 -17q-64 0 -80.5 41.5t6.5 109.5l97 294q10 30 5 42t-20 12t-31.5 -17t-35.5 -69l-16 -45h-19l25 73q22 63 58.5 83t71.5 20q44 0 63.5 -19.5t20 -54t-15.5 -79.5l-91 -275q-24 -72 14 -72q26 0 58.5 36.5t66 100.5
t65 147.5t56.5 176.5zM426 85q-7 -25 -6 -39.5t18 -14.5q19 0 35.5 19.5t33.5 66.5l17 47h19l-26 -75q-22 -60 -58 -81.5t-72 -21.5q-24 0 -41 8.5t-25 23.5q-10 18 -8.5 44t11.5 64l100 390q36 1 68 4t59 10zM317 780q30 0 49.5 -11t34.5 -25.5t30.5 -25.5t37.5 -11
q19 0 36.5 13.5t34.5 44.5l18 -5q-26 -68 -66 -97.5t-80 -29.5q-30 0 -49.5 11t-34.5 25.5t-30.5 25.5t-37.5 11q-19 0 -36.5 -13t-34.5 -45l-18 5q25 68 65.5 97.5t80.5 29.5z" />
    <glyph glyph-name="Umacron" unicode="&#x16a;" horiz-adv-x="690" 
d="M639 560q13 49 12 75t-18.5 38t-56.5 15l6 20q18 -1 48.5 -2t56.5 -1q25 0 49 1t41 2l-6 -20q-33 -3 -52.5 -14.5t-32 -36t-23.5 -69.5l-72 -277q-36 -138 -98 -212q-36 -42 -89.5 -67.5t-115.5 -25.5q-65 0 -110.5 18.5t-70.5 51.5q-29 40 -29 94.5t22 137.5l83 314
q14 55 2.5 69.5t-61.5 16.5l6 20q24 -1 65.5 -2t87.5 -1q41 0 79 1t66 2l-6 -20q-34 -1 -53 -7.5t-29.5 -24t-20.5 -54.5l-88 -331q-20 -77 -22.5 -133.5t20.5 -86.5t78 -30q75 0 125 33.5t82 92.5t51 133zM682 844l-6 -25h-384l6 25h384z" />
    <glyph glyph-name="umacron" unicode="&#x16b;" horiz-adv-x="587" 
d="M395 349q-38 -107 -71 -177t-65.5 -111t-66.5 -58t-72 -17q-64 0 -80.5 41.5t6.5 109.5l97 294q10 30 5 42t-20 12t-31.5 -17t-35.5 -69l-16 -45h-19l25 73q22 63 58.5 83t71.5 20q44 0 63.5 -19.5t20 -54t-15.5 -79.5l-91 -275q-24 -72 14 -72q26 0 58.5 36.5t66 100.5
t65 147.5t56.5 176.5zM426 85q-7 -25 -6 -39.5t18 -14.5q19 0 35.5 19.5t33.5 66.5l17 47h19l-26 -75q-22 -60 -58 -81.5t-72 -21.5q-24 0 -41 8.5t-25 23.5q-10 18 -8.5 44t11.5 64l100 390q36 1 68 4t59 10zM535 712l-6 -25h-328l6 25h328z" />
    <glyph glyph-name="Ubreve" unicode="&#x16c;" horiz-adv-x="690" 
d="M639 560q13 49 12 75t-18.5 38t-56.5 15l6 20q18 -1 48.5 -2t56.5 -1q25 0 49 1t41 2l-6 -20q-33 -3 -52.5 -14.5t-32 -36t-23.5 -69.5l-72 -277q-36 -138 -98 -212q-36 -42 -89.5 -67.5t-115.5 -25.5q-65 0 -110.5 18.5t-70.5 51.5q-29 40 -29 94.5t22 137.5l83 314
q14 55 2.5 69.5t-61.5 16.5l6 20q24 -1 65.5 -2t87.5 -1q41 0 79 1t66 2l-6 -20q-34 -1 -53 -7.5t-29.5 -24t-20.5 -54.5l-88 -331q-20 -77 -22.5 -133.5t20.5 -86.5t78 -30q75 0 125 33.5t82 92.5t51 133zM506 862q61 0 119.5 14.5t106.5 42.5l11 -10q-26 -33 -68 -64
t-91 -51t-96 -20q-68 0 -106.5 40t-50.5 95l16 6q28 -29 65 -41t94 -12z" />
    <glyph glyph-name="ubreve" unicode="&#x16d;" horiz-adv-x="587" 
d="M395 349q-38 -107 -71 -177t-65.5 -111t-66.5 -58t-72 -17q-64 0 -80.5 41.5t6.5 109.5l97 294q10 30 5 42t-20 12t-31.5 -17t-35.5 -69l-16 -45h-19l25 73q22 63 58.5 83t71.5 20q44 0 63.5 -19.5t20 -54t-15.5 -79.5l-91 -275q-24 -72 14 -72q26 0 58.5 36.5t66 100.5
t65 147.5t56.5 176.5zM426 85q-7 -25 -6 -39.5t18 -14.5q19 0 35.5 19.5t33.5 66.5l17 47h19l-26 -75q-22 -60 -58 -81.5t-72 -21.5q-24 0 -41 8.5t-25 23.5q-10 18 -8.5 44t11.5 64l100 390q36 1 68 4t59 10zM366 713q51 0 106 19.5t98 55.5l11 -10q-24 -37 -62.5 -72.5
t-84 -58t-88.5 -22.5q-55 0 -85 45t-39 108l15 6q23 -39 51.5 -55t77.5 -16z" />
    <glyph glyph-name="Uring" unicode="&#x16e;" horiz-adv-x="690" 
d="M639 560q13 49 12 75t-18.5 38t-56.5 15l6 20q18 -1 48.5 -2t56.5 -1q25 0 49 1t41 2l-6 -20q-33 -3 -52.5 -14.5t-32 -36t-23.5 -69.5l-72 -277q-36 -138 -98 -212q-36 -42 -89.5 -67.5t-115.5 -25.5q-65 0 -110.5 18.5t-70.5 51.5q-29 40 -29 94.5t22 137.5l83 314
q14 55 2.5 69.5t-61.5 16.5l6 20q24 -1 65.5 -2t87.5 -1q41 0 79 1t66 2l-6 -20q-34 -1 -53 -7.5t-29.5 -24t-20.5 -54.5l-88 -331q-20 -77 -22.5 -133.5t20.5 -86.5t78 -30q75 0 125 33.5t82 92.5t51 133zM514 933q39 0 66.5 -22.5t27.5 -61.5q0 -29 -17 -53.5t-44.5 -39
t-59.5 -14.5q-38 0 -64 22.5t-26 61.5q0 46 34 76.5t83 30.5zM492 763q35 0 62.5 24.5t27.5 61.5q0 32 -23 47.5t-49 15.5q-34 0 -60.5 -26t-26.5 -59q0 -32 22 -48t47 -16z" />
    <glyph glyph-name="uring" unicode="&#x16f;" horiz-adv-x="587" 
d="M395 349q-38 -107 -71 -177t-65.5 -111t-66.5 -58t-72 -17q-64 0 -80.5 41.5t6.5 109.5l97 294q10 30 5 42t-20 12t-31.5 -17t-35.5 -69l-16 -45h-19l25 73q22 63 58.5 83t71.5 20q44 0 63.5 -19.5t20 -54t-15.5 -79.5l-91 -275q-24 -72 14 -72q26 0 58.5 36.5t66 100.5
t65 147.5t56.5 176.5zM426 85q-7 -25 -6 -39.5t18 -14.5q19 0 35.5 19.5t33.5 66.5l17 47h19l-26 -75q-22 -60 -58 -81.5t-72 -21.5q-24 0 -41 8.5t-25 23.5q-10 18 -8.5 44t11.5 64l100 390q36 1 68 4t59 10zM388 795q39 0 66.5 -22.5t27.5 -61.5q0 -29 -17 -53.5
t-44.5 -39t-59.5 -14.5q-38 0 -64 22.5t-26 61.5q0 46 34 76.5t83 30.5zM366 625q34 0 62 24.5t28 61.5q0 32 -23.5 47.5t-48.5 15.5q-35 0 -61 -26t-26 -59q0 -32 21.5 -48t47.5 -16z" />
    <glyph glyph-name="Uhungarumlaut" unicode="&#x170;" horiz-adv-x="690" 
d="M639 560q13 49 12 75t-18.5 38t-56.5 15l6 20q18 -1 48.5 -2t56.5 -1q25 0 49 1t41 2l-6 -20q-33 -3 -52.5 -14.5t-32 -36t-23.5 -69.5l-72 -277q-36 -138 -98 -212q-36 -42 -89.5 -67.5t-115.5 -25.5q-65 0 -110.5 18.5t-70.5 51.5q-29 40 -29 94.5t22 137.5l83 314
q14 55 2.5 69.5t-61.5 16.5l6 20q24 -1 65.5 -2t87.5 -1q41 0 79 1t66 2l-6 -20q-34 -1 -53 -7.5t-29.5 -24t-20.5 -54.5l-88 -331q-20 -77 -22.5 -133.5t20.5 -86.5t78 -30q75 0 125 33.5t82 92.5t51 133zM537 783q31 31 54.5 59t43.5 51t41 37q15 12 38 13t37 -19
q13 -19 3 -39t-29 -33q-31 -22 -77 -37t-104 -43zM334 783q31 31 54.5 59t43.5 51t41 37q16 12 39.5 13t35.5 -21q11 -18 2.5 -37.5t-28.5 -32.5q-31 -22 -77 -37t-104 -43z" />
    <glyph glyph-name="uhungarumlaut" unicode="&#x171;" horiz-adv-x="587" 
d="M395 349q-38 -107 -71 -177t-65.5 -111t-66.5 -58t-72 -17q-64 0 -80.5 41.5t6.5 109.5l97 294q10 30 5 42t-20 12t-31.5 -17t-35.5 -69l-16 -45h-19l25 73q22 63 58.5 83t71.5 20q44 0 63.5 -19.5t20 -54t-15.5 -79.5l-91 -275q-24 -72 14 -72q26 0 58.5 36.5t66 100.5
t65 147.5t56.5 176.5zM426 85q-7 -25 -6 -39.5t18 -14.5q19 0 35.5 19.5t33.5 66.5l17 47h19l-26 -75q-22 -60 -58 -81.5t-72 -21.5q-24 0 -41 8.5t-25 23.5q-10 18 -8.5 44t11.5 64l100 390q36 1 68 4t59 10zM220 607q27 49 41.5 84.5t25 61t24.5 43.5q16 21 37.5 23.5
t37.5 -10.5t17.5 -33t-15.5 -41q-21 -27 -59 -53.5t-97 -82.5zM399 607q26 49 41 84.5t25.5 61t24.5 43.5q15 21 36.5 23.5t38.5 -10.5q15 -13 16.5 -33t-14.5 -41q-22 -27 -60 -53.5t-97 -82.5z" />
    <glyph glyph-name="Uogonek" unicode="&#x172;" horiz-adv-x="690" 
d="M639 560q13 49 12 75t-18.5 38t-56.5 15l6 20q18 -1 48.5 -2t56.5 -1q25 0 49 1t41 2l-6 -20q-33 -3 -52.5 -14.5t-32 -36t-23.5 -69.5l-72 -277q-36 -138 -98 -212q-36 -42 -89.5 -67.5t-115.5 -25.5q-65 0 -110.5 18.5t-70.5 51.5q-29 40 -29 94.5t22 137.5l83 314
q14 55 2.5 69.5t-61.5 16.5l6 20q24 -1 65.5 -2t87.5 -1q41 0 79 1t66 2l-6 -20q-34 -1 -53 -7.5t-29.5 -24t-20.5 -54.5l-88 -331q-20 -77 -22.5 -133.5t20.5 -86.5t78 -30q75 0 125 33.5t82 92.5t51 133zM383 3q-29 -9 -54 -25.5t-40.5 -38t-15.5 -45.5q0 -33 35 -33
q18 0 38.5 6.5t36.5 16.5l11 -17q-35 -29 -70 -42t-71 -13q-38 0 -59 16t-21 43q0 33 27.5 58.5t69.5 44t83 29.5h30z" />
    <glyph glyph-name="uogonek" unicode="&#x173;" horiz-adv-x="587" 
d="M395 349q-38 -107 -71 -177t-65.5 -111t-66.5 -58t-72 -17q-64 0 -80.5 41.5t6.5 109.5l97 294q10 30 5 42t-20 12t-31.5 -17t-35.5 -69l-16 -45h-19l25 73q22 63 58.5 83t71.5 20q44 0 63.5 -19.5t20 -54t-15.5 -79.5l-91 -275q-24 -72 14 -72q26 0 58.5 36.5t66 100.5
t65 147.5t56.5 176.5zM426 85q-7 -25 -6 -39.5t18 -14.5q19 0 35.5 19.5t33.5 66.5l17 47h19l-26 -75q-22 -60 -58 -81.5t-72 -21.5q-24 0 -41 8.5t-25 23.5q-10 18 -8.5 44t11.5 64l100 390q36 1 68 4t59 10zM451 3q-27 -9 -52.5 -25.5t-41.5 -38t-16 -45.5q0 -33 32 -33
q17 0 35 9t29 22l14 -12q-29 -35 -62.5 -51.5t-68.5 -16.5q-37 0 -58 16.5t-21 43.5q0 32 27.5 57.5t69.5 44t83 29.5h30z" />
    <glyph glyph-name="Wcircumflex" unicode="&#x174;" horiz-adv-x="955" 
d="M556 489l-298 -494h-39l-79 629q-5 38 -22 50.5t-32 13.5l4 20q24 -1 58 -2t69 -1q38 0 70 1t52 2l-4 -20q-32 -2 -45 -17.5t-9 -66.5l53 -462l-23 -21l237 393zM906 558q27 52 28 79t-20 38t-61 13l5 20q15 -1 37.5 -1.5t46 -1t41.5 -0.5q24 0 41.5 1t33.5 2l-5 -20
q-18 -5 -35.5 -14t-36 -29t-37.5 -57l-311 -593h-39l-91 629q-5 37 -18 50t-26 14l4 20q22 -1 53.5 -2t63.5 -1q45 0 83.5 1t62.5 2l-4 -20q-50 -2 -67 -17t-11 -67l63 -448l-23 -20zM617 833q-42 -16 -98.5 -33.5t-114.5 -29.5l-5 14q80 26 148.5 65t110.5 82h18
q23 -49 53.5 -85.5t85.5 -61.5l-4 -14q-71 13 -113 29t-81 34z" />
    <glyph glyph-name="wcircumflex" unicode="&#x175;" horiz-adv-x="681" 
d="M298 59q-31 -32 -71 -52.5t-90 -20.5q-69 0 -100 35.5t-31 84.5q0 47 27 95.5t73.5 97.5t105 97t121.5 94h8q-24 -4 -46 -15.5t-40 -25.5t-35.5 -24t-34.5 -10q-19 0 -31.5 10.5t-28.5 10.5q-15 0 -24 -11.5t-19 -40.5l-10 -31h-19l23 73q19 61 43.5 81.5t50.5 20.5
q19 0 34 -8t31.5 -16.5t41.5 -8.5q19 0 38 5.5t39 19.5l13 19l21 -10q-66 -63 -122 -135t-90.5 -145.5t-34.5 -144.5q0 -41 13 -60t38 -19q51 0 100 51zM438 37q39 0 69 22t50.5 57.5t32 78.5t15.5 85t-1 77q-25 9 -53 23.5t-47 38t-19 56.5q0 24 14.5 39.5t37.5 15.5
t38 -14.5t25 -37.5t16 -50t9 -53q6 -47 1 -100t-21.5 -104t-45.5 -93t-70.5 -67t-96.5 -25q-33 0 -62.5 12t-47.5 42t-18 83q0 45 15.5 87.5t39.5 76t51 53t49 19.5q17 0 25 -11t10.5 -27t2.5 -29q0 -59 -29 -116.5t-87 -104.5l-6 17q45 39 72 93.5t27 108.5q0 20 -4 33.5
t-14 13.5q-15 0 -31 -24.5t-27.5 -62.5t-11.5 -81q0 -34 9 -64.5t30 -49t53 -18.5zM399 696q-35 -23 -82.5 -45.5t-96.5 -38.5l-5 14q72 31 132.5 82t98.5 106h18q13 -66 39.5 -110.5t79.5 -77.5l-4 -14q-64 15 -105 36t-75 48z" />
    <glyph glyph-name="Ycircumflex" unicode="&#x176;" horiz-adv-x="712" 
d="M376 106q-13 -55 1.5 -69.5t65.5 -16.5l-5 -20q-17 1 -43 1.5t-55.5 1t-57.5 0.5q-45 0 -85.5 -0.5t-65.5 -2.5l5 20q34 2 53 8t30 24t20 54l69 274l55 -63l57 19l34 80zM706 703q-16 -1 -30 -6.5t-29 -16.5q-30 -22 -70.5 -74t-83.5 -135.5t-81 -200.5l-111 -5
q-4 46 -10.5 99t-16 104t-23 93.5t-31 68t-40.5 25.5q-18 0 -29 -12.5t-18 -34.5l-24 -70h-11h-11l29 84q18 54 48.5 77t77.5 23q64 0 99 -43t53.5 -123.5t30.5 -191.5q35 95 79.5 169.5t91.5 125.5q23 25 54 44t65 19q41 0 61 -23.5t19 -54.5q0 -31 -22 -56t-58 -25
q-30 0 -44.5 16t-13.5 40q0 27 17.5 48.5t42.5 31.5q-2 2 -5 3t-6 1zM486 834q-42 -16 -98.5 -33.5t-114.5 -29.5l-5 14q80 26 148.5 65t110.5 82h18q23 -49 53.5 -85.5t85.5 -61.5l-4 -14q-71 13 -113 29t-81 34z" />
    <glyph glyph-name="ycircumflex" unicode="&#x177;" horiz-adv-x="482" 
d="M299 54l-93 -105l-80 480q-4 29 -10 40t-17 11t-22.5 -15.5t-29.5 -65.5l-16 -44h-19l25 73q21 61 52.5 81.5t68.5 20.5t59.5 -21.5t30.5 -81.5zM67 -139q45 22 94.5 61.5t102.5 106.5q56 72 100.5 156.5t64.5 165.5q-33 18 -61 48.5t-27 69.5q2 29 18.5 45t43.5 16
q32 0 47 -22.5t15 -64.5q0 -49 -16.5 -106t-44.5 -116.5t-63.5 -115t-72.5 -102.5q-27 -32 -61.5 -65t-76 -61.5t-88.5 -46.5q-24 -10 -43 -14t-32 -4q-28 0 -46 13.5t-18 37.5q0 25 18.5 40.5t46.5 15.5t52.5 -16t46.5 -42zM303 696q-35 -23 -82.5 -45.5t-96.5 -38.5l-5 14
q72 31 132.5 82t98.5 106h18q13 -66 39.5 -110.5t79.5 -77.5l-4 -14q-64 15 -105 36t-75 48z" />
    <glyph glyph-name="Ydieresis" unicode="&#x178;" horiz-adv-x="712" 
d="M376 106q-13 -55 1.5 -69.5t65.5 -16.5l-5 -20q-17 1 -43 1.5t-55.5 1t-57.5 0.5q-45 0 -85.5 -0.5t-65.5 -2.5l5 20q34 2 53 8t30 24t20 54l69 274l55 -63l57 19l34 80zM706 703q-16 -1 -30 -6.5t-29 -16.5q-30 -22 -70.5 -74t-83.5 -135.5t-81 -200.5l-111 -5
q-4 46 -10.5 99t-16 104t-23 93.5t-31 68t-40.5 25.5q-18 0 -29 -12.5t-18 -34.5l-24 -70h-11h-11l29 84q18 54 48.5 77t77.5 23q64 0 99 -43t53.5 -123.5t30.5 -191.5q35 95 79.5 169.5t91.5 125.5q23 25 54 44t65 19q41 0 61 -23.5t19 -54.5q0 -31 -22 -56t-58 -25
q-30 0 -44.5 16t-13.5 40q0 27 17.5 48.5t42.5 31.5q-2 2 -5 3t-6 1zM314 829q0 35 24 56.5t56 21.5q28 0 44 -17t16 -44q0 -36 -24.5 -57t-55.5 -21q-30 0 -45 17t-15 44zM544 829q0 35 24.5 56.5t55.5 21.5q29 0 44.5 -17t15.5 -44q0 -36 -24.5 -57t-55.5 -21
q-29 0 -44.5 17t-15.5 44z" />
    <glyph glyph-name="Zacute" unicode="&#x179;" horiz-adv-x="656" 
d="M161 346l7 20h353l-8 -20h-352zM449 209l2 10l2 10q30 -4 58 -17.5t46 -37t18 -61.5q0 -55 -37 -91t-100 -36q-41 0 -71.5 14t-58 33.5t-57.5 33.5t-70 14q-34 0 -60.5 -9t-59.5 -24q-22 -32 -48 -49t-40 -4q-12 11 2 33t67 42l580 570q-46 -36 -95 -57t-98 -21
q-46 0 -80 12t-64 24t-66 12q-25 0 -38.5 -12.5t-13.5 -36.5q0 -23 18 -39t54 -23l-2 -10l-2 -10q-29 5 -57.5 18t-46.5 37t-18 61q0 55 37 91t100 36q41 0 71.5 -14t58 -33.5t57.5 -33.5t70 -14q34 0 61 9t59 24q23 32 48 49t40 4q12 -10 -2 -32.5t-67 -42.5l-580 -570
q46 36 95.5 57t97.5 21q47 0 80.5 -12t63.5 -24t66 -12q26 0 39 12.5t13 36.5q0 23 -17.5 39t-54.5 23zM426 783q51 39 83.5 68t58 51t50.5 36q19 11 45 11.5t38 -23.5q10 -21 -3.5 -39.5t-34.5 -30.5q-36 -20 -90 -34t-140 -50z" />
    <glyph glyph-name="zacute" unicode="&#x17a;" horiz-adv-x="457" 
d="M31 50q31 16 56.5 33t49 28.5t45.5 11.5q24 0 42 -8t35 -16t39 -8q21 0 32 11t11 29q0 25 -19 40.5t-46 21.5l6 15q51 -11 76.5 -37t25.5 -66q0 -46 -29 -80t-93 -34q-30 0 -52 7.5t-42 17.5t-43 17.5t-54 7.5q-26 0 -47.5 -8.5t-42.5 -32.5h-29l474 469
q-24 -12 -46.5 -26t-42.5 -26.5t-39 -20t-36 -7.5q-24 0 -42 8t-35 16t-38 8q-20 0 -32 -10.5t-12 -29.5q0 -23 18 -38.5t47 -23.5l-6 -15q-48 11 -75 36t-27 65q0 30 14 57t43.5 44t76.5 17q29 0 51 -7t41.5 -17t41.5 -17t53 -7q28 0 49 8.5t41 32.5h29zM253 608
q38 51 61.5 88.5t41 65t38.5 48.5q18 20 41 24t41 -11q15 -15 10.5 -35.5t-26.5 -42.5q-19 -20 -46.5 -38.5t-65 -43.5t-85.5 -64z" />
    <glyph glyph-name="Zdotaccent" unicode="&#x17b;" horiz-adv-x="656" 
d="M161 346l7 20h353l-8 -20h-352zM449 209l2 10l2 10q30 -4 58 -17.5t46 -37t18 -61.5q0 -55 -37 -91t-100 -36q-41 0 -71.5 14t-58 33.5t-57.5 33.5t-70 14q-34 0 -60.5 -9t-59.5 -24q-22 -32 -48 -49t-40 -4q-12 11 2 33t67 42l580 570q-46 -36 -95 -57t-98 -21
q-46 0 -80 12t-64 24t-66 12q-25 0 -38.5 -12.5t-13.5 -36.5q0 -23 18 -39t54 -23l-2 -10l-2 -10q-29 5 -57.5 18t-46.5 37t-18 61q0 55 37 91t100 36q41 0 71.5 -14t58 -33.5t57.5 -33.5t70 -14q34 0 61 9t59 24q23 32 48 49t40 4q12 -10 -2 -32.5t-67 -42.5l-580 -570
q46 36 95.5 57t97.5 21q47 0 80.5 -12t63.5 -24t66 -12q26 0 39 12.5t13 36.5q0 23 -17.5 39t-54.5 23zM387 825q0 38 27 63t67 25q31 0 48.5 -16t17.5 -43q0 -35 -27 -61t-67 -26q-31 0 -48.5 16t-17.5 42z" />
    <glyph glyph-name="zdotaccent" unicode="&#x17c;" horiz-adv-x="457" 
d="M31 50q31 16 56.5 33t49 28.5t45.5 11.5q24 0 42 -8t35 -16t39 -8q21 0 32 11t11 29q0 25 -19 40.5t-46 21.5l6 15q51 -11 76.5 -37t25.5 -66q0 -46 -29 -80t-93 -34q-30 0 -52 7.5t-42 17.5t-43 17.5t-54 7.5q-26 0 -47.5 -8.5t-42.5 -32.5h-29l474 469
q-24 -12 -46.5 -26t-42.5 -26.5t-39 -20t-36 -7.5q-24 0 -42 8t-35 16t-38 8q-20 0 -32 -10.5t-12 -29.5q0 -23 18 -38.5t47 -23.5l-6 -15q-48 11 -75 36t-27 65q0 30 14 57t43.5 44t76.5 17q29 0 51 -7t41.5 -17t41.5 -17t53 -7q28 0 49 8.5t41 32.5h29zM253 683
q0 37 26.5 63t66.5 26q31 0 48.5 -15.5t17.5 -42.5q0 -35 -27 -61.5t-67 -26.5q-31 0 -48 15.5t-17 41.5z" />
    <glyph glyph-name="Zcaron" unicode="&#x17d;" horiz-adv-x="656" 
d="M161 346l7 20h353l-8 -20h-352zM449 209l2 10l2 10q30 -4 58 -17.5t46 -37t18 -61.5q0 -55 -37 -91t-100 -36q-41 0 -71.5 14t-58 33.5t-57.5 33.5t-70 14q-34 0 -60.5 -9t-59.5 -24q-22 -32 -48 -49t-40 -4q-12 11 2 33t67 42l580 570q-46 -36 -95 -57t-98 -21
q-46 0 -80 12t-64 24t-66 12q-25 0 -38.5 -12.5t-13.5 -36.5q0 -23 18 -39t54 -23l-2 -10l-2 -10q-29 5 -57.5 18t-46.5 37t-18 61q0 55 37 91t100 36q41 0 71.5 -14t58 -33.5t57.5 -33.5t70 -14q34 0 61 9t59 24q23 32 48 49t40 4q12 -10 -2 -32.5t-67 -42.5l-580 -570
q46 36 95.5 57t97.5 21q47 0 80.5 -12t63.5 -24t66 -12q26 0 39 12.5t13 36.5q0 23 -17.5 39t-54.5 23zM493 870q43 17 99.5 34.5t114.5 28.5l5 -14q-80 -25 -148.5 -64.5t-110.5 -82.5h-18q-23 50 -54 86t-85 61l4 14q71 -13 112.5 -28.5t80.5 -34.5z" />
    <glyph glyph-name="zcaron" unicode="&#x17e;" horiz-adv-x="457" 
d="M31 50q31 16 56.5 33t49 28.5t45.5 11.5q24 0 42 -8t35 -16t39 -8q21 0 32 11t11 29q0 25 -19 40.5t-46 21.5l6 15q51 -11 76.5 -37t25.5 -66q0 -46 -29 -80t-93 -34q-30 0 -52 7.5t-42 17.5t-43 17.5t-54 7.5q-26 0 -47.5 -8.5t-42.5 -32.5h-29l474 469
q-24 -12 -46.5 -26t-42.5 -26.5t-39 -20t-36 -7.5q-24 0 -42 8t-35 16t-38 8q-20 0 -32 -10.5t-12 -29.5q0 -23 18 -38.5t47 -23.5l-6 -15q-48 11 -75 36t-27 65q0 30 14 57t43.5 44t76.5 17q29 0 51 -7t41.5 -17t41.5 -17t53 -7q28 0 49 8.5t41 32.5h29zM361 730
q36 23 82.5 46t96.5 38l5 -14q-72 -30 -133 -81.5t-98 -106.5h-18q-13 67 -39.5 111t-79.5 77l4 14q64 -15 104.5 -36t75.5 -48z" />
    <glyph glyph-name="longs" unicode="&#x17f;" horiz-adv-x="335" 
d="M59 496l6 20h147l-6 -20h-147zM409 765q-17 0 -30 -6t-24 -16q-22 -20 -36.5 -67.5t-31.5 -107.5l-199 -742q-36 -1 -66.5 -4t-59.5 -10l187 699q22 83 48.5 137t64.5 86q26 23 61.5 35.5t73.5 12.5q57 0 88.5 -24.5t31.5 -62.5q0 -29 -23 -55.5t-60 -26.5
q-27 0 -42 12.5t-14 35.5q0 30 19 53.5t50 33.5q-2 7 -12.5 12t-25.5 5z" />
    <glyph glyph-name="uni018F" unicode="&#x18f;" horiz-adv-x="739" 
d="M275 -14q-68 0 -122.5 22.5t-85.5 69t-31 117.5q0 47 14 104h541l-3 -19h-399q-21 -66 -21 -121q0 -67 32 -109.5t95 -42.5q72 0 134 66t108 216l-1 5q15 43 23.5 96t8.5 97q0 71 -21.5 116t-58.5 67t-86 22q-37 0 -77.5 -12.5t-73.5 -39.5q-38 -26 -61 -65t-49 -107h-23
q18 59 28.5 102t16.5 76.5t11 61.5h23q-3 -21 -3 -34q0 -25 12 -25q9 0 23 8q23 13 53.5 28.5t73 26t99.5 10.5q82 0 141 -27t91.5 -84t32.5 -146q0 -91 -33 -176.5t-92.5 -154t-141 -108.5t-178.5 -40z" />
    <glyph glyph-name="florin" unicode="&#x192;" horiz-adv-x="507" 
d="M517 514l-5 -20h-421l5 20h421zM-48 -188q-43 0 -62.5 17t-16.5 44q3 26 23 43t48 17q26 0 39.5 -16t10.5 -38q0 -11 -8.5 -25.5t-24.5 -26.5q40 5 64 28.5t39 79.5l155 580q21 79 48 130t63 82q32 26 70 40.5t83 14.5q60 0 87.5 -29.5t21.5 -68.5q-2 -20 -12 -38
t-27 -29.5t-39 -11.5q-27 0 -41.5 15t-10.5 42q3 28 21.5 51t47.5 35q-2 8 -12.5 13.5t-26.5 5.5q-21 0 -37.5 -10.5t-28.5 -26.5q-13 -15 -23.5 -40t-22.5 -66.5t-30 -108.5l-107 -400q-21 -77 -53 -139t-83 -105q-36 -31 -77 -45t-78 -14z" />
    <glyph glyph-name="Ohorn" unicode="&#x1a0;" horiz-adv-x="761" 
d="M576 685l-7 22q89 -10 142 -3t94 29l-2 -8q-19 11 -35.5 31t-16.5 47q0 28 18 47t48 19t48 -18.5t18 -47.5q0 -26 -17 -49t-47 -39q-36 -19 -97.5 -30t-145.5 0zM478 704q-54 0 -104.5 -42t-90.5 -113t-63.5 -158.5t-23.5 -177.5q0 -98 33 -153.5t85 -55.5q54 0 104.5 42
t90.5 113t63.5 158.5t23.5 177.5q0 98 -33 153.5t-85 55.5zM46 226q0 66 20 136t58 134t92.5 115t122.5 81t148 30q122 0 191 -62.5t69 -178.5q0 -66 -20.5 -135.5t-58.5 -133.5t-92.5 -115t-123 -81t-147.5 -30q-122 0 -190.5 62.5t-68.5 177.5z" />
    <glyph glyph-name="ohorn" unicode="&#x1a1;" horiz-adv-x="516" 
d="M401 480l-5 20q35 1 60.5 6.5t46.5 13.5l-1 -7q-15 10 -28 27.5t-13 41.5q0 25 16 43.5t45 18.5q26 0 42 -15.5t16 -42.5q0 -25 -14.5 -44.5t-39.5 -31.5q-22 -13 -54 -20t-71 -10zM322 510q-26 0 -53 -26.5t-51 -72t-43.5 -101.5t-30.5 -115.5t-11 -113.5
q0 -40 10.5 -57.5t31.5 -17.5q25 0 52 26t51.5 70.5t43.5 100t30 115.5t11 117q0 42 -10.5 58.5t-30.5 16.5zM15 148q0 57 19.5 123t58.5 125t98 96.5t137 37.5q72 0 112.5 -40.5t40.5 -121.5q0 -57 -19.5 -123t-58.5 -125t-98 -96.5t-137 -37.5q-72 0 -112.5 41t-40.5 121z
" />
    <glyph glyph-name="Uhorn" unicode="&#x1af;" horiz-adv-x="690" 
d="M280 -14q-55 0 -100.5 17.5t-72.5 52.5q-32 42 -29 100.5t22 131.5l83 314q14 53 3 68.5t-62 17.5l6 20q24 -1 65.5 -2t85.5 -1q43 0 81 1t66 2l-6 -20q-34 -1 -53 -7.5t-29.5 -24t-20.5 -54.5l-88 -331q-22 -84 -23 -140t25 -83t83 -27q69 0 117.5 34t81 93t50.5 132
l108 414l3 -9q-25 0 -50.5 0.5t-49.5 2.5l5 20q18 -1 35.5 -2t38.5 -1q31 0 61 4t59 24l-2 -6q-19 11 -35.5 31t-16.5 47q0 28 18 47t48 19q29 0 47 -18.5t18 -47.5q0 -28 -18 -50t-45 -38q-28 -16 -53.5 -23t-49.5 -8l10 8l-105 -403q-17 -66 -40.5 -119.5t-57.5 -92.5
q-36 -42 -88.5 -67.5t-124.5 -25.5z" />
    <glyph glyph-name="uhorn" unicode="&#x1b0;" horiz-adv-x="587" 
d="M490 500l-5 18q35 5 56 10.5t39 13.5l-1 -8q-15 11 -28 28.5t-13 40.5q0 25 16 43.5t45 18.5q26 0 42 -15t16 -42q0 -25 -14.5 -44.5t-39.5 -32.5q-20 -10 -49 -18t-64 -13zM395 349q-38 -107 -71 -177t-65.5 -111t-66.5 -58t-72 -17q-64 0 -80.5 41.5t6.5 109.5l97 294
q10 30 5 42t-20 12t-31.5 -17t-35.5 -69l-16 -45h-19l25 73q22 63 58.5 83t71.5 20q44 0 63.5 -19.5t20 -54t-15.5 -79.5l-91 -275q-24 -72 14 -72q26 0 58.5 36.5t66 100.5t65 147.5t56.5 176.5zM426 85q-7 -25 -6 -39.5t18 -14.5q19 0 35.5 19.5t33.5 66.5l17 47h19
l-26 -75q-22 -60 -58 -81.5t-72 -21.5q-24 0 -41 8.5t-25 23.5q-10 18 -8.5 44t11.5 64l100 390q36 1 68 4t59 10z" />
    <glyph glyph-name="uni01B7" unicode="&#x1b7;" horiz-adv-x="603" 
d="M656 708l-5 -20l-262 -328v36q71 -29 111 -70.5t40 -109.5q0 -67 -41 -118.5t-110.5 -81.5t-157.5 -30q-66 0 -108.5 13t-62.5 24q-10 5 -18.5 9.5t-16.5 4.5q-11 0 -18.5 -11.5t-15.5 -32.5h-23q8 23 17.5 54t22 80.5t29.5 125.5h23q-16 -71 -4.5 -126t52 -86t110.5 -31
q56 0 99 30.5t68 78.5t25 100q0 70 -33.5 110t-99.5 57l5 20l225 279h-146q-53 0 -96.5 -18.5t-78 -61.5t-62.5 -119h-23q17 47 30 108t21 114q52 -2 116.5 -2.5t115.5 -0.5q65 0 137.5 0.5t134.5 2.5z" />
    <glyph glyph-name="uni01CD" unicode="&#x1cd;" 
d="M67 150q-33 -47 -36.5 -75t18 -40.5t61.5 -14.5l-4 -20q-38 2 -68.5 2.5t-57.5 0.5q-23 0 -39 -0.5t-32 -2.5l5 20q24 6 48.5 28t60.5 72l422 593q9 -1 19.5 -1t19.5 1l40 -629q3 -36 18.5 -49.5t30.5 -14.5l-4 -20q-24 2 -61.5 2.5t-71.5 0.5q-42 0 -80 -0.5t-60 -2.5
l4 20q48 2 68 17.5t18 66.5l-26 472l26 24zM156 288h292l-8 -20h-302zM517 870q43 17 99.5 34.5t114.5 28.5l5 -14q-80 -25 -148.5 -64.5t-110.5 -82.5h-18q-23 50 -54 86t-85 61l4 14q71 -13 112.5 -28.5t80.5 -34.5z" />
    <glyph glyph-name="uni01CE" unicode="&#x1ce;" horiz-adv-x="547" 
d="M161 32q18 0 41 21.5t47 60.5t46 93t38 118l-21 -108q-44 -128 -95 -179.5t-108 -51.5q-54 0 -80 33.5t-26 89.5q0 52 17 109.5t47.5 113t69.5 100t83 71.5t88 27q34 0 52 -28.5t9 -86.5l-11 -6q7 42 -3.5 66t-34.5 24q-28 0 -61 -36.5t-62 -96t-47.5 -129.5t-18.5 -137
q0 -37 7.5 -52.5t22.5 -15.5zM386 516q36 1 67.5 4t60.5 10l-129 -444q-4 -12 -5.5 -24.5t2 -21t16.5 -8.5q16 0 33 17t35 69l15 45h19l-25 -73q-22 -62 -57 -83t-69 -21q-48 0 -68 30q-13 22 -10 54t13 69zM417 730q36 23 82.5 46t96.5 38l5 -14q-72 -30 -133 -81.5
t-98 -106.5h-18q-13 67 -39.5 111t-79.5 77l4 14q64 -15 104.5 -36t75.5 -48z" />
    <glyph glyph-name="uni01D3" unicode="&#x1d3;" horiz-adv-x="690" 
d="M639 560q13 49 12 75t-18.5 38t-56.5 15l6 20q18 -1 48.5 -2t56.5 -1q25 0 49 1t41 2l-6 -20q-33 -3 -52.5 -14.5t-32 -36t-23.5 -69.5l-72 -277q-36 -138 -98 -212q-36 -42 -89.5 -67.5t-115.5 -25.5q-65 0 -110.5 18.5t-70.5 51.5q-29 40 -29 94.5t22 137.5l83 314
q14 55 2.5 69.5t-61.5 16.5l6 20q24 -1 65.5 -2t87.5 -1q41 0 79 1t66 2l-6 -20q-34 -1 -53 -7.5t-29.5 -24t-20.5 -54.5l-88 -331q-20 -77 -22.5 -133.5t20.5 -86.5t78 -30q75 0 125 33.5t82 92.5t51 133zM537 870q43 17 99.5 34.5t114.5 28.5l5 -14q-80 -25 -148.5 -64.5
t-110.5 -82.5h-18q-23 50 -54 86t-85 61l4 14q71 -13 112.5 -28.5t80.5 -34.5z" />
    <glyph glyph-name="uni01D4" unicode="&#x1d4;" horiz-adv-x="587" 
d="M395 349q-38 -107 -71 -177t-65.5 -111t-66.5 -58t-72 -17q-64 0 -80.5 41.5t6.5 109.5l97 294q10 30 5 42t-20 12t-31.5 -17t-35.5 -69l-16 -45h-19l25 73q22 63 58.5 83t71.5 20q44 0 63.5 -19.5t20 -54t-15.5 -79.5l-91 -275q-24 -72 14 -72q26 0 58.5 36.5t66 100.5
t65 147.5t56.5 176.5zM426 85q-7 -25 -6 -39.5t18 -14.5q19 0 35.5 19.5t33.5 66.5l17 47h19l-26 -75q-22 -60 -58 -81.5t-72 -21.5q-24 0 -41 8.5t-25 23.5q-10 18 -8.5 44t11.5 64l100 390q36 1 68 4t59 10zM399 730q36 23 82.5 46t96.5 38l5 -14q-72 -30 -133 -81.5
t-98 -106.5h-18q-13 67 -39.5 111t-79.5 77l4 14q64 -15 104.5 -36t75.5 -48z" />
    <glyph glyph-name="uni01E4" unicode="&#x1e4;" horiz-adv-x="727" 
d="M309 -14q-128 0 -197.5 60t-69.5 169q0 68 21.5 139t62.5 137t98 118t129 82.5t155 30.5q65 0 100.5 -19t63.5 -46q15 -15 28 -5t29 56h22q-15 -39 -31 -94.5t-33 -135.5h-22q2 20 3.5 38.5t1.5 36.5q0 21 -3 38.5t-11 34.5q-20 37 -60.5 57.5t-93.5 20.5
q-63 0 -114.5 -35.5t-90.5 -94t-65 -128t-39.5 -139t-13.5 -125.5q0 -90 38 -133t115 -43q27 0 50.5 7.5t38.5 16.5q19 12 27.5 28.5t15.5 41.5l28 106q11 41 8.5 61t-22 27t-61.5 8l5 20q29 -1 75.5 -2t84.5 -1q40 0 73.5 1t55.5 2l-5 -20q-22 -1 -34.5 -7t-21 -24
t-18.5 -55l-58 -216h-20q3 23 -2 40t-21 17q-15 0 -31 -8l-38 -19q-38 -22 -74.5 -33t-78.5 -11zM377 172l4 20h329l-4 -20h-329z" />
    <glyph glyph-name="uni01E5" unicode="&#x1e5;" horiz-adv-x="464" 
d="M443 -67l-4 -20h-606l4 20h606zM221 226l39 2q-58 -27 -94.5 -46.5t-36.5 -37.5q0 -9 12 -16.5t38 -14.5l80 -25q30 -9 55.5 -21t41.5 -31t16 -49q0 -33 -21.5 -65t-61 -57.5t-94.5 -41t-122 -15.5q-51 0 -90.5 9.5t-61 26.5t-21.5 40q0 18 14 34t38 29t54 23t63 15
l4 -15q-35 -18 -48.5 -39.5t-13.5 -42.5q0 -33 23.5 -48t60.5 -15q41 0 82.5 15.5t70 41t28.5 55.5q0 18 -12 24.5t-35 11.5l-147 41q-24 7 -41 22.5t-17 41.5q0 24 20.5 46.5t64 47t112.5 54.5zM267 512q-30 0 -50 -24t-32 -60t-17.5 -73t-5.5 -64q0 -32 10.5 -45t29.5 -13
q28 0 47.5 21t31.5 54t17 69.5t5 67.5q0 29 -6.5 48t-29.5 19zM279 530q64 0 104.5 -26.5t40.5 -86.5q0 -48 -29 -95t-82.5 -77t-125.5 -30q-61 0 -102.5 26.5t-41.5 84.5q0 30 14 65.5t43 67t73.5 51.5t105.5 20zM356 477l-20 7q15 37 49 63t72 26q30 0 46 -16.5t16 -45.5
t-14 -43t-32 -14q-16 0 -30.5 11.5t-17.5 35.5t13 62l9 -5q-39 -15 -58 -33t-33 -48z" />
    <glyph glyph-name="Gcaron" unicode="&#x1e6;" horiz-adv-x="727" 
d="M332 6q27 0 50.5 7.5t38.5 16.5q19 12 27.5 28.5t15.5 41.5l23 88q11 41 8.5 61t-22 27t-61.5 8l5 20q29 -1 75.5 -2t84.5 -1q40 0 73.5 1t55.5 2l-5 -20q-22 -1 -34.5 -7t-21 -24t-18.5 -55l-53 -198h-20q3 23 -2 40t-21 17q-15 0 -31 -8l-38 -19q-38 -22 -74.5 -33
t-78.5 -11q-128 0 -197.5 60t-69.5 169q0 68 21.5 139t62.5 137t98 118t129 82.5t155 30.5q65 0 100.5 -19t63.5 -46q15 -15 28 -5t29 56h22q-15 -39 -31 -94.5t-33 -135.5h-22q2 20 3.5 38.5t1.5 36.5q0 21 -3 38.5t-11 34.5q-20 37 -60.5 57.5t-93.5 20.5
q-63 0 -114.5 -35.5t-90.5 -94t-65 -128t-39.5 -139t-13.5 -125.5q0 -90 38 -133t115 -43zM559 870q43 17 99.5 34.5t114.5 28.5l5 -14q-80 -25 -148.5 -64.5t-110.5 -82.5h-18q-23 50 -54 86t-85 61l4 14q71 -13 112.5 -28.5t80.5 -34.5z" />
    <glyph glyph-name="gcaron" unicode="&#x1e7;" horiz-adv-x="464" 
d="M221 226l39 2q-58 -27 -94.5 -46.5t-36.5 -37.5q0 -9 12 -16.5t38 -14.5l80 -25q30 -9 55.5 -21t41.5 -31t16 -49q0 -33 -21.5 -65t-61 -57.5t-94.5 -41t-122 -15.5q-51 0 -90.5 9.5t-61 26.5t-21.5 40q0 18 14 34t38 29t54 23t63 15l4 -15q-35 -18 -48.5 -39.5
t-13.5 -42.5q0 -33 23.5 -48t60.5 -15q41 0 82.5 15.5t70 41t28.5 55.5q0 18 -12 24.5t-35 11.5l-147 41q-24 7 -41 22.5t-17 41.5q0 24 20.5 46.5t64 47t112.5 54.5zM267 512q-30 0 -50 -24t-32 -60t-17.5 -73t-5.5 -64q0 -32 10.5 -45t29.5 -13q28 0 47.5 21t31.5 54
t17 69.5t5 67.5q0 29 -6.5 48t-29.5 19zM279 530q64 0 104.5 -26.5t40.5 -86.5q0 -48 -29 -95t-82.5 -77t-125.5 -30q-61 0 -102.5 26.5t-41.5 84.5q0 30 14 65.5t43 67t73.5 51.5t105.5 20zM356 477l-20 7q15 37 49 63t72 26q30 0 46 -16.5t16 -45.5t-14 -43t-32 -14
q-16 0 -30.5 11.5t-17.5 35.5t13 62l9 -5q-39 -15 -58 -33t-33 -48zM363 730q36 23 82.5 46t96.5 38l5 -14q-72 -30 -133 -81.5t-98 -106.5h-18q-13 67 -39.5 111t-79.5 77l4 14q64 -15 104.5 -36t75.5 -48z" />
    <glyph glyph-name="uni01E8" unicode="&#x1e8;" horiz-adv-x="718" 
d="M204 106q-14 -55 -3 -69.5t62 -16.5l-4 -20q-26 2 -66 2.5t-81 0.5q-46 0 -85.5 -0.5t-65.5 -2.5l5 20q33 2 51.5 8t29.5 24t20 54l132 496q14 55 2.5 69.5t-61.5 16.5l5 20q24 -1 64.5 -2t86.5 -1q41 0 80.5 1t67.5 2l-5 -20q-34 -1 -53 -7.5t-29.5 -24t-20.5 -54.5z
M558 53q21 0 35.5 16.5t25.5 49.5l17 51h20l-26 -77q-19 -55 -52.5 -81t-77.5 -26q-58 0 -84 33t-20 90l16 131q4 41 1 64.5t-12 37t-26 23.5l2 10q63 -5 100.5 -20t52.5 -50.5t10 -102.5l-9 -108q-1 -18 4.5 -29.5t22.5 -11.5zM389 360q-54 -15 -73.5 -11t-17.5 20
q1 15 20 19.5t71 -10.5v-18zM617 683q-22 -23 -36 -61.5t-27.5 -82.5t-34 -83.5t-54.5 -64t-89 -23.5l2 10q51 5 81.5 31t48.5 65t30.5 81.5t26.5 79.5t37 60q17 16 34.5 21.5t33.5 5.5q41 0 62.5 -22.5t20.5 -57.5q-1 -28 -20.5 -57.5t-59.5 -29.5q-26 0 -42 16.5t-16 42.5
q1 24 17.5 48.5t43.5 38.5q-3 0 -5.5 1t-7.5 1q-16 -1 -26 -6t-20 -14zM509 870q43 17 99.5 34.5t114.5 28.5l5 -14q-80 -25 -148.5 -64.5t-110.5 -82.5h-18q-23 50 -54 86t-85 61l4 14q71 -13 112.5 -28.5t80.5 -34.5z" />
    </font>
</defs>
</svg>
