<?xml version="1.0" standalone="no"?>
<!DOCTYPE svg PUBLIC "-//W3C//DTD SVG 1.1//EN" "http://www.w3.org/Graphics/SVG/1.1/DTD/svg11.dtd" >
<svg xmlns="http://www.w3.org/2000/svg" xmlns:xlink="http://www.w3.org/1999/xlink" version="1.1">
<metadata>
Created by FontForge 20170731 at Tue Mar 19 18:39:57 2019
 By Aleksey,,,
Copyright 2017 The Playfair Display Project Authors (https://github.com/clauseggers/Playfair-Display), with Reserved Font Name "Playfair Display".
</metadata>
<defs>
<font id="PlayfairDisplay-ExtraBoldItalic" horiz-adv-x="0" >
  <font-face 
    font-family="Playfair Display ExtraBold"
    font-weight="800"
    font-style="italic"
    font-stretch="normal"
    units-per-em="1000"
    panose-1="0 0 0 0 0 0 0 0 0 0"
    ascent="800"
    descent="-200"
    x-height="526"
    cap-height="708"
    bbox="-370 -247 1252 1191"
    underline-thickness="20"
    underline-position="-130"
    slope="-14"
    unicode-range="U+000D-FB02"
  />
<missing-glyph horiz-adv-x="562" 
d="M60 772h442v-772h-442v772zM96 30h370v712h-370v-712z" />
    <glyph glyph-name="IJ" unicode="IJ" horiz-adv-x="862" 
d="M843 366l-1.5 -10l-1.5 -10h-409l1.5 10l1.5 10h409zM319 473q56 0 91 9.5t68 26.5l7 -18q-33 -17 -71.5 -28.5t-97.5 -11.5q-61 0 -110.5 16t-78.5 49.5t-29 85.5q0 60 46 98.5t136 38.5q66 0 114 -15t89 -34.5t86.5 -34.5t107.5 -15q45 0 101 9t105 28q21 32 41 49
t35 4q12 -10 -1 -27t-66 -37q-64 -57 -100 -146.5t-65 -205.5l-62 -249q-16 -68 -53.5 -126t-101 -92.5t-160.5 -34.5q-63 0 -107.5 18.5t-44.5 63.5q-1 35 23.5 58.5t69.5 23.5q38 0 64 -17t26 -50q0 -26 -15.5 -45.5t-44.5 -32.5q8 -1 14 -1.5t12 -0.5q26 0 44.5 14
t32.5 41.5t26.5 68t25.5 92.5l62 224q21 75 51.5 131t71 99t90 79.5t107.5 74.5q-50 -13 -87.5 -30t-71 -32.5t-70 -25.5t-83.5 -10q-41 0 -77 7.5t-70.5 16.5t-69.5 16.5t-74 7.5q-35 0 -55.5 -12.5t-20.5 -40.5q0 -24 16.5 -41t48 -26.5t75.5 -9.5zM226 470h181l-112 -364
q-17 -53 -5 -68.5t64 -17.5l-4 -20q-30 2 -78 2.5t-97 0.5q-51 0 -95.5 -0.5t-71.5 -2.5l5 20q33 2 50.5 8t28.5 24t22 54z" />
    <glyph glyph-name="ij" unicode="ij" horiz-adv-x="641" 
d="M278 92q22 49 31.5 108t18 119t28.5 111q24 58 68 80t91 22q50 0 71 -21t23.5 -53.5t-7.5 -65.5l-76 -277q-19 -69 -38.5 -116t-43 -78.5t-54.5 -52.5q-44 -36 -90.5 -46t-79.5 -10q-57 0 -84 17.5t-27 47.5q0 33 24 55t58 22q31 0 49.5 -18t18.5 -41q0 -18 -10.5 -36.5
t-31.5 -31.5q38 5 60.5 28.5t38.5 79.5l140 498q6 23 0.5 34.5t-18.5 11.5q-21 0 -38.5 -18.5t-32.5 -56.5q-15 -45 -22.5 -102t-18 -116t-34.5 -112q-24 -54 -63.5 -71t-83.5 -17q-79 0 -106.5 42t-0.5 124l95 281q9 24 6 35t-16 11q-16 0 -30 -16t-30 -55l-21 -56h-19
l28 77q20 57 58 80t86 23q49 0 71 -21.5t24.5 -53.5t-8.5 -65l-105 -307q-8 -24 -1.5 -39t27.5 -15t41 15t34 46zM175 677q0 49 32.5 75t80.5 26q40 0 60.5 -16.5t20.5 -48.5q0 -43 -32.5 -71t-80.5 -28q-39 0 -60 16.5t-21 46.5zM501 677q0 49 32 75t80 26q40 0 60.5 -16.5
t20.5 -48.5q0 -43 -32.5 -71t-80.5 -28q-39 0 -59.5 16.5t-20.5 46.5z" />
    <glyph glyph-name="fi" unicode="fi" horiz-adv-x="611" 
d="M51 497l6 20h431l-6 -20h-431zM609 746q-16 9 -33.5 14t-46.5 5q-40 0 -71 -7.5t-54 -22.5q-33 -21 -54 -60t-37 -99l-203 -750q-48 -1 -86.5 -4t-75.5 -10l187 691q23 82 57.5 137t87.5 86q54 33 113.5 44.5t133.5 11.5q29 0 58.5 -6.5t45.5 -24.5zM454 680
q1 48 33.5 71t78.5 23q41 0 62 -18.5t20 -45.5q-1 -42 -34 -69t-80 -27q-39 0 -60 17.5t-20 48.5zM460 85q-7 -26 -3 -36t16 -10q11 0 26 13t32 58l20 52h19l-25 -73q-14 -41 -39 -63.5t-53 -31t-51 -8.5q-43 0 -66 20.5t-26 58t12 87.5l106 365q46 1 87 4.5t76 10.5z" />
    <glyph glyph-name="fl" unicode="fl" horiz-adv-x="620" 
d="M467 85q-7 -25 -0.5 -35.5t17.5 -10.5q8 0 23.5 12t31.5 59l20 52h19l-25 -73q-15 -42 -38 -64t-49 -30.5t-51 -8.5q-42 0 -67 20t-29.5 57t10.5 89l155 515q10 34 -2 50.5t-61 16.5l7 20q77 1 136 11.5t114 29.5zM51 497l6 20h326l-6 -20h-326zM428 734q-17 0 -31 -4
t-25 -12q-15 -12 -26 -34t-20 -58l-215 -800q-48 -1 -87 -4t-76 -10l187 691q18 71 44.5 119.5t66.5 78.5q35 27 82 40t104 13h36l-1 -20h-39z" />
    <glyph glyph-name="f_f" unicode="ff" horiz-adv-x="678" 
d="M47 498l6 20h351l-6 -20h-351zM124 -174q-48 -1 -86.5 -4t-76.5 -10l179 664q22 82 55 135.5t69 79.5t80.5 38.5t93.5 12.5q46 0 79 -14.5t50 -30.5l-11 -15q-12 13 -31 22t-50 9q-36 0 -65 -17t-52 -55t-41 -100zM381 498l6 20h343l-6 -20h-343zM760 763
q-15 0 -27.5 -4.5t-23.5 -13.5q-17 -15 -29.5 -46.5t-25.5 -77.5l-213 -795q-48 -1 -86.5 -4t-76.5 -10l187 694q22 87 52 143t71 88q31 23 67.5 34t78.5 11q69 0 107 -28t38 -76q0 -33 -27.5 -63.5t-72.5 -30.5q-33 0 -52.5 16t-19.5 46q0 35 22 64t61 43q-6 5 -13.5 7.5
t-16.5 2.5z" />
    <glyph glyph-name="f_f_i" unicode="ffi" horiz-adv-x="930" 
d="M47 497l6 20h351l-6 -20h-351zM123 -174q-48 -1 -86.5 -4t-75.5 -10l179 664q22 82 55.5 135t68.5 80q35 25 77 38t90 13q58 0 94 -17t56 -38l-10 -15q-14 18 -38 29.5t-59 11.5q-22 0 -41 -5.5t-36 -17.5q-24 -17 -43.5 -52.5t-35.5 -96.5zM370 497l6 20h431l-7 -20
h-430zM928 746q-17 9 -34 14t-46 5q-40 0 -71 -7.5t-54 -22.5q-34 -21 -54.5 -60t-36.5 -99l-203 -750q-48 -1 -86.5 -4t-76.5 -10l188 691q23 82 57.5 137t87.5 86q53 33 113 44.5t133 11.5q30 0 59.5 -6.5t45.5 -24.5zM773 680q1 48 33.5 71t78.5 23q41 0 61.5 -18.5
t19.5 -45.5q-1 -42 -33.5 -69t-79.5 -27q-39 0 -60 17.5t-20 48.5zM779 85q-7 -26 -3 -36t16 -10q11 0 26 13t32 58l20 52h19l-26 -73q-14 -41 -38.5 -63.5t-52.5 -31t-52 -8.5q-43 0 -66 20.5t-25.5 58t11.5 87.5l106 365q47 1 87.5 4.5t75.5 10.5z" />
    <glyph glyph-name="f_f_l" unicode="ffl" horiz-adv-x="940" 
d="M47 497l6 20h351l-6 -20h-351zM123 -174q-48 -1 -86.5 -4t-75.5 -10l179 664q22 82 55.5 135t68.5 80q35 25 77 38t90 13q58 0 94 -17t56 -38l-10 -15q-14 18 -38 29.5t-59 11.5q-23 0 -44 -6t-38 -21q-23 -18 -41 -52.5t-33 -92.5zM787 85q-7 -25 -1 -35.5t17 -10.5
q8 0 23.5 12t32.5 59l20 52h19l-25 -73q-15 -42 -38.5 -64t-49.5 -30.5t-50 -8.5q-42 0 -67 20t-30 57t11 89l155 515q10 34 -2 50.5t-61 16.5l7 20q76 1 135.5 11.5t114.5 29.5zM371 497l6 20h326l-6 -20h-326zM748 734q-18 0 -31.5 -4t-24.5 -12q-15 -12 -26 -34t-21 -58
l-215 -800q-48 -1 -86.5 -4t-75.5 -10l186 691q19 71 45.5 119.5t66.5 78.5q35 27 82 40t104 13h36l-1 -20h-39z" />
    <glyph glyph-name="T_h.liga" unicode="Th" horiz-adv-x="1187" 
d="M767 144q37 116 71 191.5t67.5 118.5t71.5 60.5t82 17.5q41 0 62.5 -19.5t24.5 -53t-12 -78.5l-98 -296q-9 -24 -4.5 -35t16.5 -11q11 0 26 12.5t32 58.5l20 52h19l-25 -73q-22 -63 -61.5 -83t-77.5 -20q-66 0 -88.5 41.5t4.5 124.5l88 264q6 18 8.5 31.5t-1 21
t-14.5 7.5q-29 0 -68 -54t-81 -158.5t-83 -257.5zM791 762q47 4 88.5 12t79.5 21l-214 -795h-16.5h-40h-47h-39.5h-16zM393 688l18 -1.5t44 -4l52 -5t44 -4l18 -1.5l-147 -556q-14 -53 1 -72.5t74 -23.5l-4 -20q-33 2 -86.5 2.5t-110.5 0.5q-55 0 -105.5 -0.5t-80.5 -2.5
l4 20q42 2 66.5 10.5t38 29t22.5 56.5zM809 683q-35 -17 -75.5 -23t-88.5 -6q-49 0 -112 8t-127 16t-116 8q-35 0 -65 -4t-48 -13q32 -6 53 -29.5t21 -59.5q0 -39 -24.5 -65.5t-62.5 -26.5q-39 0 -60 26.5t-21 61.5q0 25 14 54.5t55 49.5q24 12 49.5 17t48.5 6t36 1
q66 0 130 -7.5t124.5 -15t114.5 -7.5q53 0 84.5 7t64.5 21z" />
    <glyph glyph-name="f_b.liga" unicode="fb" horiz-adv-x="879" 
d="M51 497l6 20h326l-6 -20h-326zM438 734q-40 0 -66 -19.5t-43 -75.5l-218 -813q-48 -1 -87 -4t-76 -10l188 696q23 84 61 138t98 81t148 27zM659 472q-18 0 -38.5 -21.5t-41 -60t-38.5 -86.5t-31 -102l19 100q45 122 90 176t104 54q65 0 97.5 -41t32.5 -118
q0 -46 -13.5 -99t-40 -104t-65 -92.5t-88 -66.5t-110.5 -25q-28 0 -51 10t-35 26l8 14q9 -10 19 -14.5t23 -4.5q28 0 55.5 25t51 67t42 93.5t28.5 105t10 101.5q0 37 -7.5 50t-20.5 13zM461 18q-36 5 -77.5 -6.5t-77.5 -27.5l-15 7q7 14 12 28.5t9 30.5l172 617
q7 34 -2.5 50.5t-46.5 16.5l6 20q72 1 128.5 11.5t107.5 29.5z" />
    <glyph glyph-name="f_f_b.liga" unicode="ffb" horiz-adv-x="1200" 
d="M47 497l6 20h351l-6 -20h-351zM123 -174q-48 -1 -86.5 -4t-75.5 -10l179 664q22 82 55.5 135t68.5 80q35 25 77 38t90 13q56 0 93.5 -16.5t57.5 -37.5l-9 -14q-16 17 -40 28t-59 11q-37 0 -66 -16t-51 -53.5t-39 -102.5zM372 497l6 20h326l-6 -20h-326zM758 734
q-40 0 -66 -19.5t-42 -75.5l-219 -813q-48 -1 -86.5 -4t-76.5 -10l188 696q24 84 61.5 138t97.5 81t148 27zM979 472q-18 0 -38.5 -21.5t-41 -60t-38 -86.5t-30.5 -102l18 100q45 122 90 176t104 54q66 0 98.5 -41t32.5 -118q0 -46 -14 -99t-40.5 -104t-64.5 -92.5
t-88 -66.5t-110 -25q-29 0 -51.5 10t-34.5 26l7 14q9 -10 19 -14.5t23 -4.5q29 0 56.5 25t51 67t41.5 93.5t28.5 105t10.5 101.5q0 37 -8 50t-21 13zM781 18q-36 5 -77 -6.5t-78 -27.5l-15 7q7 14 12.5 28.5t8.5 30.5l173 617q7 34 -3 50.5t-47 16.5l7 20q72 1 128 11.5
t108 29.5z" />
    <glyph glyph-name="f_f_h.liga" unicode="ffh" horiz-adv-x="1216" 
d="M47 497l6 20h351l-6 -20h-351zM123 -174q-48 -1 -86.5 -4t-75.5 -10l179 664q22 82 55.5 135t68.5 80q35 26 77 38.5t90 12.5q58 0 94 -17t56 -38l-10 -15q-14 18 -38 29.5t-59 11.5q-37 0 -66 -16t-51 -53.5t-39 -102.5zM370 497l6 20h327l-6 -20h-327zM795 144
q37 116 71 191.5t67.5 118.5t71.5 60.5t83 17.5q41 0 62 -19.5t24 -53.5t-12 -78l-98 -296q-9 -25 -4 -35.5t17 -10.5q11 0 25.5 12.5t31.5 58.5l20 52h19l-25 -73q-22 -63 -61.5 -83t-77.5 -20q-66 0 -88.5 41.5t5.5 124.5l87 264q6 17 8.5 31t-1 21.5t-14.5 7.5
q-22 0 -52 -40t-62.5 -107.5t-63 -151t-53.5 -171.5zM773 0h-159l188 667q7 34 -1.5 50.5t-45.5 16.5l7 20q72 1 127 11.5t107 29.5zM757 734q-40 0 -66.5 -19t-42.5 -76l-218 -813q-48 -1 -86.5 -4t-76.5 -10l188 696q34 125 104 185.5t203 60.5z" />
    <glyph glyph-name="f_f_j.liga" unicode="ffj" horiz-adv-x="920" 
d="M47 497l6 20h351l-6 -20h-351zM123 -174q-48 -1 -86.5 -4t-75.5 -10l179 664q22 82 55.5 135t68.5 80q35 26 77 38.5t90 12.5q58 0 94 -17t56 -38l-10 -15q-14 18 -38 29.5t-59 11.5q-37 0 -66 -16t-51 -53.5t-39 -102.5zM806 115q-18 -69 -38 -116t-43 -78.5t-55 -52.5
q-44 -36 -90 -46t-80 -10q-57 0 -84 17.5t-27 47.5q0 33 24 55t58 22q32 0 50 -18t18 -41q0 -18 -10.5 -36.5t-31.5 -31.5q38 5 60.5 28.5t38.5 79.5l163 582q47 1 87.5 4.5t75.5 10.5zM370 497l6 20h431l-7 -20h-430zM932 748q-15 7 -32.5 12t-43.5 5q-66 0 -109.5 -21
t-70.5 -62.5t-45 -105.5l-154 -576h-159l136 503q22 82 57.5 137t88.5 86q54 33 116 44.5t137 11.5q31 0 58.5 -6.5t42.5 -21.5zM781 680q1 48 33 71t79 23q40 0 61 -18.5t20 -45.5q-1 -42 -33.5 -69t-79.5 -27q-39 0 -60 17.5t-20 48.5z" />
    <glyph glyph-name="f_f_k.liga" unicode="ffk" horiz-adv-x="1199" 
d="M47 497l6 20h351l-6 -20h-351zM123 -174q-48 -1 -86.5 -4t-75.5 -10l179 664q22 82 55.5 135t68.5 80q35 26 77 38.5t90 12.5q58 0 94 -17t56 -38l-10 -15q-14 18 -38 29.5t-59 11.5q-37 0 -66 -16t-51 -53.5t-39 -102.5zM370 497l6 20h327l-6 -20h-327zM757 734
q-40 0 -66.5 -19t-42.5 -76l-218 -813q-48 -1 -86.5 -4t-76.5 -10l188 696q34 125 104 185.5t203 60.5zM773 0h-16.5h-39.5h-47h-40h-16l188 667q10 34 1 50.5t-46 16.5l5 20q52 1 90.5 5.5t73 13.5t70.5 22zM1048 81q-5 -25 -1 -33.5t14 -8.5q11 0 26 13t31 58l20 52h19
l-25 -73q-15 -42 -40 -64t-54 -30.5t-58 -8.5q-55 0 -76.5 31.5t-9.5 90.5l17 74q14 53 -3 75.5t-74 28.5v4q46 3 91 -0.5t79.5 -18t51 -44.5t5.5 -80zM1080 513q-13 0 -23.5 -4t-20.5 -12q-17 -14 -27.5 -40t-21.5 -55.5t-26.5 -55.5t-42.5 -43t-72 -16l-10 -1l2 11
q44 3 69 20.5t39.5 43t24.5 53.5t20.5 53.5t29.5 41.5q16 13 33 18t30 5q54 0 79.5 -30.5t24.5 -72.5q0 -43 -26.5 -68.5t-65.5 -25.5q-36 0 -54.5 19.5t-18.5 44.5q0 36 24 62.5t54 40.5q-4 5 -9.5 8t-11.5 3z" />
    <glyph glyph-name="f_h.liga" unicode="fh" horiz-adv-x="896" 
d="M51 497l6 20h326l-6 -20h-326zM476 144q37 116 71 191.5t67.5 118.5t71.5 60.5t82 17.5q42 0 63 -19.5t24 -53.5t-12 -78l-98 -296q-9 -25 -4 -35.5t16 -10.5t26 12.5t32 58.5l20 52h19l-25 -73q-22 -63 -61.5 -83t-77.5 -20q-66 0 -88.5 41.5t4.5 124.5l88 264
q6 17 8.5 31t-1 21.5t-14.5 7.5q-22 0 -52 -40t-62.5 -107.5t-63 -151t-54.5 -171.5zM454 0h-159l188 667q7 34 -2 50.5t-46 16.5l8 20q72 1 127 11.5t107 29.5zM438 734q-40 0 -66.5 -19t-42.5 -76l-218 -813q-48 -1 -87 -4t-76 -10l188 696q34 125 104 185.5t203 60.5z
" />
    <glyph glyph-name="f_idieresis.liga" unicode="f&#xef;" horiz-adv-x="609" 
d="M51 497l6 20h432l-7 -20h-431zM476 735q-8 11 -23.5 21t-34.5 10q-28 0 -48.5 -7.5t-34.5 -21.5q-22 -20 -29.5 -51.5t-8.5 -65.5t0.5 -64t-3.5 -49l-183 -681q-48 -1 -87 -4t-76 -10l187 691q22 81 51.5 138.5t73.5 91.5q31 22 68.5 33.5t83.5 11.5q29 0 52.5 -10
t34.5 -28zM459 85q-8 -26 -3.5 -36t15.5 -10q12 0 27 13t31 58l20 52h19l-25 -73q-14 -41 -39 -63.5t-53 -31t-51 -8.5q-62 0 -81 45t3 121l106 365q46 1 87 4.5t76 10.5zM350 675q0 46 28.5 68.5t64.5 22.5t53 -20t17 -52q0 -47 -29.5 -68.5t-64.5 -21.5q-36 0 -52.5 19.5
t-16.5 51.5zM583 675q0 46 28.5 68.5t64.5 22.5t53 -20t17 -52q0 -47 -29.5 -68.5t-64.5 -21.5q-36 0 -52.5 19.5t-16.5 51.5z" />
    <glyph glyph-name="f_igrave.liga" unicode="f&#xec;" horiz-adv-x="609" 
d="M51 497l6 20h432l-7 -20h-431zM474 667q-24 25 -42 38.5t-38 13.5q-18 0 -30.5 -14t-23.5 -41.5t-22 -69.5l-207 -768q-48 -1 -87 -4t-76 -10l187 691q25 94 62 145t81.5 71t88.5 20q32 0 58 -13.5t50 -44.5zM459 85q-8 -26 -3.5 -36t15.5 -10q12 0 27 13t31 58l20 52h19
l-25 -73q-14 -41 -39 -63.5t-53 -31t-51 -8.5q-62 0 -81 45t3 121l106 365q46 1 87 4.5t76 10.5zM537 599q-39 47 -68 74t-49.5 46t-33.5 41q-14 23 -10 47.5t24 36.5q24 15 50 6t39 -30q15 -22 20 -49.5t12.5 -66t28.5 -98.5z" />
    <glyph glyph-name="f_j.liga" unicode="fj" horiz-adv-x="601" 
d="M488 115q-19 -69 -38.5 -116t-43 -78.5t-54.5 -52.5q-45 -36 -91 -46t-79 -10q-58 0 -84.5 17.5t-26.5 47.5q0 33 23.5 55t58.5 22q31 0 49 -18t18 -41q0 -18 -10.5 -36.5t-30.5 -31.5q38 5 60.5 28.5t38.5 79.5l163 582q46 1 87 4.5t76 10.5zM51 497l6 20h431l-6 -20
h-431zM613 748q-15 7 -32 12t-44 5q-66 0 -109.5 -21t-70 -62.5t-44.5 -105.5l-155 -576h-159l136 503q23 82 58.5 137t87.5 86q55 33 116.5 44.5t137.5 11.5q30 0 58 -6.5t42 -21.5zM462 680q1 48 33.5 71t78.5 23q41 0 62 -18.5t20 -45.5q-1 -42 -34 -69t-80 -27
q-39 0 -60 17.5t-20 48.5z" />
    <glyph glyph-name="f_k.liga" unicode="fk" horiz-adv-x="880" 
d="M51 497l6 20h326l-6 -20h-326zM438 734q-40 0 -66.5 -19t-42.5 -76l-218 -813q-48 -1 -87 -4t-76 -10l188 696q34 125 104 185.5t203 60.5zM454 0h-16.5h-39.5h-47h-40h-16l188 667q10 34 1 50.5t-46 16.5l5 20q51 1 89.5 5.5t73 13.5t71.5 22zM728 81q-4 -25 0 -33.5
t14 -8.5q11 0 26 13t31 58l19 52h19l-24 -73q-15 -42 -40 -64t-54 -30.5t-58 -8.5q-55 0 -77 31.5t-9 90.5l17 74q14 53 -3 75.5t-74 28.5v4q46 3 91 -0.5t79.5 -18t51 -44.5t5.5 -80zM761 513q-13 0 -23.5 -4t-20.5 -12q-17 -14 -28 -40t-21.5 -55.5t-26 -55.5t-42.5 -43
t-72 -16l-10 -1l2 11q44 3 69 20.5t39.5 43t24 53.5t20.5 53.5t30 41.5q16 13 33 18t30 5q54 0 79 -30.5t25 -72.5q0 -43 -26.5 -68.5t-65.5 -25.5q-36 0 -54.5 19.5t-18.5 44.5q0 36 24 62.5t54 40.5q-4 5 -9.5 8t-11.5 3z" />
    <glyph glyph-name=".notdef" horiz-adv-x="562" 
d="M60 772h442v-772h-442v772zM96 30h370v712h-370v-712z" />
    <glyph glyph-name=".null" 
 />
    <glyph glyph-name="nonmarkingreturn" horiz-adv-x="333" 
 />
    <glyph glyph-name="CR" unicode="&#xd;" 
 />
    <glyph glyph-name="space" unicode=" " horiz-adv-x="256" 
 />
    <glyph glyph-name="exclam" unicode="!" horiz-adv-x="331" 
d="M128 199q16 69 20.5 135.5t4 130t2.5 122.5q1 32 7.5 66.5t20.5 63.5t37.5 47t58.5 18q37 0 57 -22t18 -64q-2 -50 -26 -106t-59 -118.5t-68.5 -131t-54.5 -144.5zM30 49q0 44 30.5 72t74.5 28q35 0 54 -16.5t19 -48.5q0 -38 -31 -68t-74 -30q-35 0 -54 16.5t-19 46.5z
" />
    <glyph glyph-name="quotedbl" unicode="&#x22;" horiz-adv-x="422" 
d="M289 678q0 -32 -20 -64t-46 -65.5t-45 -70.5h-14q-3 40 -9.5 67t-11 48.5t-3.5 43.5q1 37 26 65t65 28q26 0 41.5 -14t16.5 -38zM469 678q0 -32 -20 -64t-46 -65.5t-45 -70.5h-14q-3 40 -9.5 67t-11 48.5t-3.5 43.5q1 37 26 65t65 28q26 0 41.5 -14t16.5 -38z" />
    <glyph glyph-name="numbersign" unicode="#" horiz-adv-x="621" 
d="M624 454l-8 -20h-501l8 20h501zM538 267l-10 -20h-500l9 20h501zM318 101h-24l232 501h24zM131 101h-24l232 501h24z" />
    <glyph glyph-name="dollar" unicode="$" horiz-adv-x="629" 
d="M425 840l-270 -972h-22l270 972h22zM513 840l-270 -972h-22l270 972h22zM391 700q-46 0 -80 -24.5t-34 -73.5q0 -39 28.5 -76t71.5 -73.5t85 -75t71 -81.5t29 -93q0 -64 -29.5 -106.5t-75.5 -66.5t-97.5 -34t-97.5 -10q-65 0 -107.5 13t-79.5 35q-34 22 -52.5 52.5
t-18.5 68.5q0 47 22.5 79t60.5 32q35 0 56.5 -25.5t21.5 -65.5q0 -42 -18 -77.5t-32 -56.5q24 -16 57.5 -24.5t75.5 -8.5q78 0 108.5 28t30.5 76q0 38 -27 73.5t-65.5 71t-78 73.5t-66 81t-26.5 94q0 61 23.5 103t61.5 67t82.5 36t86.5 11q66 0 109 -13t79 -35
q34 -21 52 -51.5t18 -69.5q0 -47 -21.5 -79t-60.5 -32q-36 0 -57 25.5t-21 65.5q0 42 18 77.5t31 56.5q-23 16 -57.5 24.5t-76.5 8.5z" />
    <glyph glyph-name="percent" unicode="%" horiz-adv-x="806" 
d="M335 747q-26 0 -46.5 -24t-34 -61.5t-20.5 -77.5t-7 -71q0 -63 28 -63q26 0 46.5 24.5t34 62t20.5 77.5t7 71q0 62 -28 62zM112 556q0 49 30 96t82.5 78t118.5 31q63 0 99 -31.5t36 -88.5q0 -48 -29.5 -95.5t-81.5 -78.5t-119 -31q-63 0 -99.5 31.5t-36.5 88.5zM594 297
q-26 0 -46.5 -24.5t-34 -62t-20.5 -77t-7 -70.5q0 -63 28 -63q27 0 47 24t33.5 61.5t20.5 78t7 71.5q0 62 -28 62zM371 106q0 49 30 96t82.5 78t118.5 31q64 0 99.5 -31.5t35.5 -88.5q0 -48 -29.5 -95.5t-81.5 -78.5t-119 -31q-63 0 -99.5 31.5t-36.5 88.5zM842 824l15 -13
l-833 -866l-15 13z" />
    <glyph glyph-name="ampersand" unicode="&#x26;" horiz-adv-x="879" 
d="M572 210q-11 -24 -42 -50t-83 -26q-31 0 -59.5 12t-46.5 38.5t-18 68.5q0 62 44.5 107.5t133.5 73.5q40 13 85 27t90.5 28.5t87.5 28.5q29 10 58.5 22t49.5 31.5t20 51.5q0 39 -29 60.5t-70 21.5q-18 0 -28 -5q51 -20 51 -65q0 -36 -31 -57t-66 -21q-36 0 -59 20t-23 51
q0 29 18.5 49t47.5 31q21 9 44 11.5t40 2.5q59 0 99 -30.5t40 -109.5q0 -87 -54.5 -135.5t-157.5 -81.5q-37 -13 -78 -26.5t-82.5 -26t-79.5 -25.5q-28 -9 -48.5 -20.5t-31 -26.5t-10.5 -34q0 -29 21 -40.5t46 -11.5q29 0 50.5 11t35 26t19.5 26zM465 574q22 0 37 13.5
t15 33.5t-17 33t-46 13q-34 0 -64.5 -17.5t-50 -49t-19.5 -73.5q0 -10 2 -20.5t5 -20.5q18 3 36 4.5t27 1.5q36 0 36 -21q0 -11 -10 -16t-21 -5q-19 0 -38.5 8.5t-30.5 13.5q-48 -19 -80.5 -78.5t-32.5 -131.5q0 -61 25.5 -102.5t74.5 -62.5t118 -21q65 0 126 19.5
t100.5 60.5t39.5 106q0 38 -18.5 73.5t-65.5 56.5l11 10q45 -20 69 -59t24 -89q0 -47 -22 -94t-68 -86.5t-116 -63.5t-165 -24q-90 0 -162.5 24.5t-115 74t-42.5 123.5q0 67 35 122t99.5 94t152.5 56q-49 15 -71.5 42.5t-22.5 59.5q0 40 29 66.5t73.5 40t91.5 13.5
q66 0 96.5 -22t30.5 -56q0 -35 -25 -51.5t-50 -16.5v18z" />
    <glyph glyph-name="quotesingle" unicode="'" horiz-adv-x="242" 
d="M289 678q0 -32 -20 -64t-46 -65.5t-45 -70.5h-14q-3 40 -9.5 67t-11 48.5t-3.5 43.5q1 37 26 65t65 28q26 0 41.5 -14t16.5 -38z" />
    <glyph glyph-name="parenleft" unicode="(" horiz-adv-x="408" 
d="M252 -182q-66 57 -114.5 117t-75.5 130t-27 158q0 84 36 165.5t101 157.5t153 142t191 118l10 -13q-101 -74 -176 -161.5t-116.5 -197.5t-41.5 -250q0 -102 19 -184.5t59 -168.5z" />
    <glyph glyph-name="parenright" unicode=")" horiz-adv-x="409" 
d="M166 806q66 -57 114.5 -117t75.5 -130t27 -158q0 -84 -36 -165.5t-101 -157.5t-153 -142t-191 -118l-10 13q101 74 176 161.5t116.5 197.5t41.5 250q0 102 -19 184.5t-59 168.5z" />
    <glyph glyph-name="asterisk" unicode="*" horiz-adv-x="481" 
d="M300 518q33 56 57.5 92.5t30.5 64.5q8 30 -6 42t-33 12q-20 0 -39 -12t-27 -42q-6 -28 0.5 -66t13.5 -91h3zM299 519q-28 46 -44 77.5t-37 45.5q-22 15 -42.5 7t-34.5 -26q-14 -17 -16.5 -37.5t19.5 -35.5q20 -13 60 -18.5t92 -15.5zM298 518q-61 -10 -101 -14.5
t-69 -18.5q-30 -16 -37 -35.5t-1 -37.5q5 -17 22 -25.5t47 6.5q27 14 60 47t79 76v2zM297 517q-33 -55 -57 -91t-32 -65q-7 -30 6.5 -42t33.5 -12q19 0 38.5 12t26.5 42q8 29 1 66.5t-13 90.5zM455 413q14 17 17 37.5t-20 35.5q-20 14 -59.5 19t-92.5 15l-3 -3
q28 -45 44 -77t37 -46q23 -15 43.5 -7t33.5 26zM506 624q-5 17 -22 25.5t-47 -6.5q-27 -14 -59.5 -47t-79.5 -76v-3q62 11 102 15.5t68 18.5q30 15 37.5 35t0.5 38z" />
    <glyph glyph-name="plus" unicode="+" horiz-adv-x="572" 
d="M57 370h233l67 236h36l-67 -236h232l-9 -30h-232l-67 -235h-36l67 235h-233z" />
    <glyph glyph-name="comma" unicode="," horiz-adv-x="298" 
d="M179 72q0 -67 -39.5 -122.5t-109.5 -86.5l-5 17q42 19 74 55t35 81q-13 -14 -30 -22t-36 -8q-70 0 -70 60q0 29 14 52.5t39 37t55 13.5q35 0 54 -18.5t19 -58.5z" />
    <glyph glyph-name="hyphen" unicode="-" horiz-adv-x="506" 
d="M78 313h361l-25 -90h-361z" />
    <glyph glyph-name="period" unicode="." horiz-adv-x="290" 
d="M-1 49q0 44 30 72t74 28q35 0 54.5 -16.5t19.5 -48.5q0 -38 -31 -68t-75 -30q-34 0 -53 16.5t-19 46.5z" />
    <glyph glyph-name="slash" unicode="/" horiz-adv-x="458" 
d="M-46 -14l548 736h33l-548 -736h-33z" />
    <glyph glyph-name="zero" unicode="0" horiz-adv-x="640" 
d="M390 532q98 0 153.5 -49.5t55.5 -134.5q0 -67 -29 -131.5t-79.5 -117t-117 -83t-140.5 -30.5q-97 0 -154.5 49t-57.5 135q0 68 29.5 132.5t80.5 116.5t117.5 82.5t141.5 30.5zM375 514q-43 0 -78 -32.5t-60 -86.5t-38.5 -119t-13.5 -129q0 -76 18.5 -109.5t44.5 -33.5
q43 0 77.5 33.5t59 88t37.5 119.5t13 128q0 75 -17 108t-43 33z" />
    <glyph glyph-name="one" unicode="1" horiz-adv-x="381" 
d="M364 529l-159 -529h-159l125 419q-25 -9 -54 -17t-73 -19l3 21q114 27 181 60.5t116 64.5h20z" />
    <glyph glyph-name="two" unicode="2" horiz-adv-x="545" 
d="M323 532q79 0 124 -29t45 -78q0 -37 -24.5 -70.5t-63.5 -62.5t-83.5 -55.5t-86.5 -49.5t-72 -44q23 0 51.5 -7t59.5 -14t63 -7q39 0 65 12t26 36q0 28 -34 47l10 13q30 -16 43 -37t13 -50q0 -34 -17 -67t-53 -54t-96 -21q-49 0 -95.5 14t-103.5 16q-39 2 -64 -4.5
t-56 -19.5l5 21q23 19 65.5 50t92.5 71t95 86.5t74 96t29 98.5q0 41 -20.5 60t-55.5 19q-40 0 -80 -22.5t-66 -57.5t-26 -73q0 -24 13 -36t44 -12q29 0 49.5 10.5t43.5 30.5l12 -14q-28 -26 -57 -37t-54 -11t-50 13t-25 55q0 44 32.5 86.5t91.5 70t136 27.5z" />
    <glyph glyph-name="three" unicode="3" horiz-adv-x="528" 
d="M312 533q80 0 126.5 -27.5t46.5 -73.5q0 -36 -22 -65.5t-58 -52.5t-77.5 -39t-81.5 -25q57 -1 102.5 -13.5t71.5 -40t26 -72.5q0 -50 -35 -92.5t-92.5 -76t-128 -57t-143 -36t-136.5 -13.5l5 18q59 4 122.5 23t119 53.5t89.5 84t34 115.5q0 40 -13.5 64.5t-39.5 26.5
q-16 -7 -30.5 -12t-27.5 -5q-8 0 -14 3t-3 12q3 14 22 17t45 1q49 21 82.5 60t33.5 95q0 42 -25 66t-72 24q-36 0 -69.5 -17t-55 -43.5t-21.5 -54.5q0 -24 13.5 -36t44.5 -12q34 0 62 15l11 -15q-21 -11 -41.5 -16t-38.5 -5q-25 0 -50 13t-25 55q0 37 32.5 72t87.5 58.5
t123 23.5z" />
    <glyph glyph-name="four" unicode="4" horiz-adv-x="542" 
d="M440 532l5 -23l-482 -449l5 18h505l-8 -28h-525l6 21zM466 532l-181 -673h-159l134 496l180 177h26z" />
    <glyph glyph-name="five" unicode="5" horiz-adv-x="476" 
d="M434 538l12 -7q-25 -68 -63.5 -109t-89.5 -41q-22 0 -47.5 10t-49 19t-43.5 6l-87 -191q32 18 72 27t87 9q93 0 135 -32t42 -88q0 -55 -32 -100t-85.5 -79.5t-119 -58.5t-132 -36.5t-124.5 -14.5l5 18q53 0 109 18t104 52.5t78 84.5t30 114q0 42 -20 67t-69 25
q-15 0 -38 -4.5t-57 -22.5l-10 5l135 309q29 2 53.5 -4.5t50.5 -13.5t58 -7t55.5 9.5t40.5 35.5z" />
    <glyph glyph-name="six" unicode="6" horiz-adv-x="580" 
d="M553 722l6 -20q-65 -19 -130.5 -67t-120 -124t-87.5 -175t-33 -218q0 -67 12 -89.5t33 -22.5q31 0 57.5 30t45.5 76t29.5 97t10.5 92q0 48 -13 66t-31 18q-21 0 -43.5 -22t-38.5 -75l-17 5q15 54 39 86t55.5 45.5t67.5 13.5q63 0 105 -38t42 -114q0 -58 -26.5 -112
t-73 -96.5t-107 -67t-130.5 -24.5q-85 0 -132.5 44.5t-47.5 140.5q0 87 35.5 165.5t93.5 144.5t127.5 116.5t140.5 82.5t131 42z" />
    <glyph glyph-name="seven" unicode="7" horiz-adv-x="509" 
d="M202 523q45 0 82 -10.5t76.5 -22t87.5 -12.5q28 -1 52 6t44 33h28q-65 -74 -115.5 -132t-88.5 -113t-66 -118.5t-50 -147.5q-7 -29 -9.5 -41.5t-3 -19t-3.5 -18.5q-7 -31 -31 -53t-68 -22q-35 0 -50.5 15.5t-17 39.5t4.5 49q14 55 53 113t92 116t111 113t111 103.5
t90 88.5l7.5 1.5l7.5 1.5q-60 -37 -101 -65t-74.5 -43t-72.5 -15q-33 0 -56.5 8.5t-45 16t-47.5 7.5q-29 0 -49 -13t-20 -43q0 -38 31 -61.5t84 -35.5l-5 -17q-67 14 -108.5 48t-41.5 97q0 36 16 69.5t52 55t94 21.5z" />
    <glyph glyph-name="eight" unicode="8" horiz-adv-x="585" 
d="M425 722q73 0 124 -26t51 -82q0 -36 -23 -68.5t-60 -59.5t-79 -49.5t-80 -38.5l-4 6q26 22 47 56.5t33.5 76t12.5 86.5q0 81 -49 81q-26 0 -50 -20t-38.5 -52t-14.5 -69q0 -46 22 -80t54 -62.5t64.5 -57.5t54.5 -64.5t22 -83.5q0 -50 -26 -92t-70.5 -72.5t-101 -47.5
t-117.5 -17q-55 0 -101.5 14t-74.5 43t-28 74q0 43 24.5 80t65.5 69t91 57t100 43l4 -6q-52 -37 -88.5 -106.5t-36.5 -151.5q0 -43 14.5 -70.5t52.5 -27.5q35 0 67.5 23t52.5 61.5t20 83.5q0 49 -21 85t-51.5 65t-61.5 58.5t-52 63.5t-21 80q0 60 38.5 104.5t101 69
t132.5 24.5z" />
    <glyph glyph-name="nine" unicode="9" horiz-adv-x="568" 
d="M352 532q86 0 133 -44t47 -141q0 -84 -34 -160t-91 -140.5t-126 -113.5t-138.5 -80.5t-128.5 -40.5l-6 20q64 18 127.5 65.5t116.5 121.5t85 170t32 211q0 67 -11.5 89.5t-33.5 22.5q-31 0 -57.5 -30t-45.5 -76t-29.5 -96.5t-10.5 -92.5q0 -47 13.5 -65.5t31.5 -18.5
q21 0 43.5 22t38.5 75l16 -5q-14 -54 -38 -86t-55.5 -45.5t-68.5 -13.5q-62 0 -104.5 38t-42.5 114q0 59 26.5 112.5t73 96t107.5 67t130 24.5z" />
    <glyph glyph-name="colon" unicode=":" horiz-adv-x="322" 
d="M113 432q0 44 30 72t74 28q35 0 54.5 -16.5t19.5 -48.5q0 -38 -31 -68t-75 -30q-34 0 -53 16.5t-19 46.5zM13 49q0 44 30 72t74 28q35 0 54.5 -16.5t19.5 -48.5q0 -38 -31 -68t-75 -30q-34 0 -53 16.5t-19 46.5z" />
    <glyph glyph-name="semicolon" unicode=";" horiz-adv-x="328" 
d="M119 432q0 44 30 72t74 28q35 0 54.5 -16.5t19.5 -48.5q0 -38 -31 -68t-75 -30q-34 0 -53 16.5t-19 46.5zM189 72q0 -67 -39.5 -122.5t-109.5 -86.5l-5 17q42 19 74 55t35 81q-13 -14 -30 -22t-36 -8q-70 0 -70 60q0 29 14 52.5t39 37t55 13.5q35 0 54 -18.5t19 -58.5z
" />
    <glyph glyph-name="less" unicode="&#x3c;" horiz-adv-x="591" 
d="M599 582l10 -29l-487 -202l331 -174l-16 -32l-390 210z" />
    <glyph glyph-name="equal" unicode="=" horiz-adv-x="645" 
d="M61 270l9 30h501l-9 -30h-501zM101 410l9 30h501l-9 -30h-501z" />
    <glyph glyph-name="greater" unicode="&#x3e;" horiz-adv-x="593" 
d="M56 155l-10 29l460 192l-370 198l16 29l429 -231z" />
    <glyph glyph-name="question" unicode="?" horiz-adv-x="502" 
d="M297 759q-16 0 -40 -5.5t-40 -19.5q31 2 57.5 -18.5t26.5 -52.5q0 -33 -24.5 -56.5t-60.5 -23.5q-31 0 -56 20t-25 56t20.5 59.5t52.5 37.5t69.5 20t71.5 6q53 0 99.5 -14t76 -41.5t29.5 -70.5q0 -44 -43.5 -90t-139.5 -117q-64 -46 -99 -75.5t-48 -52.5t-13 -50
q0 -26 16 -44.5t51 -18.5q18 0 37 5t33 15q-19 7 -37 24.5t-18 47.5q0 31 21.5 52t55.5 21q26 0 46 -18t20 -46q0 -33 -19 -56.5t-49 -38t-63.5 -21t-62.5 -6.5q-69 0 -117 28.5t-48 88.5q0 39 21.5 71t57 62t76.5 63q71 56 108 93t37 84q0 36 -20.5 59t-59.5 23zM112 49
q0 44 30 72t74 28q35 0 54.5 -16.5t19.5 -48.5q0 -38 -31 -68t-75 -30q-35 0 -53.5 16.5t-18.5 46.5z" />
    <glyph glyph-name="at" unicode="@" horiz-adv-x="868" 
d="M596 61q18 0 54.5 18t75 55t65 94t26.5 136q0 88 -38.5 144.5t-106 83t-155.5 26.5q-110 0 -197 -39.5t-147.5 -105.5t-92.5 -147t-32 -163q0 -79 28 -135t75 -90t107.5 -50t125.5 -16q68 0 132.5 16t118.5 47l6 -13q-45 -29 -110.5 -48t-145.5 -19q-69 0 -133 16.5
t-114.5 52t-80.5 94t-30 143.5t33 169.5t95.5 153.5t154 110.5t207.5 41.5q96 0 168 -29.5t112.5 -90t40.5 -152.5q0 -84 -31 -147t-79 -105.5t-101.5 -64t-98.5 -21.5q-38 0 -56.5 14t-22.5 35.5t0.5 45.5t10.5 46l89 297q34 0 71 3t68 11l-106 -359q-10 -32 -6.5 -45
t20.5 -13zM484 212q-20 -70 -46.5 -111t-58.5 -58t-70 -17q-49 0 -83 28t-34 95q0 51 21 108t58 107.5t85.5 82t103.5 31.5q49 0 63 -29t7 -80l-11 -8q2 16 1 34t-8 31t-25 13q-22 0 -48 -25.5t-50 -67.5t-39 -94t-15 -105q0 -34 8 -50.5t28 -16.5q32 0 57.5 38.5
t50.5 110.5z" />
    <glyph glyph-name="A" unicode="A" horiz-adv-x="661" 
d="M54 137q-29 -41 -28.5 -66t25 -36.5t62.5 -14.5l-4 -20q-47 2 -78 2.5t-58 0.5q-22 0 -36.5 -0.5t-30.5 -2.5l4 20q27 7 52 31t66 82l412 580q15 -2 32.5 -2t30.5 2l40 -629q3 -36 18.5 -49.5t30.5 -14.5l-4 -20q-27 2 -72 2.5t-85 0.5q-48 0 -91 -0.5t-69 -2.5l4 20
q48 2 68.5 17.5t17.5 66.5l-24 449l44 47zM151 288h292l-8 -20h-302z" />
    <glyph glyph-name="B" unicode="B" horiz-adv-x="694" 
d="M450 707q124 0 178 -36t54 -98q0 -52 -35 -96t-100 -72.5t-156 -33.5q120 -2 183 -45t63 -108q0 -52 -24.5 -93t-69 -69t-107.5 -42t-139 -14q-29 0 -69.5 1.5t-106.5 1.5q-39 0 -87.5 -0.5t-78.5 -2.5l4 20q34 2 53 8t30 24t20 54l132 496q8 31 8.5 49.5t-14 27
t-53.5 9.5l5 20q20 -1 48.5 -1.5t59.5 -1t55 -0.5q50 0 82.5 1t64.5 1zM266 359l4 17h69q55 0 91.5 32t55.5 83t19 106q0 40 -13.5 65.5t-52.5 25.5q-26 0 -38 -14t-23 -57l-135 -511q-5 -20 -7.5 -39t6.5 -31.5t37 -12.5q53 0 90 30.5t57.5 79.5t20.5 104q0 50 -23 86
t-82 36h-76z" />
    <glyph glyph-name="C" unicode="C" horiz-adv-x="700" 
d="M757 708q-15 -39 -31 -94.5t-33 -135.5h-22q9 50 8.5 89.5t-16.5 67.5q-19 34 -47.5 47.5t-66.5 13.5q-49 0 -94.5 -25.5t-83.5 -71.5t-66.5 -106.5t-44.5 -130.5t-16 -144q0 -102 36 -150t97 -48q35 0 73.5 16t66.5 46q27 29 46.5 64.5t43.5 93.5h22
q-25 -91 -38.5 -146.5t-20.5 -93.5h-22q3 21 3 34q0 21 -8 25t-25 -8q-40 -28 -88.5 -46.5t-109.5 -18.5q-144 0 -212 66.5t-68 185.5q0 71 23.5 140.5t67 131.5t105 110t136.5 75t161 27q61 0 93.5 -19.5t54.5 -45.5q13 -16 26.5 -3.5t28.5 54.5h21z" />
    <glyph glyph-name="D" unicode="D" horiz-adv-x="787" 
d="M774 463q0 -62 -18.5 -127t-56.5 -125t-97 -108t-140.5 -75.5t-187.5 -27.5q-24 0 -61.5 1.5t-92.5 1.5q-23 0 -54 -0.5t-59.5 -1t-46.5 -1.5l3 20q32 2 50.5 8t29.5 24t20 54l131 496q10 40 2 61.5t-60 24.5l3 20q19 -1 49.5 -2t64.5 -1h64q15 1 43 1.5t57 1t48 0.5
q146 0 227.5 -61.5t81.5 -183.5zM278 18q75 0 133 43.5t97.5 114.5t60.5 155.5t21 165.5q0 94 -34 143.5t-111 49.5q-23 0 -35 -6t-19 -24.5t-16 -55.5l-131 -500q-13 -50 -10.5 -68t44.5 -18z" />
    <glyph glyph-name="E" unicode="E" horiz-adv-x="632" 
d="M234 346l4 20h206l-5 -20h-205zM340 366q35 0 62 17.5t47 44t31 54.5h22q-14 -43 -21 -69t-15 -57q-4 -19 -8.5 -35t-8 -36.5t-10.5 -54.5h-22q1 25 -5.5 52t-26 45.5t-58.5 18.5zM608 528q3 59 -9 93.5t-38 49t-68 14.5h-17q-34 0 -52.5 -5.5t-28.5 -23t-20 -54.5
l-132 -496q-14 -55 -3 -69t60 -14h25q51 0 88 17t68 55.5t62 104.5h22q-5 -13 -10.5 -32t-10.5 -40q-5 -19 -13 -54.5t-14 -73.5q-51 2 -113.5 2.5t-112.5 0.5h-93t-122.5 -0.5t-120.5 -2.5l4 20q34 2 53 8t30 24t20 54l132 496q14 55 2.5 69.5t-61.5 16.5l5 20
q56 -1 120.5 -2t122.5 -1h93q45 0 102 0.5t103 2.5q-13 -35 -21.5 -61t-16.5 -57q-4 -18 -7.5 -34t-5.5 -28h-22z" />
    <glyph glyph-name="F" unicode="F" horiz-adv-x="596" 
d="M241 344l4 20h212l-5 -20h-211zM598 498q7 71 -4.5 112t-40 58t-72.5 17h-13q-30 0 -47 -5.5t-27 -23t-19 -54.5l-132 -496q-9 -36 -6 -54t23 -24t62 -8l-5 -20q-32 2 -83.5 2.5t-104.5 0.5q-54 0 -100 -0.5t-74 -2.5l4 20q34 2 53 8t30 24t20 54l132 496q14 55 2.5 69.5
t-61.5 16.5l5 20q56 -1 120.5 -2t122.5 -1h93q45 0 102 0.5t103 2.5q-13 -36 -21.5 -62.5t-16.5 -57.5q-7 -26 -13 -49t-10 -41h-22zM348 364q34 0 60 16t46 42t34 58h23q-15 -43 -21.5 -69t-14.5 -57q-7 -30 -14 -64.5t-17 -85.5h-22q1 43 -7 74.5t-27 48.5t-52 17z" />
    <glyph glyph-name="G" unicode="G" horiz-adv-x="750" 
d="M348 6q18 0 35 4.5t29 12.5q17 12 24.5 29t15.5 48l23 88q11 41 8.5 61t-22 27t-61.5 8l5 20q32 -1 84.5 -2t95.5 -1q47 0 87.5 1t65.5 2l-5 -20q-22 -1 -34.5 -7t-21 -24t-18.5 -55l-53 -198h-20q2 29 -6.5 43t-27.5 14q-23 0 -49 -13t-50 -24q-38 -19 -70.5 -26.5
t-66.5 -7.5q-132 0 -207 60t-75 169q0 68 23 139t66 137t104 118t137 82.5t164 30.5q65 0 100.5 -19t63.5 -46q15 -15 28 -5t29 56h22q-15 -39 -31 -94.5t-33 -135.5h-22q2 20 3.5 38.5t1.5 36.5q0 21 -2.5 38t-11.5 35q-19 38 -58.5 58t-95.5 20q-60 0 -108.5 -35.5
t-86 -94t-62 -128t-37.5 -139t-13 -125.5q0 -90 33.5 -133t99.5 -43z" />
    <glyph glyph-name="H" unicode="H" horiz-adv-x="828" 
d="M248 346l7 20h353l-8 -20h-352zM616 602q15 55 3 69.5t-62 16.5l5 20q28 -1 74 -2t92 -1q53 0 100.5 1t76.5 2l-5 -20q-34 -1 -53 -7.5t-29.5 -24t-20.5 -54.5l-132 -496q-14 -55 -3 -69.5t62 -16.5l-4 -20q-28 2 -75.5 2.5t-100.5 0.5q-46 0 -92 -0.5t-75 -2.5l4 20
q34 2 53 8t30 24t20 54zM243 106q-14 -55 -3 -69.5t62 -16.5l-4 -20q-30 2 -75 2.5t-92 0.5q-54 0 -100 -0.5t-75 -2.5l5 20q33 2 51.5 8t29.5 24t20 54l132 496q14 55 2.5 69.5t-61.5 16.5l5 20q27 -1 74 -2t101 -1q47 0 91 1t77 2l-5 -20q-34 -1 -53 -7.5t-29.5 -24
t-20.5 -54.5z" />
    <glyph glyph-name="I" unicode="I" horiz-adv-x="406" 
d="M243 106q-14 -55 -3 -69.5t62 -16.5l-4 -20q-30 2 -78 2.5t-97 0.5q-51 0 -95 -0.5t-72 -2.5l5 20q33 2 51.5 8t29.5 24t20 54l132 496q14 55 2.5 69.5t-61.5 16.5l5 20q26 -1 71 -2t96 -1q49 0 95 1t81 2l-5 -20q-34 -1 -53 -7.5t-29.5 -24t-20.5 -54.5z" />
    <glyph glyph-name="J" unicode="J" horiz-adv-x="699" 
d="M668 366l-3 -20h-409l3 20h409zM422 555q-41 0 -75.5 12t-66 24t-62.5 12q-25 0 -42 -13t-17 -41q0 -32 29.5 -52.5t95.5 -26.5l-1 -9l-1 -9q-86 6 -140.5 43t-54.5 107q-1 61 36.5 99t113.5 38q51 0 88 -15t69.5 -34.5t70 -34.5t89.5 -15q36 0 81.5 9t84.5 28
q21 32 41 49t35 4q12 -10 -1 -27t-66 -37q-67 -57 -107 -150t-70 -209l-62 -242q-17 -68 -55 -126t-101.5 -92.5t-160.5 -34.5q-63 0 -107.5 18.5t-44.5 63.5q0 35 24 58.5t70 23.5q37 0 63 -17t26 -50q1 -26 -15 -45.5t-45 -32.5q8 -1 14 -1.5t12 -0.5q26 0 45 14t33 41.5
t26.5 68t27.5 92.5l61 217q28 102 75.5 170t112 119.5t144.5 101.5q-44 -13 -77 -30t-62 -32.5t-61 -25.5t-73 -10z" />
    <glyph glyph-name="K" unicode="K" horiz-adv-x="761" 
d="M243 106q-14 -55 -3 -69.5t62 -16.5l-4 -20q-30 2 -75 2.5t-92 0.5q-54 0 -100 -0.5t-75 -2.5l5 20q33 2 51.5 8t29.5 24t20 54l132 496q14 55 2.5 69.5t-61.5 16.5l5 20q27 -1 74 -2t101 -1q47 0 91 1t77 2l-5 -20q-34 -1 -53 -7.5t-29.5 -24t-20.5 -54.5zM617 65
q17 0 28.5 14t20.5 40l17 51h20l-26 -77q-19 -56 -56.5 -81.5t-81.5 -25.5q-70 0 -101.5 36t-22.5 94l24 149q4 30 3 49t-9 31t-23 20l2 10q85 -2 129.5 -21t58.5 -57t7 -98l-14 -102q-2 -14 4.5 -23t19.5 -9zM424 360q-54 -14 -73.5 -11.5t-15.5 20.5q3 16 21 19.5
t68 -10.5v-18zM632 679q-22 -24 -35 -63t-25 -82t-30.5 -81t-49 -62t-81.5 -23l2 10q47 5 74.5 30.5t43.5 63t26.5 79.5t23.5 79t36 61q17 19 36.5 25t38.5 6q48 0 77.5 -28t28.5 -73q0 -38 -26 -73.5t-76 -35.5q-30 0 -53 19t-23 56q1 34 24.5 65.5t64.5 47.5q-3 2 -8.5 3
t-12.5 1q-20 0 -33 -6.5t-23 -18.5z" />
    <glyph glyph-name="L" unicode="L" horiz-adv-x="611" 
d="M571 210q-6 -16 -12 -37t-12 -45q-5 -19 -13 -54.5t-13 -73.5q-51 2 -114 2.5t-113 0.5h-93.5t-124 -0.5t-121.5 -2.5l4 20q34 2 53 8t30 24t20 54l132 496q14 55 2.5 69.5t-61.5 16.5l5 20q28 -1 76 -2t101 -1q47 0 90 1t75 2l-5 -20q-34 -1 -53 -7.5t-29.5 -24
t-20.5 -54.5l-132 -496q-14 -55 -3 -69t60 -14h29q40 0 80 18t76.5 59t64.5 110h22z" />
    <glyph glyph-name="M" unicode="M" horiz-adv-x="933" 
d="M749 705h88q49 0 93.5 1t79.5 2l-5 -20q-34 -1 -53 -7.5t-29.5 -24t-20.5 -54.5l-132 -496q-14 -55 -2.5 -69.5t61.5 -16.5l-4 -20q-34 2 -78.5 2.5t-93.5 0.5q-51 0 -97 -0.5t-73 -2.5l4 20q35 2 53.5 8t29.5 24t20 54l145 539l-415 -650h-22l-85 599l-121 -461
q-8 -30 -7 -55t19.5 -40.5t65.5 -17.5l-4 -20q-18 2 -54 2.5t-62 0.5q-25 0 -51 -0.5t-43 -2.5l4 20q52 2 75 34.5t35 78.5l125 469q14 55 2.5 69.5t-61.5 16.5l5 20q25 -1 66.5 -2t86.5 -1q24 0 48 1t43 2l57 -483z" />
    <glyph glyph-name="N" unicode="N" horiz-adv-x="843" 
d="M534 -5l-261 522l1 13t1.5 29.5t1.5 29.5l1 13q8 37 5.5 54.5t-20 24t-56.5 7.5l5 20q16 -1 39.5 -2t49.5 -1q47 0 81 3l218 -461l-4.5 -25.5t-11 -62.5t-13 -75t-11 -63.5l-4.5 -25.5h-22zM842 736q-26 0 -47.5 -15.5t-37.5 -38.5q-46 -68 -94 -239t-107 -448l-14 28
q18 84 40.5 182.5t47.5 193.5t52.5 172t56.5 119q19 27 45 45.5t63 18.5q50 0 78 -28t28 -68q0 -43 -29 -70.5t-73 -27.5q-36 0 -57 18t-21 49q0 39 25.5 67t63.5 36q-3 3 -8.5 4.5t-11.5 1.5zM29 -56q28 0 48.5 15t36.5 40q29 46 58.5 144t60 237t61.5 305l17 -21
q-20 -102 -42 -208t-45.5 -201t-47 -165.5t-46.5 -100.5q-18 -24 -42.5 -43.5t-64.5 -19.5q-49 0 -77 28t-28 68q0 43 29 70.5t72 27.5q37 0 58 -18t21 -49q0 -39 -26 -66.5t-64 -36.5q4 -3 9 -4.5t12 -1.5z" />
    <glyph glyph-name="O" unicode="O" horiz-adv-x="793" 
d="M494 704q-51 0 -97.5 -42t-83.5 -113t-59 -158.5t-22 -177.5q0 -98 27.5 -153.5t70.5 -55.5q51 0 97.5 42t83.5 113t59 158.5t22 177.5q0 98 -27.5 153.5t-70.5 55.5zM38 226q0 66 21.5 136t61.5 134t97 115t129 81t156 30q133 0 208.5 -62.5t75.5 -178.5
q0 -66 -21.5 -135.5t-62 -133.5t-98 -115t-129 -81t-155.5 -30q-133 0 -208 62.5t-75 177.5z" />
    <glyph glyph-name="P" unicode="P" horiz-adv-x="661" 
d="M239 284l5 20h45q64 0 107 25.5t69.5 67t38 90t11.5 94.5q0 52 -20.5 79.5t-66.5 27.5q-26 0 -33 -17t-21 -69l-132 -496q-7 -29 -6.5 -47.5t16 -27.5t49.5 -11l-4 -20q-32 2 -74.5 2.5t-89.5 0.5q-53 0 -101.5 -0.5t-76.5 -2.5l4 20q34 2 53 8t30 24t20 54l132 496
q7 30 7 48.5t-14 27t-52 10.5l5 20q27 -1 75.5 -2t95.5 -1q36 0 72.5 1t73.5 1q126 0 186.5 -38t60.5 -113q0 -78 -53.5 -139.5t-149.5 -97t-222 -35.5h-40z" />
    <glyph glyph-name="Q" unicode="Q" horiz-adv-x="848" 
d="M314 243q-66 0 -117.5 21t-81 61t-29.5 97q0 64 36 119t97.5 95.5t140 63t164.5 22.5q91 0 161.5 -25t111 -70t40.5 -106q0 -63 -40 -131.5t-108 -136t-150.5 -128t-169 -107.5t-165 -73.5t-136.5 -26.5q-47 0 -75.5 20t-28.5 63q0 52 41.5 86t104.5 34q52 0 101 -22
t97.5 -54.5t98 -65t101 -54.5t106.5 -22t83 23.5t40 48.5q-30 -27 -74 -27q-37 0 -62.5 21t-25.5 59q0 40 28.5 66t72.5 26q39 0 66 -23t27 -69q0 -39 -20.5 -77.5t-59 -69.5t-90.5 -50t-116 -19q-71 0 -125.5 22.5t-97 55.5t-78 66.5t-69.5 56t-72 22.5q-26 0 -40.5 -11.5
t-14.5 -31.5q0 -27 23 -42t66 -15q32 0 74.5 12t88.5 30t85 38q69 34 127.5 83t102 111t68 135t24.5 155q0 97 -37 151t-107 54q-52 0 -93.5 -27.5t-71 -73.5t-45 -101t-15.5 -111q0 -54 21 -85.5t78 -31.5q40 0 73.5 16t57 42.5t33.5 57.5q4 13 6 26t2 25
q-11 -36 -39.5 -50.5t-53.5 -14.5q-37 0 -58.5 24t-21.5 60q0 44 30.5 73t72.5 29q44 0 69 -31.5t25 -83.5q0 -60 -33 -106t-91 -72t-133 -26z" />
    <glyph glyph-name="R" unicode="R" horiz-adv-x="726" 
d="M293 355q21 -1 37 -2t28.5 -2.5t25.5 -2.5q64 -4 114.5 -15.5t77.5 -40t18 -83.5l-15 -104q-4 -32 3.5 -49t27.5 -17t34.5 17.5t26.5 50.5l5 14h23l-4 -13q-19 -63 -58 -92.5t-106 -29.5q-76 0 -108 34t-23 89l16 114q6 38 -1 64t-35.5 40t-88.5 14zM275 342l5 16h29
q56 0 104.5 25t79 76t30.5 127q0 53 -20.5 77.5t-60.5 24.5q-25 0 -38.5 -12t-22.5 -47l-138 -523q-8 -30 -9.5 -48t13.5 -27t54 -11l-4 -20q-32 2 -75 2.5t-92 0.5q-50 0 -98.5 -0.5t-76.5 -2.5l4 20q34 2 53 8t30 24t20 54l131 496q8 30 8.5 48.5t-14 27t-52.5 10.5l5 20
q19 -1 47 -1.5t58.5 -1t55.5 -0.5q49 0 84 1t67 1q129 0 190.5 -32.5t61.5 -106.5q0 -69 -49 -119.5t-136 -78t-204 -27.5z" />
    <glyph glyph-name="S" unicode="S" horiz-adv-x="598" 
d="M634 715q-10 -26 -26.5 -75.5t-32.5 -128.5h-20q6 29 6 55q0 60 -37 95.5t-106 35.5q-47 0 -81 -24t-34 -79q0 -42 23.5 -81t57.5 -76.5t68 -76t57 -81.5t23 -92q0 -55 -27.5 -93t-71 -62t-92.5 -35t-92 -11q-50 0 -81.5 5.5t-54.5 16t-48 24.5q-10 7 -19 11t-15 4
q-13 0 -21 -11.5t-22 -42.5h-20q14 32 30 84t38 156h20q-4 -16 -7 -38t-2 -41q3 -72 45.5 -109t117.5 -37q69 0 96 27.5t27 71.5q0 51 -21 92t-51.5 78.5t-61 74t-52 77.5t-21.5 92q0 52 23.5 89.5t62 62.5t83 37t86.5 12q65 0 104.5 -16t62.5 -29q9 -5 18.5 -10t14.5 -5
q14 0 33 53h20z" />
    <glyph glyph-name="T" unicode="T" horiz-adv-x="688" 
d="M786 872q40 0 63.5 -24t23.5 -54q0 -34 -20 -60t-57 -42q-31 -13 -73.5 -20.5t-96.5 -7.5q-45 0 -105 5.5t-121 11t-111 5.5q-35 0 -65 -4t-48 -13q32 -6 53.5 -29.5t21.5 -59.5q0 -39 -25 -65.5t-63 -26.5q-39 0 -60 26.5t-21 61.5q0 25 14.5 54.5t54.5 49.5
q24 12 49.5 17t48.5 6t36 1q63 0 124 -5t118.5 -10t108.5 -5q37 0 62 3.5t45 9.5l-2 -9q-17 14 -30.5 37.5t-13.5 55.5q0 41 24.5 66t64.5 25zM408 688l18 -1.5t44.5 -3.5t52.5 -4t44 -3.5l18 -1.5l-148 -558q-14 -53 1 -72.5t74 -23.5l-4 -20q-33 2 -86 2.5t-111 0.5
q-55 0 -105 -0.5t-81 -2.5l4 20q42 2 66.5 10.5t38 29t22.5 56.5z" />
    <glyph glyph-name="U" unicode="U" horiz-adv-x="698" 
d="M647 528q16 61 18 93.5t-15.5 47t-60.5 19.5l6 20q19 -1 50 -2t59 -1q23 0 46 1t40 2l-6 -20q-33 -5 -52 -19t-32 -43t-27 -82l-65 -253q-36 -138 -98 -212q-36 -42 -89.5 -67.5t-115.5 -25.5q-83 0 -134 24t-75 63q-23 38 -23 89.5t20 125.5l83 314q14 55 2.5 69.5
t-61.5 16.5l6 20q27 -1 75 -2t102 -1q47 0 89.5 1t75.5 2l-6 -20q-34 -1 -53 -7.5t-29.5 -24t-20.5 -54.5l-88 -331q-23 -86 -24 -141.5t19 -82t61 -26.5q75 0 125 33.5t82 92.5t51 133z" />
    <glyph glyph-name="V" unicode="V" horiz-adv-x="670" 
d="M637 571q41 63 19.5 88.5t-79.5 28.5l5 20q11 -1 36.5 -1.5t53.5 -1t46 -0.5q22 0 40.5 1t34.5 2l-5 -20q-22 -6 -40.5 -17t-39 -33.5t-46.5 -62.5l-377 -580q-16 2 -31.5 2t-31.5 -2l-79 629q-4 36 -21 49.5t-31 14.5l5 20q27 -1 70.5 -2t85.5 -1q51 0 93.5 1t69.5 2
l-5 -20q-47 -2 -66 -16.5t-14 -67.5l50 -451l-37 -33z" />
    <glyph glyph-name="W" unicode="W" horiz-adv-x="1008" 
d="M591 506l-310 -511h-63l-79 629q-5 37 -22 50t-31 14l5 20q27 -1 69.5 -2t84.5 -1q43 0 78 1t59 2l-5 -20q-31 -2 -43 -17t-8 -67l48 -437l-37 -39l248 404zM969 571q25 45 23.5 69.5t-24 34.5t-62.5 13l5 20q12 -1 37 -1.5t53.5 -1t46.5 -0.5q22 0 40.5 1t34.5 2l-5 -20
q-22 -6 -41.5 -16.5t-40 -32.5t-43.5 -64l-321 -580h-63l-83 629q-5 36 -18 49.5t-25 14.5l5 20q25 -1 65 -2t79 -1q51 0 94 1t71 2l-5 -20q-49 -2 -67 -17t-12 -67l51 -433l-38 -36z" />
    <glyph glyph-name="X" unicode="X" horiz-adv-x="755" 
d="M519 115q4 -24 15 -38.5t35 -14.5q22 0 37 13.5t26 43.5l17 51h20l-26 -77q-22 -58 -58 -82.5t-87 -24.5q-57 0 -90.5 19t-49.5 54.5t-23 82.5l-56 455q-3 27 -14 41t-33 14t-38 -15t-27 -48l-17 -51h-20l26 77q21 58 60.5 82.5t94.5 24.5q52 0 83 -18t48 -52.5t23 -85.5
zM719 704q-32 0 -65 -24q-44 -36 -108 -138.5t-119 -263.5l12 76q22 65 55 130t70 118.5t70 83.5q45 36 91 36q47 0 73 -30.5t25 -74.5q0 -46 -28.5 -75.5t-70.5 -29.5q-34 0 -53.5 20t-19.5 56q1 38 25.5 68.5t64.5 41.5q-4 3 -8.5 4.5t-13.5 1.5zM62 4q18 0 34 6.5
t33 17.5q31 22 73.5 71t87.5 124t84 173l-16 -76q-23 -58 -58.5 -116.5t-74.5 -106.5t-76 -78q-45 -33 -93 -33q-47 0 -73 30.5t-26 74.5q1 46 29.5 75.5t69.5 29.5q35 0 54.5 -20t19.5 -56q-1 -38 -25.5 -68.5t-64.5 -41.5q3 -3 8 -4.5t14 -1.5z" />
    <glyph glyph-name="Y" unicode="Y" horiz-adv-x="755" 
d="M407 106q-13 -55 5.5 -69.5t69.5 -16.5l-5 -20q-20 1 -51.5 1.5t-68 1t-68.5 0.5q-51 0 -97.5 -0.5t-73.5 -2.5l5 20q34 2 53 8t30 24t20 54l69 274l75 -63l81 19l34 80zM723 704q-16 0 -30 -5t-32 -18q-27 -20 -65.5 -73t-78 -138.5t-71.5 -199.5l-162 -5
q-4 47 -11 98.5t-17 101t-23.5 90t-30 64t-37.5 23.5q-19 0 -29.5 -14.5t-16.5 -32.5l-19 -57h-11h-11l23 71q22 64 63.5 88.5t91.5 24.5q73 0 111 -41.5t56.5 -121t31.5 -192.5q32 95 72.5 169.5t83.5 124.5q23 26 53 43.5t66 17.5q49 0 77 -28.5t27 -68.5q0 -43 -29 -70
t-72 -27q-37 0 -58 18t-21 50q0 39 26 66.5t64 35.5q-4 3 -9 4.5t-12 1.5z" />
    <glyph glyph-name="Z" unicode="Z" horiz-adv-x="660" 
d="M163 346l7 20h353l-8 -20h-352zM451 214l2 9.5l2 9.5q34 -5 65.5 -18.5t52 -37t20.5 -60.5q0 -57 -41.5 -94t-111.5 -37q-45 0 -79 12.5t-64.5 29t-64 29t-77.5 12.5q-25 0 -46.5 -5.5t-45.5 -15.5q-22 -32 -48 -49t-40 -4q-12 11 2 33t67 42l580 570q-49 -47 -103 -74.5
t-110 -27.5q-49 0 -85 10t-64 20t-56 10q-17 0 -27 -7.5t-10 -24.5t16.5 -30.5t56.5 -21.5l-2.5 -9.5l-2.5 -9.5q-33 6 -65 19t-52.5 37t-20.5 60q0 57 41.5 94t111.5 37q45 0 79 -12.5t64.5 -29t64 -29t77.5 -12.5q25 0 46.5 5.5t45.5 15.5q23 32 48 49t40 4
q12 -10 -2 -32.5t-67 -42.5l-580 -570q49 47 103.5 74.5t110.5 27.5q50 0 85 -10t63 -20t57 -10q17 0 27 7.5t10 24.5t-16.5 30.5t-56.5 21.5z" />
    <glyph glyph-name="bracketleft" unicode="[" horiz-adv-x="383" 
d="M-22 -181l237 953h250l-4 -19h-81l-229 -915h81l-4 -19h-250z" />
    <glyph glyph-name="backslash" unicode="\" horiz-adv-x="490" 
d="M162 722l228 -736h-33l-226 736h31z" />
    <glyph glyph-name="bracketright" unicode="]" horiz-adv-x="384" 
d="M406 772l-237 -953h-250l4 19h81l229 915h-81l4 19h250z" />
    <glyph glyph-name="asciicircum" unicode="^" horiz-adv-x="525" 
d="M258 378q-37 -21 -89 -40t-103 -32l-4 14q79 34 146 90.5t108 117.5h18q9 -61 46 -117t101 -90l-7 -15q-57 10 -113 29t-103 43z" />
    <glyph glyph-name="underscore" unicode="_" horiz-adv-x="682" 
d="M-21 -25h532l-35 -120h-532z" />
    <glyph glyph-name="grave" unicode="`" horiz-adv-x="325" 
d="M349 599q-39 47 -68.5 74t-50 46t-33.5 41q-14 23 -9.5 47.5t24.5 36.5q23 15 49 6t39 -30q15 -22 20.5 -49.5t13 -66t27.5 -98.5z" />
    <glyph glyph-name="a" unicode="a" horiz-adv-x="570" 
d="M190 47q12 0 27 12.5t31 38.5t33 67t33 99l-25 -108q-31 -96 -75.5 -133t-99.5 -37q-60 0 -89 33t-29 91q0 56 19 115.5t51.5 114t73 98t85 69t87.5 25.5q33 0 50.5 -23t11.5 -76l-11 -6q5 31 -1.5 46.5t-22.5 15.5q-24 0 -54 -34t-57 -90.5t-45.5 -124.5t-18.5 -135
q0 -31 6 -44.5t20 -13.5zM388 517q49 1 87.5 4.5t75.5 10.5l-133 -447q-4 -14 -4.5 -24.5t4 -16t13.5 -5.5q11 0 26 13t32 58l19 52h19l-25 -73q-22 -62 -61 -82.5t-77 -20.5q-56 0 -80 33q-15 22 -15 55t13 78z" />
    <glyph glyph-name="b" unicode="b" horiz-adv-x="561" 
d="M340 472q-18 0 -38.5 -21.5t-40.5 -60t-38 -86.5t-31 -102l19 100q45 122 90 176t103 54q66 0 98.5 -41t32.5 -118q0 -46 -14 -99t-40.5 -104t-64.5 -92.5t-87.5 -66.5t-110.5 -25q-29 0 -51.5 10t-34.5 26l7 14q9 -10 19.5 -14.5t23.5 -4.5q28 0 55.5 25t51 67t42 93.5
t28.5 105t10 101.5q0 37 -7.5 50t-21.5 13zM142 18q-36 5 -77 -6.5t-78 -27.5l-15 7q7 14 12.5 28.5t9.5 30.5l182 617q9 34 -2.5 50t-60.5 16l6 21q77 1 136 11.5t114 29.5z" />
    <glyph glyph-name="c" unicode="c" horiz-adv-x="474" 
d="M370 512q-37 0 -72.5 -31.5t-63.5 -84t-44.5 -118t-16.5 -133.5q0 -54 21.5 -77.5t56.5 -23.5q31 0 62.5 18t63.5 66l20 -8q-20 -33 -51.5 -64t-74 -50.5t-97.5 -19.5q-73 0 -121 38t-48 118q0 63 24.5 131t71 127t112 95.5t146.5 36.5q59 0 92.5 -29.5t33.5 -70.5
q0 -30 -14.5 -57.5t-39 -45.5t-54.5 -18q-25 0 -44 16.5t-19 47.5q0 45 29.5 78t67.5 43q-8 8 -17.5 12t-23.5 4z" />
    <glyph glyph-name="d" unicode="d" horiz-adv-x="591" 
d="M442 85q-9 -25 -4 -35.5t17 -10.5q11 0 25.5 13t31.5 58l19 52h19l-24 -73q-22 -63 -61 -83t-77 -20q-63 0 -85 42q-11 20 -10.5 51t12.5 73l137 515q10 34 -2 50t-61 16l7 21q76 1 136.5 11.5t115.5 29.5zM197 42q15 0 35 19.5t43.5 60.5t46.5 104t43 150l-15 -108
q-31 -94 -61.5 -157t-69 -94t-93.5 -31q-51 0 -87.5 33.5t-36.5 109.5q0 45 14 99t42 107t69 98t93.5 72t116.5 27q36 0 50 -13.5t17 -36.5l-8 -20q-4 23 -12 35t-28 12q-27 0 -59.5 -34.5t-61.5 -92.5t-47.5 -130t-18.5 -147q0 -31 6 -47t22 -16z" />
    <glyph glyph-name="e" unicode="e" horiz-adv-x="483" 
d="M146 213q37 16 71 36.5t60 44.5q39 37 64 85.5t25 104.5q0 17 -4 23t-12 6q-27 0 -58 -34t-59.5 -88.5t-46.5 -118.5t-18 -123q0 -57 22.5 -77t58.5 -20q23 0 63 16.5t79 59.5l16 -8q-21 -33 -56 -64t-82 -50.5t-104 -19.5q-68 0 -116.5 35.5t-48.5 105.5q0 56 18 113
t51 109.5t79.5 93.5t102.5 65t121 24q48 0 81 -20.5t33 -63.5q0 -38 -21 -71.5t-56.5 -61.5t-80 -50t-91.5 -38t-92 -25z" />
    <glyph glyph-name="f" unicode="f" horiz-adv-x="348" 
d="M51 498l6 20h343l-6 -20h-343zM430 763q-15 0 -27.5 -4.5t-23.5 -13.5q-17 -15 -29.5 -46.5t-25.5 -77.5l-213 -795q-48 -1 -86.5 -4t-75.5 -10l186 694q23 87 52.5 143t71.5 88q30 23 66.5 34t78.5 11q69 0 107 -28t38 -76q0 -33 -27.5 -63.5t-72.5 -30.5
q-33 0 -52.5 16t-19.5 46q0 35 22 64t61 43q-6 5 -13.5 7.5t-16.5 2.5z" />
    <glyph glyph-name="g" unicode="g" horiz-adv-x="479" 
d="M226 227l53 6q-62 -24 -94.5 -42t-32.5 -33q0 -8 10 -14.5t30 -12.5l87 -31q28 -10 54 -24t43 -36t17 -55q0 -41 -26.5 -73.5t-71.5 -55t-99.5 -34t-111.5 -11.5q-50 0 -93 9.5t-69.5 26.5t-26.5 40q0 20 19.5 35t50 25t64 15t63.5 6l2 -15q-33 -18 -46.5 -37t-13.5 -37
q0 -25 19 -38t53 -13q35 0 72.5 12.5t64 35t26.5 50.5q0 20 -15 27.5t-40 14.5l-139 42q-25 8 -43.5 24.5t-18.5 42.5q0 30 26.5 53.5t75 47t111.5 49.5zM266 513q-18 0 -33.5 -19.5t-26.5 -52t-17 -71.5t-6 -78q0 -33 6.5 -45.5t19.5 -12.5q20 0 35.5 19.5t26.5 51.5t16 71
t5 78q0 23 -4.5 41t-21.5 18zM288 531q68 0 112.5 -26.5t44.5 -86.5q0 -48 -31 -95t-88.5 -77t-135.5 -30q-67 0 -112.5 27t-45.5 86q0 34 17 69.5t49.5 66t80 48.5t109.5 18zM369 478l-20 7q15 41 49 66.5t73 25.5q33 0 50 -18t17 -47t-15 -44t-33 -15q-16 0 -30.5 12.5
t-18.5 37.5t12 65l6 -7q-36 -13 -56 -32t-34 -51z" />
    <glyph glyph-name="h" unicode="h" horiz-adv-x="581" 
d="M138 0h-159l198 667q10 34 -2 50t-61 16l7 21q76 1 135.5 11.5t114.5 29.5zM162 144q40 119 74.5 194.5t67.5 118t68 59t74 16.5q50 0 72 -20.5t22.5 -55t-12.5 -75.5l-99 -296q-10 -28 -3.5 -37t16.5 -9q11 0 26 12.5t32 58.5l19 52h19l-25 -73q-22 -63 -61 -83t-78 -20
q-50 0 -73 22.5t-24 60.5t14 83l88 264q5 17 7 31t-0.5 21.5t-12.5 7.5q-23 0 -53.5 -40t-63 -107.5t-63 -151t-53.5 -171.5z" />
    <glyph glyph-name="i" unicode="i" horiz-adv-x="329" 
d="M173 680q1 48 33.5 73t78.5 25q41 0 61.5 -17.5t19.5 -50.5q-1 -42 -33.5 -69t-79.5 -27q-39 0 -60 17.5t-20 48.5zM133 433q16 46 -10 46q-16 0 -30 -16t-30 -55l-21 -56h-19l28 77q20 57 58 80t86 23q49 0 71 -22t24.5 -54t-8.5 -64l-105 -307q-8 -26 -3.5 -36
t16.5 -10q11 0 26 13t32 58l19 52h19l-25 -73q-22 -62 -61 -82.5t-78 -20.5q-44 0 -69 19t-29 56t14 91z" />
    <glyph glyph-name="j" unicode="j" horiz-adv-x="310" 
d="M-139 -188l5 19q45 1 81 33.5t54 105.5l129 463q7 25 4.5 35.5t-15.5 10.5q-16 0 -30 -16t-28 -55l-21 -56h-19l27 77q21 59 61.5 81t83.5 22q49 0 70 -21.5t22 -53.5t-9 -65l-84 -305q-21 -85 -50 -136t-76 -87q-32 -23 -80.5 -37.5t-124.5 -14.5zM167 678q0 49 32.5 75
t80.5 26q39 0 60 -16.5t21 -48.5q0 -43 -32.5 -71t-80.5 -28q-39 0 -60 16.5t-21 46.5z" />
    <glyph glyph-name="k" unicode="k" horiz-adv-x="565" 
d="M138 0h-159l198 667q10 34 -2 50t-61 16l7 21q76 1 135.5 11.5t114.5 29.5zM413 81q-5 -25 -1 -33.5t14 -8.5q12 0 26.5 13t31.5 58l19 52h19l-25 -73q-15 -42 -39.5 -64t-54 -30.5t-58.5 -8.5q-55 0 -76.5 31.5t-9.5 90.5l18 74q13 53 -4 75.5t-73 28.5v4
q46 3 90.5 -0.5t79 -18t51 -44.5t5.5 -80zM446 513q-14 0 -24.5 -4t-20.5 -12q-17 -14 -27.5 -40t-21 -55.5t-26.5 -55.5t-43 -43t-71 -16l-10 -1l2 11q43 3 68 20.5t40 43t24.5 53.5t20 53.5t29.5 41.5q16 13 33.5 18t30.5 5q53 0 78.5 -30.5t24.5 -72.5q0 -43 -26 -68.5
t-66 -25.5q-36 0 -54.5 19.5t-18.5 44.5q1 36 24.5 62.5t53.5 40.5q-3 5 -9 8t-11 3z" />
    <glyph glyph-name="l" unicode="l" horiz-adv-x="308" 
d="M156 85q-8 -25 -1.5 -35.5t17.5 -10.5q8 0 23.5 12t32.5 59l19 52h19l-25 -73q-15 -42 -38 -64t-49 -30.5t-51 -8.5q-42 0 -67 20t-29.5 57t10.5 89l155 515q10 34 -2 50t-61 16l7 21q77 1 136 11.5t114 29.5z" />
    <glyph glyph-name="m" unicode="m" horiz-adv-x="871" 
d="M168 0h-159l122 433q4 15 4.5 25t-3 15.5t-13.5 5.5q-15 0 -29 -16t-29 -55l-21 -56h-19l28 77q20 57 58 80t81 23q47 0 67 -21.5t21.5 -53.5t-7.5 -65zM396 416q7 23 8 37.5t-13 14.5q-21 0 -44.5 -25.5t-49 -71.5t-50.5 -110.5t-49 -142.5l-4 38q41 137 80.5 219.5
t87.5 119.5t111 37q43 0 62 -19.5t20.5 -53.5t-11.5 -78l-109 -381h-160zM668 416q9 25 8.5 38.5t-11.5 13.5q-21 0 -52.5 -35t-68 -113t-76.5 -207l-4 29q34 118 66.5 193.5t66.5 118.5t71 60.5t77 17.5q44 0 64.5 -19.5t21.5 -53.5t-14 -78l-98 -296q-10 -29 -3.5 -37.5
t16.5 -8.5q11 0 25.5 12.5t31.5 58.5l20 52h19l-25 -73q-22 -63 -61.5 -83t-77.5 -20q-31 0 -53 10t-34 29q-12 21 -11.5 52.5t15.5 74.5z" />
    <glyph glyph-name="n" unicode="n" horiz-adv-x="611" 
d="M168 0h-159l122 433q5 15 6 25t-2.5 15.5t-13.5 5.5q-17 0 -30.5 -15t-29.5 -56l-21 -56h-19l28 77q19 55 52 79t81 24q51 0 72 -21.5t23 -54t-7 -64.5zM196 156q40 116 74 189t66.5 114.5t67 57t73.5 15.5q49 0 71 -20.5t23 -55t-13 -75.5l-99 -296q-9 -28 -3 -37t16 -9
q11 0 26 12.5t32 58.5l19 52h19l-25 -73q-22 -63 -61 -83t-77 -20q-60 0 -85 35q-14 20 -14.5 51t15.5 80l88 264q6 17 8 30.5t-1 21.5t-13 8q-22 0 -52 -39.5t-62.5 -106t-63 -148t-52.5 -166.5z" />
    <glyph glyph-name="o" unicode="o" horiz-adv-x="543" 
d="M340 512q-20 0 -44.5 -28t-48.5 -75t-44 -105t-32 -119t-12 -117q0 -34 6.5 -48t20.5 -14q19 0 43 26.5t47.5 72t43.5 103t32.5 119.5t12.5 121q0 40 -7 52t-18 12zM9 153q0 59 20 124.5t62 123.5t105 94.5t149 36.5q82 0 126 -43t44 -124q0 -59 -20 -124.5t-62 -123.5
t-105 -94.5t-149 -36.5q-82 0 -126 43t-44 124z" />
    <glyph glyph-name="p" unicode="p" horiz-adv-x="594" 
d="M372 472q-18 0 -38.5 -21.5t-41 -60t-38 -86.5t-30.5 -102l19 100q41 122 87.5 176t105.5 54q66 0 98.5 -41t32.5 -118q0 -46 -13 -99t-38 -104t-61.5 -92.5t-84 -66.5t-104.5 -25q-34 0 -61 10t-41 26l7 14q9 -10 19 -14.5t23 -4.5q29 0 56.5 23t51 61.5t41.5 87
t28.5 101t10.5 100.5q0 51 -8 66.5t-21 15.5zM196 655q47 4 88 12.5t79 20.5l-214 -759q-15 -55 5 -71.5t71 -17.5l-6 -21q-25 1 -70 2.5t-96 1.5q-43 0 -86 -1.5t-65 -2.5l6 21q36 0 52 13.5t26 48.5zM7 348q36 39 67 78t60.5 92.5t60.5 133.5l3 -16q-32 -105 -77.5 -172.5
t-102.5 -128.5z" />
    <glyph glyph-name="q" unicode="q" horiz-adv-x="566" 
d="M399 -86q-10 -39 5 -55.5t56 -18.5l-6 -21q-24 1 -69 2.5t-93 1.5q-46 0 -91 -1.5t-68 -2.5l6 21q49 2 70 19t31 53l158 586q36 -4 77.5 7.5t78.5 26.5l15 -7q-7 -13 -12 -28l-10 -30zM200 54q17 0 36.5 19t39 51.5t36.5 75t29 90.5l-20 -100q-42 -108 -85.5 -156
t-99.5 -48q-66 0 -98.5 41t-32.5 118q0 46 15 99t43 104t67.5 92.5t88 66.5t103.5 25q29 0 51.5 -10t34.5 -26l-7 -14q-9 10 -19 14.5t-24 4.5q-28 0 -55.5 -26.5t-51 -70t-42 -95.5t-28.5 -104.5t-10 -95.5q0 -31 7.5 -43t21.5 -12z" />
    <glyph glyph-name="r" unicode="r" horiz-adv-x="484" 
d="M168 0h-159l122 433q7 25 4.5 35.5t-14.5 10.5q-17 0 -31 -15.5t-29 -55.5l-21 -56h-19l28 77q20 57 57.5 80t85.5 23q45 0 64 -21.5t20.5 -54t-6.5 -64.5zM424 511q-20 0 -42 -9t-46 -37t-50.5 -82.5t-55.5 -145t-60 -225.5l22 138q31 113 56.5 186.5t51 117t55.5 61
t69 17.5q43 0 66 -25.5t23 -63.5q0 -46 -29.5 -80t-74.5 -34q-33 0 -50.5 17t-17.5 50q0 40 28.5 72t67.5 40l-6 2t-7 1z" />
    <glyph glyph-name="s" unicode="s" horiz-adv-x="433" 
d="M79 14q8 -4 16.5 -5.5t20.5 -1.5q34 0 56 21.5t22 59.5q0 34 -15 69.5t-42 76.5q-24 37 -42.5 71.5t-18.5 77.5q0 64 49 106.5t141 42.5q40 0 77 -9.5t61 -32.5t24 -67q0 -28 -16 -55t-50 -27q-27 0 -43 21t-16 55q0 29 10 52t21 36q-10 6 -30 6q-35 0 -54 -21t-20 -61
q-1 -34 18 -65t41 -68q32 -53 46 -88.5t14 -70.5q0 -42 -22.5 -76t-66 -54.5t-105.5 -20.5q-45 0 -85 11t-65 38t-25 73q0 33 16.5 56.5t45.5 23.5q28 0 44.5 -23t16.5 -60q0 -28 -9 -52.5t-15 -38.5z" />
    <glyph glyph-name="t" unicode="t" horiz-adv-x="359" 
d="M411 518l-3 -20h-359l5 20h357zM179 85q-7 -23 0 -34.5t22 -11.5q20 0 40.5 21.5t34.5 59.5l16 42h19l-19 -57q-20 -58 -59.5 -88.5t-95.5 -30.5q-73 0 -94.5 48.5t-2.5 117.5l148 514q49 1 88 4t76 10z" />
    <glyph glyph-name="u" unicode="u" horiz-adv-x="607" 
d="M392 352q-38 -113 -72 -185t-66.5 -111t-66.5 -54.5t-74 -15.5q-62 0 -82.5 39t4.5 112l97 296q10 29 3 37.5t-16 8.5q-11 0 -26 -12.5t-32 -58.5l-19 -52h-19l25 73q22 63 61 83t77 20q45 0 69.5 -19t28.5 -55.5t-14 -91.5l-88 -264q-20 -60 6 -60q22 0 52 40t62.5 107
t63 150t53.5 169zM458 85q-7 -24 -5.5 -35t15.5 -11q16 0 30.5 15.5t29.5 55.5l21 56h19l-28 -77q-20 -57 -58 -80t-80 -23q-32 0 -52 10t-30 27q-11 19 -10 45.5t9 57.5l102 392q46 1 87 4t76 10z" />
    <glyph glyph-name="v" unicode="v" horiz-adv-x="522" 
d="M465 313q-45 21 -76 58.5t-30 86.5q0 35 19.5 54.5t51.5 19.5q39 0 56 -28.5t15 -77.5q-1 -56 -14.5 -117.5t-39 -118.5t-64.5 -103t-91 -73.5t-119 -27.5q-58 0 -91 18.5t-46 47t-13 58.5q1 63 37.5 127t100 127.5t142.5 125.5q-28 -2 -48.5 -15.5t-37.5 -30t-33.5 -29
t-36.5 -12.5q-16 0 -28 8.5t-27 8.5q-13 0 -21 -10t-15 -33l-8 -24h-19l22 73q18 63 43 85t51 22q19 0 33 -7.5t30.5 -15.5t43.5 -8q12 0 30 3.5t38 14.5l10 19l21 -10q-45 -70 -80 -146.5t-54.5 -147.5t-21.5 -124q0 -39 10.5 -57.5t35.5 -18.5q34 0 64.5 16t56 44.5t46 64
t35 75t22.5 78.5z" />
    <glyph glyph-name="w" unicode="w" horiz-adv-x="678" 
d="M299 50q-29 -28 -69 -46t-94 -18q-68 0 -102.5 36t-34.5 89q0 47 26 91.5t73.5 90.5t111 95.5t136.5 104.5l1 -3q-33 -1 -58 -14.5t-45 -30.5t-38.5 -29.5t-39.5 -12.5q-19 0 -30.5 8.5t-25.5 8.5t-21.5 -10t-15.5 -33l-8 -24h-19l23 73q19 62 44 82t51 20q20 0 36 -6.5
t35.5 -13t50.5 -6.5q13 0 32.5 3.5t42.5 14.5l11 19l21 -10q-63 -68 -113.5 -144.5t-80 -149.5t-29.5 -132q0 -33 11 -51t38 -18q37 0 72 30zM468 58q30 0 53 16t40.5 43t28 61.5t15.5 71.5t4 73q-31 14 -64 32.5t-56 47t-23 67.5q0 22 15.5 42t48.5 20q29 0 48 -20t30 -50
t16 -63t6 -59q2 -49 -6 -99t-25.5 -95.5t-45.5 -81.5t-65.5 -57t-84.5 -21q-34 0 -66 12t-52 42t-20 83q0 46 16.5 88.5t42 76t54 52.5t52.5 19q19 0 27 -11t10.5 -26.5t2.5 -26.5q0 -63 -28 -122.5t-82 -106.5l-7 17q43 40 68.5 96t25.5 111q0 21 -4 34t-12 13
q-13 0 -26 -23.5t-21.5 -60t-8.5 -78.5q0 -33 10 -59.5t31 -42t52 -15.5z" />
    <glyph glyph-name="x" unicode="x" horiz-adv-x="578" 
d="M381 86q5 -26 13 -36t21 -10q14 0 28 16t31 68l13 37h19l-25 -73q-14 -43 -37.5 -65t-51 -29.5t-52.5 -7.5q-48 0 -81 21t-39 79l-40 346q-4 26 -13 33t-22 7t-26.5 -13t-31.5 -65l-13 -37h-19l25 73q14 43 38 65t52.5 29.5t54.5 7.5q51 0 81.5 -22.5t37.5 -88.5z
M418 458q-34 -43 -56.5 -97.5t-34.5 -97.5l-10 0.5l-10 0.5q3 13 15 48.5t32 78.5t48 80q27 36 56 48.5t57 12.5q36 0 59.5 -19.5t23.5 -55.5q0 -35 -23 -58t-60 -23q-29 0 -56.5 18.5t-40.5 63.5zM136 60q35 43 58.5 97.5t36.5 97.5l9.5 -1l9.5 -1q-7 -27 -20.5 -63.5
t-32.5 -73.5t-44 -69q-29 -35 -58 -48t-56 -13q-39 0 -61 19t-22 52q0 39 25 62t59 23q37 0 60.5 -22.5t35.5 -59.5z" />
    <glyph glyph-name="y" unicode="y" horiz-adv-x="483" 
d="M315 68l-120 -137l-82 501q-4 26 -9 35.5t-14 9.5q-11 0 -19.5 -12.5t-24.5 -56.5l-20 -52h-19l25 73q21 61 53.5 82t73.5 21q43 0 71 -23.5t37 -90.5zM70 -138q47 22 97.5 61.5t103.5 106.5q54 68 94.5 144t60.5 143q-41 23 -70 59.5t-28 80.5q0 35 19.5 55t52.5 20
q38 0 55 -25t17 -69q0 -46 -16 -101.5t-43.5 -114.5t-63 -115t-74.5 -103q-37 -45 -78.5 -80.5t-86 -61t-89.5 -39.5q-19 -6 -35.5 -8.5t-29.5 -2.5q-36 0 -56 16t-20 45q0 28 20.5 47.5t54.5 19.5t62.5 -20t52.5 -58z" />
    <glyph glyph-name="z" unicode="z" horiz-adv-x="470" 
d="M36 61q33 14 63.5 36t59 40t53.5 18q24 0 38.5 -8t27.5 -16t31 -8q16 0 23.5 9.5t7.5 20.5q0 22 -16 34.5t-35 17.5l6 15q56 -12 82 -39t26 -71q0 -50 -32 -86t-98 -36q-32 0 -57 8.5t-47 20t-47 20t-58 8.5q-26 0 -47.5 -9t-42.5 -36h-31l498 464q-28 -12 -55.5 -30
t-52.5 -36.5t-49 -31t-45 -12.5q-24 0 -39 8t-27 16t-29 8q-16 0 -24 -8.5t-8 -21.5q0 -19 13 -30.5t38 -21.5l-6 -15q-52 12 -80 38t-28 68q0 33 16.5 63t50.5 49t85 19q33 0 57 -8t45 -19t44.5 -19t54.5 -8q30 0 51 10t41 35h30z" />
    <glyph glyph-name="braceleft" unicode="{" horiz-adv-x="380" 
d="M233 -188q-82 -1 -127.5 12.5t-62.5 42.5t-13 73t18 103q16 67 24.5 111.5t8.5 72.5q-1 31 -12.5 44t-34.5 15h-5l3 18h5q31 2 53.5 24t41.5 73.5t42 145.5q23 96 61 146.5t95.5 69.5t142.5 19l-5 -19q-24 0 -41 -6.5t-30.5 -28t-27.5 -64.5t-33 -117q-23 -91 -59.5 -141
t-90 -74.5t-127.5 -36.5q62 -13 99 -32t53.5 -48t15 -71t-16.5 -101q-15 -61 -22.5 -100t-6.5 -62q0 -31 14 -40t43 -10z" />
    <glyph glyph-name="bar" unicode="|" horiz-adv-x="386" 
d="M255 858v-1053h-104v1053h104z" />
    <glyph glyph-name="braceright" unicode="}" horiz-adv-x="379" 
d="M148 782q82 1 127.5 -12.5t62.5 -42.5t13 -73t-18 -103q-16 -67 -24.5 -111.5t-8.5 -72.5q1 -31 12.5 -44t34.5 -15h5l-3 -18h-5q-31 -2 -53.5 -24t-41.5 -73.5t-42 -145.5q-23 -96 -61 -146.5t-95.5 -69.5t-142.5 -19l5 19q24 0 41 6.5t30.5 28t27.5 64.5t33 117
q23 91 59.5 141t90 74.5t127.5 36.5q-62 13 -99 32t-53.5 48t-15 71t16.5 101q15 61 22.5 100t6.5 62q0 31 -14 40t-43 10z" />
    <glyph glyph-name="asciitilde" unicode="~" horiz-adv-x="644" 
d="M394 205q-38 0 -67 12t-54.5 27t-52.5 27t-61 12q-30 0 -56.5 -13t-46.5 -45l-14 5q31 79 87.5 125t125.5 46q38 0 67 -12t54.5 -27t52.5 -27t62 -12q29 0 55.5 13t46.5 45l14 -5q-29 -78 -85.5 -124.5t-127.5 -46.5z" />
    <glyph glyph-name="uni00A0" unicode="&#xa0;" horiz-adv-x="256" 
 />
    <glyph glyph-name="exclamdown" unicode="&#xa1;" horiz-adv-x="312" 
d="M166 316q-17 -67 -19 -133.5t1 -130t1 -124.5q-1 -55 -31 -85.5t-86 -30.5q-35 0 -56.5 17.5t-20.5 52.5q2 39 25 86.5t55 103t63 117.5t50 130zM114 432q0 43 30 71.5t74 28.5q35 0 54.5 -16.5t19.5 -48.5q0 -38 -31 -68t-75 -30q-34 0 -53 16.5t-19 46.5z" />
    <glyph glyph-name="cent" unicode="&#xa2;" horiz-adv-x="492" 
d="M385 708l-239 -889h-22l239 889h22zM373 512q-37 0 -72.5 -31.5t-63.5 -84t-44.5 -118t-16.5 -133.5q0 -54 21.5 -77.5t56.5 -23.5q30 0 62 18t64 66l20 -8q-21 -33 -52 -64t-73.5 -50.5t-97.5 -19.5q-73 0 -121 38t-48 118q0 63 24.5 131t70.5 127t112 95.5t147 36.5
q58 0 91.5 -29.5t33.5 -70.5q0 -30 -14.5 -57.5t-38.5 -45.5t-54 -18q-25 0 -44 16.5t-19 47.5q0 45 29.5 78t67.5 43q-8 8 -17.5 12t-23.5 4z" />
    <glyph glyph-name="sterling" unicode="&#xa3;" horiz-adv-x="688" 
d="M472 317l-6 -20h-413l6 20h413zM499 417l-6 -20h-413l6 20h413zM536 721q-35 1 -59.5 -15.5t-41.5 -49t-30 -81.5l-47 -180q-14 -55 -37.5 -91t-53 -62.5t-60.5 -50t-61.5 -52t-56.5 -69.5q47 44 99 70.5t106 26.5q48 0 83 -9.5t62.5 -19t55.5 -9.5q17 0 28.5 8t11.5 26
q0 17 -16.5 30t-54.5 21l4 19q34 -5 65.5 -18.5t51.5 -36.5t20 -59q0 -37 -19.5 -67.5t-55 -48t-82.5 -17.5q-45 0 -79 12t-64.5 28t-64 28t-77.5 12q-21 0 -40.5 -2.5t-40.5 -9.5q-19 -35 -46 -51.5t-53 -16.5q-13 0 -13 10q0 16 24 40t75 33q17 34 34.5 76t36.5 113
l48 181q22 84 66.5 151.5t114.5 106.5t169 39q58 0 90.5 -29t32.5 -70q0 -51 -28.5 -82t-71.5 -31q-35 0 -56.5 18.5t-21.5 53.5q0 41 24.5 72t64.5 39q-4 6 -13.5 10t-22.5 4z" />
    <glyph glyph-name="currency" unicode="&#xa4;" horiz-adv-x="687" 
d="M243 300q0 -35 14 -60.5t38 -39.5t52 -14q29 0 52.5 14t37.5 39.5t14 60.5t-14 61t-37.5 40t-52.5 14q-28 0 -52 -14t-38 -39.5t-14 -61.5zM79 138l63 63q-12 22 -17.5 47t-5.5 52q0 51 23 98l-63 64l104 104l63 -63q22 12 47.5 18.5t51.5 6.5q27 0 52 -6.5t47 -18.5
l64 63l104 -104l-64 -63q12 -23 18.5 -47.5t6.5 -51.5t-6.5 -52t-18.5 -48l64 -63l-104 -104l-64 64q-23 -11 -47.5 -17.5t-51.5 -6.5q-55 0 -99 24l-63 -63z" />
    <glyph glyph-name="yen" unicode="&#xa5;" horiz-adv-x="801" 
d="M585 217l-5 -20h-451l5 20h451zM607 297l-5 -20h-451l5 20h451zM428 106q-13 -55 5.5 -69.5t69.5 -16.5l-5 -20q-20 1 -51.5 1.5t-68 1t-68.5 0.5q-51 0 -97.5 -0.5t-73.5 -2.5l5 20q34 2 53 8t30 24t20 54l69 274l75 -63l81 19l34 80zM744 704q-16 0 -30.5 -5t-31.5 -18
q-27 -20 -65.5 -73t-78 -138.5t-71.5 -199.5l-162 -5q-4 47 -11 98.5t-17.5 101t-24 90t-30 64t-37.5 23.5q-18 0 -29 -14.5t-16 -32.5l-19 -57h-11h-11l23 71q21 64 63 88.5t92 24.5q72 0 110.5 -41.5t57 -121t31.5 -192.5q32 95 72 169.5t84 124.5q23 26 52.5 43.5
t65.5 17.5q50 0 78 -28.5t27 -68.5q0 -43 -29 -70t-72 -27q-37 0 -58 18t-21 50q0 39 26 66.5t64 35.5q-4 3 -9 4.5t-12 1.5z" />
    <glyph glyph-name="brokenbar" unicode="&#xa6;" horiz-adv-x="389" 
d="M153 -195v521h104v-521h-104zM257 858v-474h-104v474h104z" />
    <glyph glyph-name="section" unicode="&#xa7;" horiz-adv-x="598" 
d="M518 745q-3 5 -13 9t-24 6.5t-30 2.5q-33 0 -63 -14t-48.5 -41.5t-18.5 -67.5q0 -27 13.5 -48t39 -42.5t58.5 -50.5q59 -50 95 -87.5t36 -87.5q0 -57 -32 -98.5t-80 -70.5t-98 -50l-7 11q19 13 34.5 26t26.5 30t15 42q5 28 -4.5 51t-39 50.5t-81.5 68.5q-70 55 -106 97
t-36 92q0 52 27 91.5t70.5 65.5t95 39t99.5 13q22 0 49.5 -3.5t54 -13t44 -27.5t17.5 -47q0 -40 -30 -71t-74 -31q-32 0 -49 16.5t-17 42.5q0 32 23 58t53 39zM148 -169q34 0 63.5 14t48.5 41.5t19 67.5q0 28 -14 49t-39 42t-59 50q-59 50 -95 87.5t-36 87.5q0 58 32 99
t80.5 70.5t98.5 49.5l7 -11q-19 -12 -37 -29t-30 -38t-12 -48q0 -33 29.5 -66t98.5 -87q69 -55 105 -97t36 -92q0 -52 -27 -91.5t-70.5 -65.5t-95 -39t-99.5 -13q-21 0 -49 3.5t-54.5 12.5t-43.5 27t-17 48q0 40 29.5 71t73.5 31q32 0 49 -15.5t17 -39.5q0 -35 -22 -61
t-54 -40q5 -7 24.5 -12.5t42.5 -5.5z" />
    <glyph glyph-name="dieresis" unicode="&#xa8;" horiz-adv-x="497" 
d="M157 675q0 46 28.5 68.5t63.5 22.5q37 0 53.5 -20t16.5 -52q0 -47 -29 -68.5t-64 -21.5q-36 0 -52.5 19.5t-16.5 51.5zM390 675q0 46 28 68.5t64 22.5t53 -20t17 -52q0 -47 -29 -68.5t-64 -21.5q-37 0 -53 19.5t-16 51.5z" />
    <glyph glyph-name="copyright" unicode="&#xa9;" horiz-adv-x="906" 
d="M79 384q0 83 31 155t85.5 126.5t127 85.5t154.5 31q83 0 155 -31t126.5 -85.5t85.5 -126.5t31 -155q0 -82 -31 -154.5t-85.5 -127t-126.5 -85.5t-155 -31q-82 0 -154.5 31t-127 85.5t-85.5 127t-31 154.5zM119 384q0 -76 28 -142t77 -116.5t114 -79t139 -28.5t139 28.5
t114 79t77 116.5t28 142t-28 142t-77 116.5t-114 79t-139 28.5t-139 -28.5t-114 -79t-77 -116.5t-28 -142zM547 183q16 0 37 7t44.5 28t44.5 63l17 -6q-12 -38 -37.5 -76t-66.5 -63t-100 -25q-66 0 -119.5 27.5t-85.5 87.5t-32 157q0 93 33 154t90.5 91t128.5 30
q44 0 86.5 -13.5t71 -41.5t28.5 -74q0 -39 -24.5 -64t-62.5 -25q-40 0 -62.5 23t-22.5 60q0 34 22 58t52 32q-9 8 -26 14t-37 6q-33 0 -57.5 -20t-37.5 -71t-13 -146q0 -82 19 -129t49 -65.5t61 -18.5z" />
    <glyph glyph-name="ordfeminine" unicode="&#xaa;" horiz-adv-x="558" 
d="M480 456q-6 -17 -4 -29t17 -12q13 0 23.5 9t17.5 29l9 25h19l-11 -32q-16 -45 -48.5 -65.5t-78.5 -20.5q-32 0 -53.5 11.5t-27.5 40t8 78.5l63 223q84 0 150 9zM276 414q19 0 41.5 31.5t43 80.5t29.5 101l-12 -79q-21 -76 -49 -116.5t-60 -56t-66 -15.5q-50 0 -76.5 24.5
t-26.5 72.5q0 47 23 93.5t60.5 85.5t84.5 62.5t95 23.5q18 0 33 -9t10 -46l-7 -16q1 26 -6.5 36.5t-17.5 10.5q-17 0 -38 -20t-40 -53.5t-31.5 -74.5t-12.5 -84q0 -52 23 -52z" />
    <glyph glyph-name="guillemotleft" unicode="&#xab;" horiz-adv-x="609" 
d="M385 532q-15 -31 -38 -70.5t-50.5 -79t-55 -73t-49.5 -53.5q18 -26 35 -74t28.5 -101.5t12.5 -94.5h-18q-49 73 -105 139.5t-128 122.5l4 16q97 59 180.5 126t165.5 142h18zM583 500q-12 -28 -31 -63t-42 -70t-46.5 -64t-41.5 -47q14 -22 27.5 -64.5t23 -89.5t9.5 -84
h-18q-46 63 -96 122t-114 108l4 16q85 51 160 111t147 125h18z" />
    <glyph glyph-name="logicalnot" unicode="&#xac;" horiz-adv-x="641" 
d="M83 340l9 30h501l-59 -205h-36l50 175h-465z" />
    <glyph glyph-name="uni00AD" unicode="&#xad;" horiz-adv-x="506" 
 />
    <glyph glyph-name="registered" unicode="&#xae;" horiz-adv-x="681" 
d="M396 782q77 0 140.5 -37.5t101 -101t37.5 -140.5t-37.5 -140.5t-101 -101t-140.5 -37.5t-140.5 37.5t-101 101t-37.5 140.5t37.5 140.5t101 101t140.5 37.5zM331 524q34 0 48.5 -1t22 -2.5t18.5 -3.5q55 -4 75 -17.5t25 -41.5l16 -68q2 -11 5 -15.5t9 -4.5t11 4l7 -10
q-8 -8 -22 -13t-33 -5q-33 0 -51 11.5t-23 33.5l-13 72q-4 19 -10.5 28.5t-24.5 13.5t-58 4zM396 750q-66 0 -120 -33.5t-85.5 -89.5t-31.5 -124q0 -67 31.5 -123.5t85.5 -90t120 -33.5t120 33.5t85.5 90t31.5 123.5q0 68 -31.5 124t-85.5 89.5t-120 33.5zM409 676
q68 0 96 -20.5t28 -58.5q0 -16 -11.5 -34.5t-43 -33t-91.5 -17.5l-61 -3v8v8h53q32 0 47.5 18t15.5 50q0 33 -12 50.5t-37 17.5q-13 0 -17.5 -5.5t-4.5 -21.5v-230q0 -23 4.5 -29t18.5 -8v-15q-13 0 -30.5 0.5t-36.5 0.5q-21 0 -40.5 -0.5t-30.5 -0.5v15q14 2 18.5 8t4.5 29
v219q0 24 -4.5 30.5t-18.5 7.5v15q11 -1 30 -1h37q28 0 52 0.5t34 0.5z" />
    <glyph glyph-name="macron" unicode="&#xaf;" horiz-adv-x="444" 
d="M507 712l-6 -25h-344l6 25h344z" />
    <glyph glyph-name="degree" unicode="&#xb0;" horiz-adv-x="333" 
d="M261 820q49 0 85.5 -32t36.5 -88t-36.5 -88.5t-85.5 -32.5q-48 0 -84.5 32.5t-36.5 88.5t36.5 88t84.5 32zM261 598q34 0 66 25.5t32 76.5q0 49 -32 75t-66 26t-65.5 -26t-31.5 -75q0 -51 31.5 -76.5t65.5 -25.5z" />
    <glyph glyph-name="plusminus" unicode="&#xb1;" horiz-adv-x="612" 
d="M-28 0l9 30h501l-9 -30h-501zM80 370h233l67 236h36l-67 -236h232l-9 -30h-232l-67 -235h-36l67 235h-233z" />
    <glyph glyph-name="uni00B2" unicode="&#xb2;" horiz-adv-x="361" 
d="M304 754q41 0 67.5 -13.5t26.5 -42.5q0 -27 -21 -52t-52.5 -46.5t-65.5 -41t-58 -36.5q25 0 61 -9t61 -9q17 0 28 7t11 21q0 10 -4 18l17 7q8 -12 13 -26t5 -28q0 -29 -22.5 -49.5t-70.5 -20.5q-34 0 -69 8t-79 10q-24 1 -39 -1.5t-39 -12.5l4 18q19 14 53.5 37t71.5 53
t62.5 63t25.5 67q0 22 -13 31t-35 9q-24 0 -49 -11.5t-48 -35.5l-14 11q25 29 68.5 52t103.5 23z" />
    <glyph glyph-name="uni00B3" unicode="&#xb3;" horiz-adv-x="344" 
d="M308 754q42 0 69 -13t27 -41t-28.5 -51.5t-68.5 -39.5t-74 -23q61 -1 101 -17.5t40 -56.5q0 -37 -33 -66.5t-84.5 -50t-110 -32.5t-110.5 -15v17q54 5 107 24t88 52t35 79q0 27 -11.5 38t-27.5 14q-11 -6 -19 -8t-13 -2q-6 0 -12 3t-6 10q0 10 12.5 14t31.5 3
q34 15 55.5 38t21.5 49q0 19 -12 28.5t-30 9.5q-24 0 -50 -11.5t-55 -38.5l-14 12q23 25 68.5 50t102.5 25z" />
    <glyph glyph-name="acute" unicode="&#xb4;" horiz-adv-x="302" 
d="M137 609q36 53 56.5 92.5t37 69t39.5 51.5q19 20 48.5 26.5t51.5 -16.5q21 -19 14.5 -44t-30.5 -49q-20 -21 -49 -39t-68.5 -41.5t-89.5 -59.5z" />
    <glyph glyph-name="paragraph" unicode="&#xb6;" horiz-adv-x="731" 
d="M411 329q-17 -79 -25.5 -142.5t-9.5 -101t1 -37.5l8.5 32.5t23 86.5t32 118.5t34.5 129.5t31.5 119t24 87.5t9.5 34.5q-3 0 -22.5 -39t-45.5 -102.5t-49 -140.5q-75 0 -138 -4.5t-100 -10t-38 -8.5q0 -3 34.5 -8.5t94.5 -9.5t135 -4zM359 -13q-115 0 -185 30.5t-101.5 85
t-31.5 126.5q0 99 36 186t100.5 153t150 103.5t184.5 37.5q53 0 99.5 -1.5t90.5 -1.5q26 0 54 0.5t54 1.5l-5 -19q-49 -2 -67.5 -18.5t-27.5 -49.5l-144 -550q-19 -76 -57.5 -134t-101.5 -91.5t-160 -33.5q-63 0 -107.5 18.5t-44.5 63.5q0 35 24.5 58.5t70.5 23.5
q37 0 62 -16t25 -49q0 -26 -15 -46t-44 -34q8 -1 14 -1.5t12 -0.5q43 0 67 39t48 119z" />
    <glyph glyph-name="periodcentered" unicode="&#xb7;" horiz-adv-x="300" 
d="M54 250q0 44 30 72t74 28q35 0 54.5 -16.5t19.5 -48.5q0 -38 -31 -68t-75 -30q-34 0 -53 16.5t-19 46.5z" />
    <glyph glyph-name="cedilla" unicode="&#xb8;" horiz-adv-x="355" 
d="M136 0l-46 -68q12 5 27.5 8t29.5 3q28 0 47.5 -10t19.5 -32q0 -33 -27 -52t-68 -28t-83 -9q-32 0 -56.5 6.5t-36.5 12.5l7 16q7 -3 23 -7t37 -4q12 0 31 3.5t34 12.5t15 28q0 23 -28 23q-5 0 -14 -1.5t-17 -5.5l77 104h28z" />
    <glyph glyph-name="uni00B9" unicode="&#xb9;" horiz-adv-x="273" 
d="M342 753l-101 -316h-107l75 229q-23 -9 -46 -17t-58 -15l5 19q84 22 131 48.5t82 51.5h19z" />
    <glyph glyph-name="ordmasculine" unicode="&#xba;" horiz-adv-x="518" 
d="M368 704q-22 0 -43 -24.5t-38 -64.5t-27.5 -86.5t-10.5 -91.5q0 -58 32 -58q21 0 42 24.5t38.5 64t28 86.5t10.5 92q0 58 -32 58zM105 489q0 33 17 73t50.5 76.5t83.5 60t117 23.5q77 0 124 -31.5t47 -97.5q0 -33 -17.5 -73t-50.5 -76.5t-83.5 -59.5t-116.5 -23
q-78 0 -124.5 31.5t-46.5 96.5z" />
    <glyph glyph-name="guillemotright" unicode="&#xbb;" horiz-adv-x="608" 
d="M340 532q50 -73 106 -139.5t128 -123.5l-4 -16q-97 -58 -181 -125t-166 -142h-18q15 32 38 71t50.5 78.5t54.5 72.5t49 53q-17 27 -34 75t-28 101.5t-13 94.5h18zM126 500q46 -63 96 -122t114 -109l-4 -16q-85 -50 -160 -110t-146 -125h-18q12 28 31.5 62.5t42 69.5
t45 64t41.5 47q-14 23 -27.5 65.5t-22.5 89.5t-10 84h18z" />
    <glyph glyph-name="onequarter" unicode="&#xbc;" horiz-adv-x="688" 
d="M720 824l15 -13l-833 -866l-15 13zM342 753l-101 -316h-107l75 229q-23 -9 -46 -17t-58 -15l5 19q84 22 131 48.5t82 51.5h19zM487 317l5 -21l-311 -265l27 34h276l-20 -65h-330l5 18zM506 317l-117 -402h-84l90 310l92 92h19z" />
    <glyph glyph-name="onehalf" unicode="&#xbd;" horiz-adv-x="626" 
d="M720 824l15 -13l-833 -866l-15 13zM342 753l-101 -316h-107l75 229q-23 -9 -46 -17t-58 -15l5 19q84 22 131 48.5t82 51.5h19zM471 317q41 0 67.5 -13.5t26.5 -42.5q0 -27 -21 -52t-52.5 -46.5t-65.5 -41t-58 -36.5q25 0 61 -9t61 -9q17 0 28 7t11 21q0 10 -4 18l17 7
q8 -12 13 -26t5 -28q0 -29 -22.5 -49.5t-70.5 -20.5q-34 0 -69 8t-79 10q-24 1 -39 -1.5t-39 -12.5l4 18q19 14 53.5 37t71.5 53t62.5 63t25.5 67q0 22 -13 31t-35 9q-24 0 -49 -11.5t-48 -35.5l-14 11q25 29 68.5 52t103.5 23z" />
    <glyph glyph-name="threequarters" unicode="&#xbe;" horiz-adv-x="764" 
d="M820 824l15 -13l-833 -866l-15 13zM308 754q42 0 69 -13t27 -41t-28.5 -51.5t-68.5 -39.5t-74 -23q61 -1 101 -17.5t40 -56.5q0 -37 -33 -66.5t-84.5 -50t-110 -32.5t-110.5 -15v17q54 5 107 24t88 52t35 79q0 27 -11.5 38t-27.5 14q-11 -6 -19 -8t-13 -2q-6 0 -12 3
t-6 10q0 10 12.5 14t31.5 3q34 15 55.5 38t21.5 49q0 19 -12 28.5t-30 9.5q-24 0 -50 -11.5t-55 -38.5l-14 12q23 25 68.5 50t102.5 25zM587 317l5 -21l-311 -265l27 34h276l-20 -65h-330l5 18zM606 317l-117 -402h-84l90 310l92 92h19z" />
    <glyph glyph-name="questiondown" unicode="&#xbf;" horiz-adv-x="502" 
d="M208 -165q10 0 24 2t28 6t23 9q-29 4 -50 23.5t-21 48.5q1 31 25.5 51t58.5 20q29 0 51.5 -17t22.5 -52q0 -32 -20 -54.5t-52 -35.5t-70 -18.5t-74 -5.5q-90 0 -144.5 30.5t-54.5 85.5q0 30 16.5 54.5t50.5 50.5t86 61q42 28 70.5 50t43 43.5t14.5 48.5q0 23 -14 41
t-51 18q-19 0 -38 -4.5t-28 -12.5q20 -1 38.5 -17.5t18.5 -42.5q0 -27 -22 -45t-54 -18q-27 0 -45 14t-18 43q0 30 19 50t50 32t65.5 17.5t64.5 5.5q77 0 129.5 -27.5t52.5 -78.5q0 -33 -21.5 -61.5t-55.5 -53.5t-70 -49q-67 -45 -99.5 -74.5t-32.5 -68.5q0 -34 23.5 -51.5
t59.5 -17.5zM212 432q0 43 30 71.5t74 28.5q35 0 54.5 -16.5t19.5 -48.5q0 -38 -31 -68t-75 -30q-34 0 -53 16.5t-19 46.5z" />
    <glyph glyph-name="Agrave" unicode="&#xc0;" horiz-adv-x="661" 
d="M54 137q-29 -41 -28.5 -66t25 -36.5t62.5 -14.5l-4 -20q-47 2 -78 2.5t-58 0.5q-22 0 -36.5 -0.5t-30.5 -2.5l4 20q27 7 52 31t66 82l412 580q15 -2 32.5 -2t30.5 2l40 -629q3 -36 18.5 -49.5t30.5 -14.5l-4 -20q-27 2 -72 2.5t-85 0.5q-48 0 -91 -0.5t-69 -2.5l4 20
q48 2 68.5 17.5t17.5 66.5l-24 449l44 47zM151 288h292l-8 -20h-302zM524 771q-54 21 -91 30.5t-62.5 16t-47.5 18.5q-22 13 -31.5 36t2.5 45q14 25 41.5 29t47.5 -7q23 -12 39.5 -33t40.5 -51t69 -72z" />
    <glyph glyph-name="Aacute" unicode="&#xc1;" horiz-adv-x="661" 
d="M54 137q-29 -41 -28.5 -66t25 -36.5t62.5 -14.5l-4 -20q-47 2 -78 2.5t-58 0.5q-22 0 -36.5 -0.5t-30.5 -2.5l4 20q27 7 52 31t66 82l412 580q15 -2 32.5 -2t30.5 2l40 -629q3 -36 18.5 -49.5t30.5 -14.5l-4 -20q-27 2 -72 2.5t-85 0.5q-48 0 -91 -0.5t-69 -2.5l4 20
q48 2 68.5 17.5t17.5 66.5l-24 449l44 47zM151 288h292l-8 -20h-302zM457 784q49 41 80 73t55.5 56t52.5 38q23 13 53.5 11.5t46.5 -30.5q13 -26 -1 -48t-42 -37q-38 -21 -94.5 -32.5t-143.5 -42.5z" />
    <glyph glyph-name="Acircumflex" unicode="&#xc2;" horiz-adv-x="661" 
d="M54 137q-29 -41 -28.5 -66t25 -36.5t62.5 -14.5l-4 -20q-47 2 -78 2.5t-58 0.5q-22 0 -36.5 -0.5t-30.5 -2.5l4 20q27 7 52 31t66 82l412 580q15 -2 32.5 -2t30.5 2l40 -629q3 -36 18.5 -49.5t30.5 -14.5l-4 -20q-27 2 -72 2.5t-85 0.5q-48 0 -91 -0.5t-69 -2.5l4 20
q48 2 68.5 17.5t17.5 66.5l-24 449l44 47zM151 288h292l-8 -20h-302zM475 827q-44 -16 -101.5 -30.5t-119.5 -26.5l-5 14q88 28 163 72t120 92h18q21 -55 51.5 -94.5t87.5 -69.5l-4 -14q-73 13 -120 27t-90 30z" />
    <glyph glyph-name="Atilde" unicode="&#xc3;" horiz-adv-x="661" 
d="M54 137q-29 -41 -28.5 -66t25 -36.5t62.5 -14.5l-4 -20q-47 2 -78 2.5t-58 0.5q-22 0 -36.5 -0.5t-30.5 -2.5l4 20q27 7 52 31t66 82l412 580q15 -2 32.5 -2t30.5 2l40 -629q3 -36 18.5 -49.5t30.5 -14.5l-4 -20q-27 2 -72 2.5t-85 0.5q-48 0 -91 -0.5t-69 -2.5l4 20
q48 2 68.5 17.5t17.5 66.5l-24 449l44 47zM151 288h292l-8 -20h-302zM443 937q38 0 63.5 -11t44.5 -25.5t39 -25.5t49 -11q22 0 41.5 13.5t37.5 44.5l18 -5q-30 -80 -79 -115.5t-99 -35.5q-38 0 -63 11t-44.5 25.5t-39.5 25.5t-48 11q-22 0 -41 -13t-39 -45l-18 5
q31 81 80 116t98 35z" />
    <glyph glyph-name="Adieresis" unicode="&#xc4;" horiz-adv-x="661" 
d="M54 137q-29 -41 -28.5 -66t25 -36.5t62.5 -14.5l-4 -20q-47 2 -78 2.5t-58 0.5q-22 0 -36.5 -0.5t-30.5 -2.5l4 20q27 7 52 31t66 82l412 580q15 -2 32.5 -2t30.5 2l40 -629q3 -36 18.5 -49.5t30.5 -14.5l-4 -20q-27 2 -72 2.5t-85 0.5q-48 0 -91 -0.5t-69 -2.5l4 20
q48 2 68.5 17.5t17.5 66.5l-24 449l44 47zM151 288h292l-8 -20h-302zM283 835q0 46 28.5 68.5t64.5 22.5t53 -20t17 -52q0 -47 -29.5 -68.5t-64.5 -21.5q-36 0 -52.5 19.5t-16.5 51.5zM532 835q0 46 28.5 68.5t63.5 22.5q37 0 53.5 -20t16.5 -52q0 -47 -29 -68.5t-64 -21.5
q-36 0 -52.5 19.5t-16.5 51.5z" />
    <glyph glyph-name="Aring" unicode="&#xc5;" horiz-adv-x="661" 
d="M54 137q-29 -41 -28.5 -66t25 -36.5t62.5 -14.5l-4 -20q-47 2 -78 2.5t-58 0.5q-22 0 -36.5 -0.5t-30.5 -2.5l4 20q27 7 52 31t66 82l412 580q15 -2 32.5 -2t30.5 2l40 -629q3 -36 18.5 -49.5t30.5 -14.5l-4 -20q-27 2 -72 2.5t-85 0.5q-48 0 -91 -0.5t-69 -2.5l4 20
q48 2 68.5 17.5t17.5 66.5l-24 449l44 47zM151 288h292l-8 -20h-302zM501 941q43 0 72.5 -23.5t29.5 -63.5q0 -31 -18 -56.5t-47.5 -40.5t-63.5 -15q-42 0 -70 23.5t-28 64.5q0 47 36 79t89 32zM479 763q37 0 67.5 26t30.5 63q0 35 -26 51.5t-54 16.5q-38 0 -66.5 -27
t-28.5 -63q0 -33 24 -50t53 -17z" />
    <glyph glyph-name="AE" unicode="&#xc6;" horiz-adv-x="907" 
d="M601 773l-569 -679q-29 -33 -28 -51t61 -23v-20q-13 2 -37 2.5t-49 0.5q-18 0 -36.5 -0.5t-30.5 -2.5v20q31 2 86 64l577 689h26zM228 346l19 20h480l-4 -20h-495zM656 366q45 0 66 34.5t37 77.5h22q-13 -39 -19.5 -64.5t-14.5 -57.5q-6 -22 -11.5 -47t-14.5 -75h-22
q0 23 4 48t-4.5 43.5t-46.5 20.5zM519 106q-14 -55 -3 -69t60 -14h63q48 0 79.5 17t54.5 55.5t45 104.5h22q-5 -13 -10.5 -32t-10.5 -40q-5 -19 -13 -54.5t-13 -73.5q-51 2 -113.5 2.5t-112.5 0.5h-92.5t-122.5 -0.5t-121 -2.5l4 20q34 2 53 8t30 24t20 54l132 496
q14 55 2.5 69.5t-61.5 16.5l5 20q56 -1 120.5 -2t122 -1h92.5q46 0 103 0.5t104 2.5q-13 -35 -23 -68t-15 -50q-5 -18 -8 -34.5l-5 -27.5h-22q16 89 -2.5 123t-78.5 34h-53q-33 0 -51.5 -5.5t-28.5 -23t-20 -54.5z" />
    <glyph glyph-name="Ccedilla" unicode="&#xc7;" horiz-adv-x="700" 
d="M757 708q-15 -39 -31 -94.5t-33 -135.5h-22q9 50 8.5 89.5t-16.5 67.5q-19 34 -47.5 47.5t-66.5 13.5q-49 0 -94.5 -25.5t-83.5 -71.5t-66.5 -106.5t-44.5 -130.5t-16 -144q0 -102 36 -150t97 -48q35 0 73.5 16t66.5 46q27 29 46.5 64.5t43.5 93.5h22
q-25 -91 -38.5 -146.5t-20.5 -93.5h-22q3 21 3 34q0 21 -8 25t-25 -8q-40 -28 -88.5 -46.5t-109.5 -18.5q-144 0 -212 66.5t-68 185.5q0 71 23.5 140.5t67 131.5t105 110t136.5 75t161 27q61 0 93.5 -19.5t54.5 -45.5q13 -16 26.5 -3.5t28.5 54.5h21zM342 6l-29 -66
q29 11 59 11q33 0 53 -12t20 -38q0 -33 -27 -52t-67 -28t-82 -9q-37 0 -67.5 6.5t-45.5 12.5l7 16q8 -3 32 -7t48 -4q16 0 36 3.5t35 12.5t15 28q0 23 -30 23q-5 0 -14.5 -1.5t-18.5 -5.5l49 110h27z" />
    <glyph glyph-name="Egrave" unicode="&#xc8;" horiz-adv-x="632" 
d="M234 346l4 20h206l-5 -20h-205zM340 366q35 0 62 17.5t47 44t31 54.5h22q-14 -43 -21 -69t-15 -57q-4 -19 -8.5 -35t-8 -36.5t-10.5 -54.5h-22q1 25 -5.5 52t-26 45.5t-58.5 18.5zM608 528q3 59 -9 93.5t-38 49t-68 14.5h-17q-34 0 -52.5 -5.5t-28.5 -23t-20 -54.5
l-132 -496q-14 -55 -3 -69t60 -14h25q51 0 88 17t68 55.5t62 104.5h22q-5 -13 -10.5 -32t-10.5 -40q-5 -19 -13 -54.5t-14 -73.5q-51 2 -113.5 2.5t-112.5 0.5h-93t-122.5 -0.5t-120.5 -2.5l4 20q34 2 53 8t30 24t20 54l132 496q14 55 2.5 69.5t-61.5 16.5l5 20
q56 -1 120.5 -2t122.5 -1h93q45 0 102 0.5t103 2.5q-13 -35 -21.5 -61t-16.5 -57q-4 -18 -7.5 -34t-5.5 -28h-22zM482 771q-54 21 -91 30.5t-62.5 16t-47.5 18.5q-22 13 -31.5 36t2.5 45q14 25 41.5 29t47.5 -7q23 -12 39.5 -33t40.5 -51t69 -72z" />
    <glyph glyph-name="Eacute" unicode="&#xc9;" horiz-adv-x="632" 
d="M234 346l4 20h206l-5 -20h-205zM340 366q35 0 62 17.5t47 44t31 54.5h22q-14 -43 -21 -69t-15 -57q-4 -19 -8.5 -35t-8 -36.5t-10.5 -54.5h-22q1 25 -5.5 52t-26 45.5t-58.5 18.5zM608 528q3 59 -9 93.5t-38 49t-68 14.5h-17q-34 0 -52.5 -5.5t-28.5 -23t-20 -54.5
l-132 -496q-14 -55 -3 -69t60 -14h25q51 0 88 17t68 55.5t62 104.5h22q-5 -13 -10.5 -32t-10.5 -40q-5 -19 -13 -54.5t-14 -73.5q-51 2 -113.5 2.5t-112.5 0.5h-93t-122.5 -0.5t-120.5 -2.5l4 20q34 2 53 8t30 24t20 54l132 496q14 55 2.5 69.5t-61.5 16.5l5 20
q56 -1 120.5 -2t122.5 -1h93q45 0 102 0.5t103 2.5q-13 -35 -21.5 -61t-16.5 -57q-4 -18 -7.5 -34t-5.5 -28h-22zM414 784q49 41 80 73t55.5 56t52.5 38q23 13 53.5 11.5t46.5 -30.5q13 -26 -1 -48t-42 -37q-38 -21 -94.5 -32.5t-143.5 -42.5z" />
    <glyph glyph-name="Ecircumflex" unicode="&#xca;" horiz-adv-x="632" 
d="M234 346l4 20h206l-5 -20h-205zM340 366q35 0 62 17.5t47 44t31 54.5h22q-14 -43 -21 -69t-15 -57q-4 -19 -8.5 -35t-8 -36.5t-10.5 -54.5h-22q1 25 -5.5 52t-26 45.5t-58.5 18.5zM608 528q3 59 -9 93.5t-38 49t-68 14.5h-17q-34 0 -52.5 -5.5t-28.5 -23t-20 -54.5
l-132 -496q-14 -55 -3 -69t60 -14h25q51 0 88 17t68 55.5t62 104.5h22q-5 -13 -10.5 -32t-10.5 -40q-5 -19 -13 -54.5t-14 -73.5q-51 2 -113.5 2.5t-112.5 0.5h-93t-122.5 -0.5t-120.5 -2.5l4 20q34 2 53 8t30 24t20 54l132 496q14 55 2.5 69.5t-61.5 16.5l5 20
q56 -1 120.5 -2t122.5 -1h93q45 0 102 0.5t103 2.5q-13 -35 -21.5 -61t-16.5 -57q-4 -18 -7.5 -34t-5.5 -28h-22zM433 827q-44 -16 -101.5 -30.5t-119.5 -26.5l-5 14q88 28 163 72t120 92h18q21 -55 51.5 -94.5t87.5 -69.5l-4 -14q-73 13 -120 27t-90 30z" />
    <glyph glyph-name="Edieresis" unicode="&#xcb;" horiz-adv-x="632" 
d="M234 346l4 20h206l-5 -20h-205zM340 366q35 0 62 17.5t47 44t31 54.5h22q-14 -43 -21 -69t-15 -57q-4 -19 -8.5 -35t-8 -36.5t-10.5 -54.5h-22q1 25 -5.5 52t-26 45.5t-58.5 18.5zM608 528q3 59 -9 93.5t-38 49t-68 14.5h-17q-34 0 -52.5 -5.5t-28.5 -23t-20 -54.5
l-132 -496q-14 -55 -3 -69t60 -14h25q51 0 88 17t68 55.5t62 104.5h22q-5 -13 -10.5 -32t-10.5 -40q-5 -19 -13 -54.5t-14 -73.5q-51 2 -113.5 2.5t-112.5 0.5h-93t-122.5 -0.5t-120.5 -2.5l4 20q34 2 53 8t30 24t20 54l132 496q14 55 2.5 69.5t-61.5 16.5l5 20
q56 -1 120.5 -2t122.5 -1h93q45 0 102 0.5t103 2.5q-13 -35 -21.5 -61t-16.5 -57q-4 -18 -7.5 -34t-5.5 -28h-22zM241 835q0 46 28.5 68.5t64.5 22.5t53 -20t17 -52q0 -47 -29.5 -68.5t-64.5 -21.5q-36 0 -52.5 19.5t-16.5 51.5zM490 835q0 46 28.5 68.5t63.5 22.5
q37 0 53.5 -20t16.5 -52q0 -47 -29 -68.5t-64 -21.5q-36 0 -52.5 19.5t-16.5 51.5z" />
    <glyph glyph-name="Igrave" unicode="&#xcc;" horiz-adv-x="406" 
d="M243 106q-14 -55 -3 -69.5t62 -16.5l-4 -20q-30 2 -78 2.5t-97 0.5q-51 0 -95 -0.5t-72 -2.5l5 20q33 2 51.5 8t29.5 24t20 54l132 496q14 55 2.5 69.5t-61.5 16.5l5 20q26 -1 71 -2t96 -1q49 0 95 1t81 2l-5 -20q-34 -1 -53 -7.5t-29.5 -24t-20.5 -54.5zM379 771
q-54 21 -91 30.5t-62.5 16t-47.5 18.5q-22 13 -31.5 36t2.5 45q14 25 41.5 29t47.5 -7q23 -12 39.5 -33t40.5 -51t69 -72z" />
    <glyph glyph-name="Iacute" unicode="&#xcd;" horiz-adv-x="406" 
d="M243 106q-14 -55 -3 -69.5t62 -16.5l-4 -20q-30 2 -78 2.5t-97 0.5q-51 0 -95 -0.5t-72 -2.5l5 20q33 2 51.5 8t29.5 24t20 54l132 496q14 55 2.5 69.5t-61.5 16.5l5 20q26 -1 71 -2t96 -1q49 0 95 1t81 2l-5 -20q-34 -1 -53 -7.5t-29.5 -24t-20.5 -54.5zM312 784
q49 41 80 73t55.5 56t52.5 38q23 13 53.5 11.5t46.5 -30.5q13 -26 -1 -48t-42 -37q-38 -21 -94.5 -32.5t-143.5 -42.5z" />
    <glyph glyph-name="Icircumflex" unicode="&#xce;" horiz-adv-x="406" 
d="M243 106q-14 -55 -3 -69.5t62 -16.5l-4 -20q-30 2 -78 2.5t-97 0.5q-51 0 -95 -0.5t-72 -2.5l5 20q33 2 51.5 8t29.5 24t20 54l132 496q14 55 2.5 69.5t-61.5 16.5l5 20q26 -1 71 -2t96 -1q49 0 95 1t81 2l-5 -20q-34 -1 -53 -7.5t-29.5 -24t-20.5 -54.5zM330 827
q-44 -16 -101.5 -30.5t-119.5 -26.5l-5 14q88 28 163 72t120 92h18q21 -55 51.5 -94.5t87.5 -69.5l-4 -14q-73 13 -120 27t-90 30z" />
    <glyph glyph-name="Idieresis" unicode="&#xcf;" horiz-adv-x="406" 
d="M243 106q-14 -55 -3 -69.5t62 -16.5l-4 -20q-30 2 -78 2.5t-97 0.5q-51 0 -95 -0.5t-72 -2.5l5 20q33 2 51.5 8t29.5 24t20 54l132 496q14 55 2.5 69.5t-61.5 16.5l5 20q26 -1 71 -2t96 -1q49 0 95 1t81 2l-5 -20q-34 -1 -53 -7.5t-29.5 -24t-20.5 -54.5zM138 835
q0 46 28.5 68.5t64.5 22.5t53 -20t17 -52q0 -47 -29.5 -68.5t-64.5 -21.5q-36 0 -52.5 19.5t-16.5 51.5zM387 835q0 46 28.5 68.5t63.5 22.5q37 0 53.5 -20t16.5 -52q0 -47 -29 -68.5t-64 -21.5q-36 0 -52.5 19.5t-16.5 51.5z" />
    <glyph glyph-name="Eth" unicode="&#xd0;" horiz-adv-x="787" 
d="M774 463q0 -62 -18.5 -127t-56.5 -125t-97 -108t-140.5 -75.5t-187.5 -27.5q-24 0 -61.5 1.5t-92.5 1.5q-23 0 -54 -0.5t-59.5 -1t-46.5 -1.5l3 20q32 2 50.5 8t29.5 24t20 54l131 496q10 40 2 61.5t-60 24.5l3 20q19 -1 49.5 -2t64.5 -1h64q15 1 43 1.5t57 1t48 0.5
q146 0 227.5 -61.5t81.5 -183.5zM278 18q75 0 133 43.5t97.5 114.5t60.5 155.5t21 165.5q0 94 -34 143.5t-111 49.5q-23 0 -35 -6t-19 -24.5t-16 -55.5l-131 -500q-13 -50 -10.5 -68t44.5 -18zM453 366l-6 -25h-428l6 25h428z" />
    <glyph glyph-name="Ntilde" unicode="&#xd1;" horiz-adv-x="843" 
d="M534 -5l-261 522l1 13t1.5 29.5t1.5 29.5l1 13q8 37 5.5 54.5t-20 24t-56.5 7.5l5 20q16 -1 39.5 -2t49.5 -1q47 0 81 3l218 -461l-4.5 -25.5t-11 -62.5t-13 -75t-11 -63.5l-4.5 -25.5h-22zM842 736q-26 0 -47.5 -15.5t-37.5 -38.5q-46 -68 -94 -239t-107 -448l-14 28
q18 84 40.5 182.5t47.5 193.5t52.5 172t56.5 119q19 27 45 45.5t63 18.5q50 0 78 -28t28 -68q0 -43 -29 -70.5t-73 -27.5q-36 0 -57 18t-21 49q0 39 25.5 67t63.5 36q-3 3 -8.5 4.5t-11.5 1.5zM29 -56q28 0 48.5 15t36.5 40q29 46 58.5 144t60 237t61.5 305l17 -21
q-20 -102 -42 -208t-45.5 -201t-47 -165.5t-46.5 -100.5q-18 -24 -42.5 -43.5t-64.5 -19.5q-49 0 -77 28t-28 68q0 43 29 70.5t72 27.5q37 0 58 -18t21 -49q0 -39 -26 -66.5t-64 -36.5q4 -3 9 -4.5t12 -1.5zM501 937q38 0 63.5 -11t44.5 -25.5t39 -25.5t49 -11
q22 0 41.5 13.5t37.5 44.5l18 -5q-30 -80 -79 -115.5t-99 -35.5q-38 0 -63 11t-44.5 25.5t-39.5 25.5t-48 11q-22 0 -41 -13t-39 -45l-18 5q31 81 80 116t98 35z" />
    <glyph glyph-name="Ograve" unicode="&#xd2;" horiz-adv-x="793" 
d="M494 704q-51 0 -97.5 -42t-83.5 -113t-59 -158.5t-22 -177.5q0 -98 27.5 -153.5t70.5 -55.5q51 0 97.5 42t83.5 113t59 158.5t22 177.5q0 98 -27.5 153.5t-70.5 55.5zM38 226q0 66 21.5 136t61.5 134t97 115t129 81t156 30q133 0 208.5 -62.5t75.5 -178.5
q0 -66 -21.5 -135.5t-62 -133.5t-98 -115t-129 -81t-155.5 -30q-133 0 -208 62.5t-75 177.5zM553 771q-54 21 -91 30.5t-62.5 16t-47.5 18.5q-22 13 -31.5 36t2.5 45q14 25 41.5 29t47.5 -7q23 -12 39.5 -33t40.5 -51t69 -72z" />
    <glyph glyph-name="Oacute" unicode="&#xd3;" horiz-adv-x="793" 
d="M494 704q-51 0 -97.5 -42t-83.5 -113t-59 -158.5t-22 -177.5q0 -98 27.5 -153.5t70.5 -55.5q51 0 97.5 42t83.5 113t59 158.5t22 177.5q0 98 -27.5 153.5t-70.5 55.5zM38 226q0 66 21.5 136t61.5 134t97 115t129 81t156 30q133 0 208.5 -62.5t75.5 -178.5
q0 -66 -21.5 -135.5t-62 -133.5t-98 -115t-129 -81t-155.5 -30q-133 0 -208 62.5t-75 177.5zM485 784q49 41 80 73t55.5 56t52.5 38q23 13 53.5 11.5t46.5 -30.5q13 -26 -1 -48t-42 -37q-38 -21 -94.5 -32.5t-143.5 -42.5z" />
    <glyph glyph-name="Ocircumflex" unicode="&#xd4;" horiz-adv-x="793" 
d="M494 704q-51 0 -97.5 -42t-83.5 -113t-59 -158.5t-22 -177.5q0 -98 27.5 -153.5t70.5 -55.5q51 0 97.5 42t83.5 113t59 158.5t22 177.5q0 98 -27.5 153.5t-70.5 55.5zM38 226q0 66 21.5 136t61.5 134t97 115t129 81t156 30q133 0 208.5 -62.5t75.5 -178.5
q0 -66 -21.5 -135.5t-62 -133.5t-98 -115t-129 -81t-155.5 -30q-133 0 -208 62.5t-75 177.5zM504 827q-44 -16 -101.5 -30.5t-119.5 -26.5l-5 14q88 28 163 72t120 92h18q21 -55 51.5 -94.5t87.5 -69.5l-4 -14q-73 13 -120 27t-90 30z" />
    <glyph glyph-name="Otilde" unicode="&#xd5;" horiz-adv-x="793" 
d="M494 704q-51 0 -97.5 -42t-83.5 -113t-59 -158.5t-22 -177.5q0 -98 27.5 -153.5t70.5 -55.5q51 0 97.5 42t83.5 113t59 158.5t22 177.5q0 98 -27.5 153.5t-70.5 55.5zM38 226q0 66 21.5 136t61.5 134t97 115t129 81t156 30q133 0 208.5 -62.5t75.5 -178.5
q0 -66 -21.5 -135.5t-62 -133.5t-98 -115t-129 -81t-155.5 -30q-133 0 -208 62.5t-75 177.5zM472 937q38 0 63.5 -11t44.5 -25.5t39 -25.5t49 -11q22 0 41.5 13.5t37.5 44.5l18 -5q-30 -80 -79 -115.5t-99 -35.5q-38 0 -63 11t-44.5 25.5t-39.5 25.5t-48 11q-22 0 -41 -13
t-39 -45l-18 5q31 81 80 116t98 35z" />
    <glyph glyph-name="Odieresis" unicode="&#xd6;" horiz-adv-x="793" 
d="M494 704q-51 0 -97.5 -42t-83.5 -113t-59 -158.5t-22 -177.5q0 -98 27.5 -153.5t70.5 -55.5q51 0 97.5 42t83.5 113t59 158.5t22 177.5q0 98 -27.5 153.5t-70.5 55.5zM38 226q0 66 21.5 136t61.5 134t97 115t129 81t156 30q133 0 208.5 -62.5t75.5 -178.5
q0 -66 -21.5 -135.5t-62 -133.5t-98 -115t-129 -81t-155.5 -30q-133 0 -208 62.5t-75 177.5zM312 835q0 46 28.5 68.5t64.5 22.5t53 -20t17 -52q0 -47 -29.5 -68.5t-64.5 -21.5q-36 0 -52.5 19.5t-16.5 51.5zM561 835q0 46 28.5 68.5t63.5 22.5q37 0 53.5 -20t16.5 -52
q0 -47 -29 -68.5t-64 -21.5q-36 0 -52.5 19.5t-16.5 51.5z" />
    <glyph glyph-name="multiply" unicode="&#xd7;" horiz-adv-x="491" 
d="M16 182l223 173l-125 175l26 18l123 -175l227 177l16 -22l-227 -176l125 -173l-25 -18l-124 173l-224 -174z" />
    <glyph glyph-name="Oslash" unicode="&#xd8;" horiz-adv-x="793" 
d="M494 704q-51 0 -97.5 -42t-83.5 -113t-59 -158.5t-22 -177.5q0 -98 27.5 -153.5t70.5 -55.5q51 0 97.5 42t83.5 113t59 158.5t22 177.5q0 98 -27.5 153.5t-70.5 55.5zM38 226q0 66 21.5 136t61.5 134t97 115t129 81t156 30q133 0 208.5 -62.5t75.5 -178.5
q0 -66 -21.5 -135.5t-62 -133.5t-98 -115t-129 -81t-155.5 -30q-133 0 -208 62.5t-75 177.5zM660 632l135 141l15 -13l-140 -148zM164 75l-144 -148l-17 14l147 152zM186 96l459 536l10 -20l-456 -534z" />
    <glyph glyph-name="Ugrave" unicode="&#xd9;" horiz-adv-x="698" 
d="M647 528q16 61 18 93.5t-15.5 47t-60.5 19.5l6 20q19 -1 50 -2t59 -1q23 0 46 1t40 2l-6 -20q-33 -5 -52 -19t-32 -43t-27 -82l-65 -253q-36 -138 -98 -212q-36 -42 -89.5 -67.5t-115.5 -25.5q-83 0 -134 24t-75 63q-23 38 -23 89.5t20 125.5l83 314q14 55 2.5 69.5
t-61.5 16.5l6 20q27 -1 75 -2t102 -1q47 0 89.5 1t75.5 2l-6 -20q-34 -1 -53 -7.5t-29.5 -24t-20.5 -54.5l-88 -331q-23 -86 -24 -141.5t19 -82t61 -26.5q75 0 125 33.5t82 92.5t51 133zM546 771q-54 21 -91 30.5t-62.5 16t-47.5 18.5q-22 13 -31.5 36t2.5 45q14 25 41.5 29
t47.5 -7q23 -12 39.5 -33t40.5 -51t69 -72z" />
    <glyph glyph-name="Uacute" unicode="&#xda;" horiz-adv-x="698" 
d="M647 528q16 61 18 93.5t-15.5 47t-60.5 19.5l6 20q19 -1 50 -2t59 -1q23 0 46 1t40 2l-6 -20q-33 -5 -52 -19t-32 -43t-27 -82l-65 -253q-36 -138 -98 -212q-36 -42 -89.5 -67.5t-115.5 -25.5q-83 0 -134 24t-75 63q-23 38 -23 89.5t20 125.5l83 314q14 55 2.5 69.5
t-61.5 16.5l6 20q27 -1 75 -2t102 -1q47 0 89.5 1t75.5 2l-6 -20q-34 -1 -53 -7.5t-29.5 -24t-20.5 -54.5l-88 -331q-23 -86 -24 -141.5t19 -82t61 -26.5q75 0 125 33.5t82 92.5t51 133zM479 784q49 41 80 73t55.5 56t52.5 38q23 13 53.5 11.5t46.5 -30.5q13 -26 -1 -48
t-42 -37q-38 -21 -94.5 -32.5t-143.5 -42.5z" />
    <glyph glyph-name="Ucircumflex" unicode="&#xdb;" horiz-adv-x="698" 
d="M647 528q16 61 18 93.5t-15.5 47t-60.5 19.5l6 20q19 -1 50 -2t59 -1q23 0 46 1t40 2l-6 -20q-33 -5 -52 -19t-32 -43t-27 -82l-65 -253q-36 -138 -98 -212q-36 -42 -89.5 -67.5t-115.5 -25.5q-83 0 -134 24t-75 63q-23 38 -23 89.5t20 125.5l83 314q14 55 2.5 69.5
t-61.5 16.5l6 20q27 -1 75 -2t102 -1q47 0 89.5 1t75.5 2l-6 -20q-34 -1 -53 -7.5t-29.5 -24t-20.5 -54.5l-88 -331q-23 -86 -24 -141.5t19 -82t61 -26.5q75 0 125 33.5t82 92.5t51 133zM497 827q-44 -16 -101.5 -30.5t-119.5 -26.5l-5 14q88 28 163 72t120 92h18
q21 -55 51.5 -94.5t87.5 -69.5l-4 -14q-73 13 -120 27t-90 30z" />
    <glyph glyph-name="Udieresis" unicode="&#xdc;" horiz-adv-x="698" 
d="M647 528q16 61 18 93.5t-15.5 47t-60.5 19.5l6 20q19 -1 50 -2t59 -1q23 0 46 1t40 2l-6 -20q-33 -5 -52 -19t-32 -43t-27 -82l-65 -253q-36 -138 -98 -212q-36 -42 -89.5 -67.5t-115.5 -25.5q-83 0 -134 24t-75 63q-23 38 -23 89.5t20 125.5l83 314q14 55 2.5 69.5
t-61.5 16.5l6 20q27 -1 75 -2t102 -1q47 0 89.5 1t75.5 2l-6 -20q-34 -1 -53 -7.5t-29.5 -24t-20.5 -54.5l-88 -331q-23 -86 -24 -141.5t19 -82t61 -26.5q75 0 125 33.5t82 92.5t51 133zM305 835q0 46 28.5 68.5t64.5 22.5t53 -20t17 -52q0 -47 -29.5 -68.5t-64.5 -21.5
q-36 0 -52.5 19.5t-16.5 51.5zM554 835q0 46 28.5 68.5t63.5 22.5q37 0 53.5 -20t16.5 -52q0 -47 -29 -68.5t-64 -21.5q-36 0 -52.5 19.5t-16.5 51.5z" />
    <glyph glyph-name="Yacute" unicode="&#xdd;" horiz-adv-x="755" 
d="M407 106q-13 -55 5.5 -69.5t69.5 -16.5l-5 -20q-20 1 -51.5 1.5t-68 1t-68.5 0.5q-51 0 -97.5 -0.5t-73.5 -2.5l5 20q34 2 53 8t30 24t20 54l69 274l75 -63l81 19l34 80zM723 704q-16 0 -30 -5t-32 -18q-27 -20 -65.5 -73t-78 -138.5t-71.5 -199.5l-162 -5
q-4 47 -11 98.5t-17 101t-23.5 90t-30 64t-37.5 23.5q-19 0 -29.5 -14.5t-16.5 -32.5l-19 -57h-11h-11l23 71q22 64 63.5 88.5t91.5 24.5q73 0 111 -41.5t56.5 -121t31.5 -192.5q32 95 72.5 169.5t83.5 124.5q23 26 53 43.5t66 17.5q49 0 77 -28.5t27 -68.5q0 -43 -29 -70
t-72 -27q-37 0 -58 18t-21 50q0 39 26 66.5t64 35.5q-4 3 -9 4.5t-12 1.5zM470 784q49 41 80 73t55.5 56t52.5 38q23 13 53.5 11.5t46.5 -30.5q13 -26 -1 -48t-42 -37q-38 -21 -94.5 -32.5t-143.5 -42.5z" />
    <glyph glyph-name="Thorn" unicode="&#xde;" horiz-adv-x="679" 
d="M288 557q36 0 72.5 1t73.5 1q125 0 186 -41.5t61 -109.5q0 -78 -53.5 -139.5t-149.5 -97t-222 -35.5h-40l2.5 10l2.5 10h45q78 0 127.5 39t74 100t24.5 129q0 52 -26 84t-77 32q-25 0 -40.5 -1t-28 -2t-32.5 -3v23zM243 106q-14 -55 -3 -69.5t62 -16.5l-4 -20
q-30 2 -78 2.5t-97 0.5q-51 0 -95 -0.5t-72 -2.5l5 20q33 2 51.5 8t29.5 24t20 54l132 496q14 55 2.5 69.5t-61.5 16.5l5 20q26 -1 71 -2t96 -1q49 0 95 1t81 2l-5 -20q-34 -1 -53 -7.5t-29.5 -24t-20.5 -54.5z" />
    <glyph glyph-name="germandbls" unicode="&#xdf;" horiz-adv-x="628" 
d="M409 767q-35 0 -57.5 -35.5t-41.5 -104.5l-211 -801q-45 -1 -85.5 -4t-76.5 -10l186 701q24 92 61 151.5t96 88.5t149 29q111 0 156.5 -31t45.5 -68t-27 -64t-71.5 -55t-96.5 -70q-38 -30 -46.5 -45t-8.5 -27q0 -25 16 -47t39.5 -42.5t46.5 -41.5q40 -37 65.5 -66.5
t25.5 -75.5q0 -55 -31 -91t-81.5 -54t-107.5 -18q-45 0 -77 14.5t-49 40.5t-17 59t17.5 57.5t47.5 24.5q20 0 34.5 -12t22 -32.5t7.5 -45.5q0 -22 -7.5 -45t-21.5 -38q3 -1 7.5 -2t11.5 -1q28 0 46 26.5t18 68.5q0 34 -7.5 62t-21.5 62q-11 30 -25.5 67.5t-14.5 71.5
q0 31 12 51.5t33 40.5t47 46q35 37 48 83.5t13 89.5q0 51 -21 71.5t-48 20.5z" />
    <glyph glyph-name="agrave" unicode="&#xe0;" horiz-adv-x="570" 
d="M190 47q12 0 27 12.5t31 38.5t33 67t33 99l-25 -108q-31 -96 -75.5 -133t-99.5 -37q-60 0 -89 33t-29 91q0 56 19 115.5t51.5 114t73 98t85 69t87.5 25.5q33 0 50.5 -23t11.5 -76l-11 -6q5 31 -1.5 46.5t-22.5 15.5q-24 0 -54 -34t-57 -90.5t-45.5 -124.5t-18.5 -135
q0 -31 6 -44.5t20 -13.5zM388 517q49 1 87.5 4.5t75.5 10.5l-133 -447q-4 -14 -4.5 -24.5t4 -16t13.5 -5.5q11 0 26 13t32 58l19 52h19l-25 -73q-22 -62 -61 -82.5t-77 -20.5q-56 0 -80 33q-15 22 -15 55t13 78zM380 599q-39 47 -68.5 74t-50 46t-33.5 41q-14 23 -9.5 47.5
t24.5 36.5q23 15 49 6t39 -30q15 -22 20.5 -49.5t13 -66t27.5 -98.5z" />
    <glyph glyph-name="aacute" unicode="&#xe1;" horiz-adv-x="570" 
d="M190 47q12 0 27 12.5t31 38.5t33 67t33 99l-25 -108q-31 -96 -75.5 -133t-99.5 -37q-60 0 -89 33t-29 91q0 56 19 115.5t51.5 114t73 98t85 69t87.5 25.5q33 0 50.5 -23t11.5 -76l-11 -6q5 31 -1.5 46.5t-22.5 15.5q-24 0 -54 -34t-57 -90.5t-45.5 -124.5t-18.5 -135
q0 -31 6 -44.5t20 -13.5zM388 517q49 1 87.5 4.5t75.5 10.5l-133 -447q-4 -14 -4.5 -24.5t4 -16t13.5 -5.5q11 0 26 13t32 58l19 52h19l-25 -73q-22 -62 -61 -82.5t-77 -20.5q-56 0 -80 33q-15 22 -15 55t13 78zM321 609q36 53 56.5 92.5t37 69t39.5 51.5q19 20 48.5 26.5
t51.5 -16.5q21 -19 14.5 -44t-30.5 -49q-20 -21 -49 -39t-68.5 -41.5t-89.5 -59.5z" />
    <glyph glyph-name="acircumflex" unicode="&#xe2;" horiz-adv-x="570" 
d="M190 47q12 0 27 12.5t31 38.5t33 67t33 99l-25 -108q-31 -96 -75.5 -133t-99.5 -37q-60 0 -89 33t-29 91q0 56 19 115.5t51.5 114t73 98t85 69t87.5 25.5q33 0 50.5 -23t11.5 -76l-11 -6q5 31 -1.5 46.5t-22.5 15.5q-24 0 -54 -34t-57 -90.5t-45.5 -124.5t-18.5 -135
q0 -31 6 -44.5t20 -13.5zM388 517q49 1 87.5 4.5t75.5 10.5l-133 -447q-4 -14 -4.5 -24.5t4 -16t13.5 -5.5q11 0 26 13t32 58l19 52h19l-25 -73q-22 -62 -61 -82.5t-77 -20.5q-56 0 -80 33q-15 22 -15 55t13 78zM366 672q-37 -18 -84.5 -34.5t-98.5 -29.5l-5 14
q76 34 141.5 89t105.5 115h18q15 -71 41.5 -119.5t77.5 -84.5l-4 -14q-66 13 -110 28.5t-82 35.5z" />
    <glyph glyph-name="atilde" unicode="&#xe3;" horiz-adv-x="570" 
d="M190 47q12 0 27 12.5t31 38.5t33 67t33 99l-25 -108q-31 -96 -75.5 -133t-99.5 -37q-60 0 -89 33t-29 91q0 56 19 115.5t51.5 114t73 98t85 69t87.5 25.5q33 0 50.5 -23t11.5 -76l-11 -6q5 31 -1.5 46.5t-22.5 15.5q-24 0 -54 -34t-57 -90.5t-45.5 -124.5t-18.5 -135
q0 -31 6 -44.5t20 -13.5zM388 517q49 1 87.5 4.5t75.5 10.5l-133 -447q-4 -14 -4.5 -24.5t4 -16t13.5 -5.5q11 0 26 13t32 58l19 52h19l-25 -73q-22 -62 -61 -82.5t-77 -20.5q-56 0 -80 33q-15 22 -15 55t13 78zM361 792q30 0 49.5 -11t34.5 -25.5t30.5 -25.5t36.5 -11
q20 0 37.5 13.5t34.5 44.5l18 -5q-28 -81 -73 -116t-89 -35q-30 0 -49.5 11t-34.5 25.5t-30.5 25.5t-37.5 11q-19 0 -36.5 -13t-34.5 -45l-18 5q27 81 72 116t90 35z" />
    <glyph glyph-name="adieresis" unicode="&#xe4;" horiz-adv-x="570" 
d="M190 47q12 0 27 12.5t31 38.5t33 67t33 99l-25 -108q-31 -96 -75.5 -133t-99.5 -37q-60 0 -89 33t-29 91q0 56 19 115.5t51.5 114t73 98t85 69t87.5 25.5q33 0 50.5 -23t11.5 -76l-11 -6q5 31 -1.5 46.5t-22.5 15.5q-24 0 -54 -34t-57 -90.5t-45.5 -124.5t-18.5 -135
q0 -31 6 -44.5t20 -13.5zM388 517q49 1 87.5 4.5t75.5 10.5l-133 -447q-4 -14 -4.5 -24.5t4 -16t13.5 -5.5q11 0 26 13t32 58l19 52h19l-25 -73q-22 -62 -61 -82.5t-77 -20.5q-56 0 -80 33q-15 22 -15 55t13 78zM204 675q0 46 28.5 68.5t63.5 22.5q37 0 53.5 -20t16.5 -52
q0 -47 -29 -68.5t-64 -21.5q-36 0 -52.5 19.5t-16.5 51.5zM437 675q0 46 28 68.5t64 22.5t53 -20t17 -52q0 -47 -29 -68.5t-64 -21.5q-37 0 -53 19.5t-16 51.5z" />
    <glyph glyph-name="aring" unicode="&#xe5;" horiz-adv-x="570" 
d="M190 47q12 0 27 12.5t31 38.5t33 67t33 99l-25 -108q-31 -96 -75.5 -133t-99.5 -37q-60 0 -89 33t-29 91q0 56 19 115.5t51.5 114t73 98t85 69t87.5 25.5q33 0 50.5 -23t11.5 -76l-11 -6q5 31 -1.5 46.5t-22.5 15.5q-24 0 -54 -34t-57 -90.5t-45.5 -124.5t-18.5 -135
q0 -31 6 -44.5t20 -13.5zM388 517q49 1 87.5 4.5t75.5 10.5l-133 -447q-4 -14 -4.5 -24.5t4 -16t13.5 -5.5q11 0 26 13t32 58l19 52h19l-25 -73q-22 -62 -61 -82.5t-77 -20.5q-56 0 -80 33q-15 22 -15 55t13 78zM418 799q43 0 72.5 -23.5t29.5 -63.5q0 -31 -18 -56.5
t-47.5 -40.5t-63.5 -15q-41 0 -69.5 23.5t-28.5 64.5q0 47 36.5 79t88.5 32zM396 621q38 0 68 26t30 63q0 35 -25.5 51.5t-53.5 16.5q-38 0 -66.5 -27.5t-28.5 -62.5q0 -33 24 -50t52 -17z" />
    <glyph glyph-name="ae" unicode="&#xe6;" horiz-adv-x="760" 
d="M423 213q35 15 69.5 32t60.5 39q42 38 66 89.5t24 110.5q0 29 -20 29q-26 0 -56.5 -34t-58.5 -88.5t-45.5 -118.5t-17.5 -123q0 -57 22.5 -77t58.5 -20q23 0 62.5 16.5t79.5 59.5l16 -8q-21 -33 -56 -64t-82 -50.5t-104 -19.5q-68 0 -116.5 35.5t-48.5 105.5q0 56 18 113
t50.5 109.5t78 93.5t101.5 65t120 24q50 0 84 -21t34 -65q0 -38 -21 -71.5t-56.5 -60.5t-80 -49t-91.5 -38t-92 -25zM207 47q21 0 42.5 13.5t45.5 48.5l5 -15q-34 -54 -84.5 -81t-105.5 -27q-61 0 -90 32t-29 90q0 55 23.5 112t64 109.5t93 94t111 66t116.5 24.5
q23 0 49 -10.5t34 -47.5l-14 -9q-4 23 -19 31.5t-29 8.5q-40 0 -85.5 -31.5t-85.5 -85t-65 -120.5t-25 -139q0 -34 14.5 -49t33.5 -15z" />
    <glyph glyph-name="ccedilla" unicode="&#xe7;" horiz-adv-x="474" 
d="M370 512q-37 0 -72.5 -31.5t-63.5 -84t-44.5 -118t-16.5 -133.5q0 -54 21.5 -77.5t56.5 -23.5q31 0 62.5 18t63.5 66l20 -8q-20 -33 -51.5 -64t-74 -50.5t-97.5 -19.5q-73 0 -121 38t-48 118q0 63 24.5 131t71 127t112 95.5t146.5 36.5q59 0 92.5 -29.5t33.5 -70.5
q0 -30 -14.5 -57.5t-39 -45.5t-54.5 -18q-25 0 -44 16.5t-19 47.5q0 45 29.5 78t67.5 43q-8 8 -17.5 12t-23.5 4zM189 0l-46 -68q12 5 27.5 8t29.5 3q28 0 47.5 -10t19.5 -32q0 -33 -27 -52t-68 -28t-83 -9q-32 0 -56.5 6.5t-36.5 12.5l7 16q7 -3 23 -7t37 -4q12 0 31 3.5
t34 12.5t15 28q0 23 -28 23q-5 0 -14 -1.5t-17 -5.5l77 104h28z" />
    <glyph glyph-name="egrave" unicode="&#xe8;" horiz-adv-x="483" 
d="M146 213q37 16 71 36.5t60 44.5q39 37 64 85.5t25 104.5q0 17 -4 23t-12 6q-27 0 -58 -34t-59.5 -88.5t-46.5 -118.5t-18 -123q0 -57 22.5 -77t58.5 -20q23 0 63 16.5t79 59.5l16 -8q-21 -33 -56 -64t-82 -50.5t-104 -19.5q-68 0 -116.5 35.5t-48.5 105.5q0 56 18 113
t51 109.5t79.5 93.5t102.5 65t121 24q48 0 81 -20.5t33 -63.5q0 -38 -21 -71.5t-56.5 -61.5t-80 -50t-91.5 -38t-92 -25zM359 599q-39 47 -68.5 74t-50 46t-33.5 41q-14 23 -9.5 47.5t24.5 36.5q23 15 49 6t39 -30q15 -22 20.5 -49.5t13 -66t27.5 -98.5z" />
    <glyph glyph-name="eacute" unicode="&#xe9;" horiz-adv-x="483" 
d="M146 213q37 16 71 36.5t60 44.5q39 37 64 85.5t25 104.5q0 17 -4 23t-12 6q-27 0 -58 -34t-59.5 -88.5t-46.5 -118.5t-18 -123q0 -57 22.5 -77t58.5 -20q23 0 63 16.5t79 59.5l16 -8q-21 -33 -56 -64t-82 -50.5t-104 -19.5q-68 0 -116.5 35.5t-48.5 105.5q0 56 18 113
t51 109.5t79.5 93.5t102.5 65t121 24q48 0 81 -20.5t33 -63.5q0 -38 -21 -71.5t-56.5 -61.5t-80 -50t-91.5 -38t-92 -25zM299 609q36 53 56.5 92.5t37 69t39.5 51.5q19 20 48.5 26.5t51.5 -16.5q21 -19 14.5 -44t-30.5 -49q-20 -21 -49 -39t-68.5 -41.5t-89.5 -59.5z" />
    <glyph glyph-name="ecircumflex" unicode="&#xea;" horiz-adv-x="483" 
d="M146 213q37 16 71 36.5t60 44.5q39 37 64 85.5t25 104.5q0 17 -4 23t-12 6q-27 0 -58 -34t-59.5 -88.5t-46.5 -118.5t-18 -123q0 -57 22.5 -77t58.5 -20q23 0 63 16.5t79 59.5l16 -8q-21 -33 -56 -64t-82 -50.5t-104 -19.5q-68 0 -116.5 35.5t-48.5 105.5q0 56 18 113
t51 109.5t79.5 93.5t102.5 65t121 24q48 0 81 -20.5t33 -63.5q0 -38 -21 -71.5t-56.5 -61.5t-80 -50t-91.5 -38t-92 -25zM344 672q-37 -18 -84.5 -34.5t-98.5 -29.5l-5 14q76 34 141.5 89t105.5 115h18q15 -71 41.5 -119.5t77.5 -84.5l-4 -14q-66 13 -110 28.5t-82 35.5z
" />
    <glyph glyph-name="edieresis" unicode="&#xeb;" horiz-adv-x="483" 
d="M146 213q37 16 71 36.5t60 44.5q39 37 64 85.5t25 104.5q0 17 -4 23t-12 6q-27 0 -58 -34t-59.5 -88.5t-46.5 -118.5t-18 -123q0 -57 22.5 -77t58.5 -20q23 0 63 16.5t79 59.5l16 -8q-21 -33 -56 -64t-82 -50.5t-104 -19.5q-68 0 -116.5 35.5t-48.5 105.5q0 56 18 113
t51 109.5t79.5 93.5t102.5 65t121 24q48 0 81 -20.5t33 -63.5q0 -38 -21 -71.5t-56.5 -61.5t-80 -50t-91.5 -38t-92 -25zM182 675q0 46 28.5 68.5t63.5 22.5q37 0 53.5 -20t16.5 -52q0 -47 -29 -68.5t-64 -21.5q-36 0 -52.5 19.5t-16.5 51.5zM415 675q0 46 28 68.5t64 22.5
t53 -20t17 -52q0 -47 -29 -68.5t-64 -21.5q-37 0 -53 19.5t-16 51.5z" />
    <glyph glyph-name="igrave" unicode="&#xec;" horiz-adv-x="328" 
d="M132 433q16 46 -10 46q-16 0 -30 -16t-29 -55l-22 -56h-19l28 77q21 57 58.5 80t85.5 23q49 0 71 -22t24.5 -54t-8.5 -64l-105 -307q-8 -26 -3.5 -36t16.5 -10q11 0 26 13t32 58l20 52h19l-26 -73q-21 -62 -60.5 -82.5t-78.5 -20.5q-43 0 -68 19t-29 56t13 91zM227 599
q-39 47 -68.5 74t-50 46t-33.5 41q-14 23 -9.5 47.5t24.5 36.5q23 15 49 6t39 -30q15 -22 20.5 -49.5t13 -66t27.5 -98.5z" />
    <glyph glyph-name="iacute" unicode="&#xed;" horiz-adv-x="328" 
d="M132 433q16 46 -10 46q-16 0 -30 -16t-29 -55l-22 -56h-19l28 77q21 57 58.5 80t85.5 23q49 0 71 -22t24.5 -54t-8.5 -64l-105 -307q-8 -26 -3.5 -36t16.5 -10q11 0 26 13t32 58l20 52h19l-26 -73q-21 -62 -60.5 -82.5t-78.5 -20.5q-43 0 -68 19t-29 56t13 91zM168 609
q36 53 56.5 92.5t37 69t39.5 51.5q19 20 48.5 26.5t51.5 -16.5q21 -19 14.5 -44t-30.5 -49q-20 -21 -49 -39t-68.5 -41.5t-89.5 -59.5z" />
    <glyph glyph-name="icircumflex" unicode="&#xee;" horiz-adv-x="328" 
d="M132 433q16 46 -10 46q-16 0 -30 -16t-29 -55l-22 -56h-19l28 77q21 57 58.5 80t85.5 23q49 0 71 -22t24.5 -54t-8.5 -64l-105 -307q-8 -26 -3.5 -36t16.5 -10q11 0 26 13t32 58l20 52h19l-26 -73q-21 -62 -60.5 -82.5t-78.5 -20.5q-43 0 -68 19t-29 56t13 91zM212 672
q-37 -18 -84.5 -34.5t-98.5 -29.5l-5 14q76 34 141.5 89t105.5 115h18q15 -71 41.5 -119.5t77.5 -84.5l-4 -14q-66 13 -110 28.5t-82 35.5z" />
    <glyph glyph-name="idieresis" unicode="&#xef;" horiz-adv-x="328" 
d="M132 433q16 46 -10 46q-16 0 -30 -16t-29 -55l-22 -56h-19l28 77q21 57 58.5 80t85.5 23q49 0 71 -22t24.5 -54t-8.5 -64l-105 -307q-8 -26 -3.5 -36t16.5 -10q11 0 26 13t32 58l20 52h19l-26 -73q-21 -62 -60.5 -82.5t-78.5 -20.5q-43 0 -68 19t-29 56t13 91zM50 675
q0 46 28.5 68.5t63.5 22.5q37 0 53.5 -20t16.5 -52q0 -47 -29 -68.5t-64 -21.5q-36 0 -52.5 19.5t-16.5 51.5zM283 675q0 46 28 68.5t64 22.5t53 -20t17 -52q0 -47 -29 -68.5t-64 -21.5q-37 0 -53 19.5t-16 51.5z" />
    <glyph glyph-name="eth" unicode="&#xf0;" horiz-adv-x="542" 
d="M339 684l172 76l6 -18l-164 -72zM353 669l-219 -97l-6 18l211 93zM349 421q0 85 -18.5 150t-54.5 112.5t-91 81.5l12 17q93 -30 164.5 -87t112.5 -135t41 -171q0 -70 -21.5 -141.5t-64 -130.5t-105 -95t-145.5 -36q-48 0 -86.5 16t-61 53t-22.5 99q0 57 20 122t59 122.5
t94.5 93.5t126.5 36q28 0 44.5 -8t33.5 -26l-7 -12q-9 13 -26 19.5t-33 6.5q-28 0 -51 -28t-40.5 -75t-30 -104t-18.5 -117t-6 -112q0 -41 6 -53.5t21 -12.5q29 0 56 39.5t47 102.5t32 135.5t12 137.5z" />
    <glyph glyph-name="ntilde" unicode="&#xf1;" horiz-adv-x="611" 
d="M168 0h-159l122 433q5 15 6 25t-2.5 15.5t-13.5 5.5q-17 0 -30.5 -15t-29.5 -56l-21 -56h-19l28 77q19 55 52 79t81 24q51 0 72 -21.5t23 -54t-7 -64.5zM196 156q40 116 74 189t66.5 114.5t67 57t73.5 15.5q49 0 71 -20.5t23 -55t-13 -75.5l-99 -296q-9 -28 -3 -37t16 -9
q11 0 26 12.5t32 58.5l19 52h19l-25 -73q-22 -63 -61 -83t-77 -20q-60 0 -85 35q-14 20 -14.5 51t15.5 80l88 264q6 17 8 30.5t-1 21.5t-13 8q-22 0 -52 -39.5t-62.5 -106t-63 -148t-52.5 -166.5zM352 792q30 0 49.5 -11t34.5 -25.5t30.5 -25.5t36.5 -11q20 0 37.5 13.5
t34.5 44.5l18 -5q-28 -81 -73 -116t-89 -35q-30 0 -49.5 11t-34.5 25.5t-30.5 25.5t-37.5 11q-19 0 -36.5 -13t-34.5 -45l-18 5q27 81 72 116t90 35z" />
    <glyph glyph-name="ograve" unicode="&#xf2;" horiz-adv-x="543" 
d="M340 512q-20 0 -44.5 -28t-48.5 -75t-44 -105t-32 -119t-12 -117q0 -34 6.5 -48t20.5 -14q19 0 43 26.5t47.5 72t43.5 103t32.5 119.5t12.5 121q0 40 -7 52t-18 12zM9 153q0 59 20 124.5t62 123.5t105 94.5t149 36.5q82 0 126 -43t44 -124q0 -59 -20 -124.5t-62 -123.5
t-105 -94.5t-149 -36.5q-82 0 -126 43t-44 124zM368 599q-39 47 -68.5 74t-50 46t-33.5 41q-14 23 -9.5 47.5t24.5 36.5q23 15 49 6t39 -30q15 -22 20.5 -49.5t13 -66t27.5 -98.5z" />
    <glyph glyph-name="oacute" unicode="&#xf3;" horiz-adv-x="543" 
d="M340 512q-20 0 -44.5 -28t-48.5 -75t-44 -105t-32 -119t-12 -117q0 -34 6.5 -48t20.5 -14q19 0 43 26.5t47.5 72t43.5 103t32.5 119.5t12.5 121q0 40 -7 52t-18 12zM9 153q0 59 20 124.5t62 123.5t105 94.5t149 36.5q82 0 126 -43t44 -124q0 -59 -20 -124.5t-62 -123.5
t-105 -94.5t-149 -36.5q-82 0 -126 43t-44 124zM309 609q36 53 56.5 92.5t37 69t39.5 51.5q19 20 48.5 26.5t51.5 -16.5q21 -19 14.5 -44t-30.5 -49q-20 -21 -49 -39t-68.5 -41.5t-89.5 -59.5z" />
    <glyph glyph-name="ocircumflex" unicode="&#xf4;" horiz-adv-x="543" 
d="M340 512q-20 0 -44.5 -28t-48.5 -75t-44 -105t-32 -119t-12 -117q0 -34 6.5 -48t20.5 -14q19 0 43 26.5t47.5 72t43.5 103t32.5 119.5t12.5 121q0 40 -7 52t-18 12zM9 153q0 59 20 124.5t62 123.5t105 94.5t149 36.5q82 0 126 -43t44 -124q0 -59 -20 -124.5t-62 -123.5
t-105 -94.5t-149 -36.5q-82 0 -126 43t-44 124zM353 672q-37 -18 -84.5 -34.5t-98.5 -29.5l-5 14q76 34 141.5 89t105.5 115h18q15 -71 41.5 -119.5t77.5 -84.5l-4 -14q-66 13 -110 28.5t-82 35.5z" />
    <glyph glyph-name="otilde" unicode="&#xf5;" horiz-adv-x="543" 
d="M340 512q-20 0 -44.5 -28t-48.5 -75t-44 -105t-32 -119t-12 -117q0 -34 6.5 -48t20.5 -14q19 0 43 26.5t47.5 72t43.5 103t32.5 119.5t12.5 121q0 40 -7 52t-18 12zM9 153q0 59 20 124.5t62 123.5t105 94.5t149 36.5q82 0 126 -43t44 -124q0 -59 -20 -124.5t-62 -123.5
t-105 -94.5t-149 -36.5q-82 0 -126 43t-44 124zM348 792q30 0 49.5 -11t34.5 -25.5t30.5 -25.5t36.5 -11q20 0 37.5 13.5t34.5 44.5l18 -5q-28 -81 -73 -116t-89 -35q-30 0 -49.5 11t-34.5 25.5t-30.5 25.5t-37.5 11q-19 0 -36.5 -13t-34.5 -45l-18 5q27 81 72 116t90 35z
" />
    <glyph glyph-name="odieresis" unicode="&#xf6;" horiz-adv-x="543" 
d="M340 512q-20 0 -44.5 -28t-48.5 -75t-44 -105t-32 -119t-12 -117q0 -34 6.5 -48t20.5 -14q19 0 43 26.5t47.5 72t43.5 103t32.5 119.5t12.5 121q0 40 -7 52t-18 12zM9 153q0 59 20 124.5t62 123.5t105 94.5t149 36.5q82 0 126 -43t44 -124q0 -59 -20 -124.5t-62 -123.5
t-105 -94.5t-149 -36.5q-82 0 -126 43t-44 124zM191 675q0 46 28.5 68.5t63.5 22.5q37 0 53.5 -20t16.5 -52q0 -47 -29 -68.5t-64 -21.5q-36 0 -52.5 19.5t-16.5 51.5zM424 675q0 46 28 68.5t64 22.5t53 -20t17 -52q0 -47 -29 -68.5t-64 -21.5q-37 0 -53 19.5t-16 51.5z" />
    <glyph glyph-name="divide" unicode="&#xf7;" horiz-adv-x="629" 
d="M336 499q7 23 28 39t43 16q23 0 35 -16t5 -39t-28 -39t-44 -16q-22 0 -34 16t-5 39zM253 211q7 23 28 39t43 16q23 0 35 -16t5 -39t-28 -39.5t-44 -16.5q-22 0 -34 16.5t-5 39.5zM75 340l9 30h501l-9 -30h-501z" />
    <glyph glyph-name="oslash" unicode="&#xf8;" horiz-adv-x="543" 
d="M340 512q-20 0 -44.5 -28t-48.5 -75t-44 -105t-32 -119t-12 -117q0 -34 6.5 -48t20.5 -14q19 0 43 26.5t47.5 72t43.5 103t32.5 119.5t12.5 121q0 40 -7 52t-18 12zM9 153q0 59 20 124.5t62 123.5t105 94.5t149 36.5q82 0 126 -43t44 -124q0 -59 -20 -124.5t-62 -123.5
t-105 -94.5t-149 -36.5q-82 0 -126 43t-44 124zM383 467l91 138l17 -9l-98 -146zM387 457l-238 -425l-10 18l239 424zM137 32l-80 -118l-16 10l86 126z" />
    <glyph glyph-name="ugrave" unicode="&#xf9;" horiz-adv-x="607" 
d="M392 352q-38 -113 -72 -185t-66.5 -111t-66.5 -54.5t-74 -15.5q-62 0 -82.5 39t4.5 112l97 296q10 29 3 37.5t-16 8.5q-11 0 -26 -12.5t-32 -58.5l-19 -52h-19l25 73q22 63 61 83t77 20q45 0 69.5 -19t28.5 -55.5t-14 -91.5l-88 -264q-20 -60 6 -60q22 0 52 40t62.5 107
t63 150t53.5 169zM458 85q-7 -24 -5.5 -35t15.5 -11q16 0 30.5 15.5t29.5 55.5l21 56h19l-28 -77q-20 -57 -58 -80t-80 -23q-32 0 -52 10t-30 27q-11 19 -10 45.5t9 57.5l102 392q46 1 87 4t76 10zM361 599q-39 47 -68.5 74t-50 46t-33.5 41q-14 23 -9.5 47.5t24.5 36.5
q23 15 49 6t39 -30q15 -22 20.5 -49.5t13 -66t27.5 -98.5z" />
    <glyph glyph-name="uacute" unicode="&#xfa;" horiz-adv-x="607" 
d="M392 352q-38 -113 -72 -185t-66.5 -111t-66.5 -54.5t-74 -15.5q-62 0 -82.5 39t4.5 112l97 296q10 29 3 37.5t-16 8.5q-11 0 -26 -12.5t-32 -58.5l-19 -52h-19l25 73q22 63 61 83t77 20q45 0 69.5 -19t28.5 -55.5t-14 -91.5l-88 -264q-20 -60 6 -60q22 0 52 40t62.5 107
t63 150t53.5 169zM458 85q-7 -24 -5.5 -35t15.5 -11q16 0 30.5 15.5t29.5 55.5l21 56h19l-28 -77q-20 -57 -58 -80t-80 -23q-32 0 -52 10t-30 27q-11 19 -10 45.5t9 57.5l102 392q46 1 87 4t76 10zM301 609q36 53 56.5 92.5t37 69t39.5 51.5q19 20 48.5 26.5t51.5 -16.5
q21 -19 14.5 -44t-30.5 -49q-20 -21 -49 -39t-68.5 -41.5t-89.5 -59.5z" />
    <glyph glyph-name="ucircumflex" unicode="&#xfb;" horiz-adv-x="607" 
d="M392 352q-38 -113 -72 -185t-66.5 -111t-66.5 -54.5t-74 -15.5q-62 0 -82.5 39t4.5 112l97 296q10 29 3 37.5t-16 8.5q-11 0 -26 -12.5t-32 -58.5l-19 -52h-19l25 73q22 63 61 83t77 20q45 0 69.5 -19t28.5 -55.5t-14 -91.5l-88 -264q-20 -60 6 -60q22 0 52 40t62.5 107
t63 150t53.5 169zM458 85q-7 -24 -5.5 -35t15.5 -11q16 0 30.5 15.5t29.5 55.5l21 56h19l-28 -77q-20 -57 -58 -80t-80 -23q-32 0 -52 10t-30 27q-11 19 -10 45.5t9 57.5l102 392q46 1 87 4t76 10zM346 672q-37 -18 -84.5 -34.5t-98.5 -29.5l-5 14q76 34 141.5 89t105.5 115
h18q15 -71 41.5 -119.5t77.5 -84.5l-4 -14q-66 13 -110 28.5t-82 35.5z" />
    <glyph glyph-name="udieresis" unicode="&#xfc;" horiz-adv-x="607" 
d="M392 352q-38 -113 -72 -185t-66.5 -111t-66.5 -54.5t-74 -15.5q-62 0 -82.5 39t4.5 112l97 296q10 29 3 37.5t-16 8.5q-11 0 -26 -12.5t-32 -58.5l-19 -52h-19l25 73q22 63 61 83t77 20q45 0 69.5 -19t28.5 -55.5t-14 -91.5l-88 -264q-20 -60 6 -60q22 0 52 40t62.5 107
t63 150t53.5 169zM458 85q-7 -24 -5.5 -35t15.5 -11q16 0 30.5 15.5t29.5 55.5l21 56h19l-28 -77q-20 -57 -58 -80t-80 -23q-32 0 -52 10t-30 27q-11 19 -10 45.5t9 57.5l102 392q46 1 87 4t76 10zM184 675q0 46 28.5 68.5t63.5 22.5q37 0 53.5 -20t16.5 -52
q0 -47 -29 -68.5t-64 -21.5q-36 0 -52.5 19.5t-16.5 51.5zM417 675q0 46 28 68.5t64 22.5t53 -20t17 -52q0 -47 -29 -68.5t-64 -21.5q-37 0 -53 19.5t-16 51.5z" />
    <glyph glyph-name="yacute" unicode="&#xfd;" horiz-adv-x="483" 
d="M315 68l-120 -137l-82 501q-4 26 -9 35.5t-14 9.5q-11 0 -19.5 -12.5t-24.5 -56.5l-20 -52h-19l25 73q21 61 53.5 82t73.5 21q43 0 71 -23.5t37 -90.5zM70 -138q47 22 97.5 61.5t103.5 106.5q54 68 94.5 144t60.5 143q-41 23 -70 59.5t-28 80.5q0 35 19.5 55t52.5 20
q38 0 55 -25t17 -69q0 -46 -16 -101.5t-43.5 -114.5t-63 -115t-74.5 -103q-37 -45 -78.5 -80.5t-86 -61t-89.5 -39.5q-19 -6 -35.5 -8.5t-29.5 -2.5q-36 0 -56 16t-20 45q0 28 20.5 47.5t54.5 19.5t62.5 -20t52.5 -58zM263 609q36 53 56.5 92.5t37 69t39.5 51.5
q19 20 48.5 26.5t51.5 -16.5q21 -19 14.5 -44t-30.5 -49q-20 -21 -49 -39t-68.5 -41.5t-89.5 -59.5z" />
    <glyph glyph-name="thorn" unicode="&#xfe;" horiz-adv-x="595" 
d="M373 472q-17 0 -37 -19.5t-39 -53.5t-36 -78t-29 -93l20 100q39 109 83.5 156.5t101.5 47.5q65 0 97.5 -41t32.5 -118q0 -46 -12.5 -99t-37.5 -104t-62 -92.5t-84 -66.5t-105 -25q-33 0 -60 10t-41 26l7 14q9 -10 19 -14.5t23 -4.5q29 0 56 23t51 61.5t42 87t28 101
t10 100.5q0 51 -7.5 66.5t-20.5 15.5zM227 762q47 4 88 12t80 21l-245 -866q-15 -55 5 -71.5t71 -17.5l-6 -21q-25 1 -70 2.5t-96 1.5q-43 0 -86 -1.5t-65 -2.5l6 21q36 0 52 13.5t26 48.5zM8 348q35 39 66.5 78t61.5 92.5t61 133.5l3 -16q-32 -105 -78 -172.5t-103 -128.5z
" />
    <glyph glyph-name="ydieresis" unicode="&#xff;" horiz-adv-x="483" 
d="M315 68l-120 -137l-82 501q-4 26 -9 35.5t-14 9.5q-11 0 -19.5 -12.5t-24.5 -56.5l-20 -52h-19l25 73q21 61 53.5 82t73.5 21q43 0 71 -23.5t37 -90.5zM70 -138q47 22 97.5 61.5t103.5 106.5q54 68 94.5 144t60.5 143q-41 23 -70 59.5t-28 80.5q0 35 19.5 55t52.5 20
q38 0 55 -25t17 -69q0 -46 -16 -101.5t-43.5 -114.5t-63 -115t-74.5 -103q-37 -45 -78.5 -80.5t-86 -61t-89.5 -39.5q-19 -6 -35.5 -8.5t-29.5 -2.5q-36 0 -56 16t-20 45q0 28 20.5 47.5t54.5 19.5t62.5 -20t52.5 -58zM145 675q0 46 28.5 68.5t63.5 22.5q37 0 53.5 -20
t16.5 -52q0 -47 -29 -68.5t-64 -21.5q-36 0 -52.5 19.5t-16.5 51.5zM378 675q0 46 28 68.5t64 22.5t53 -20t17 -52q0 -47 -29 -68.5t-64 -21.5q-37 0 -53 19.5t-16 51.5z" />
    <glyph glyph-name="Amacron" unicode="&#x100;" horiz-adv-x="661" 
d="M54 137q-29 -41 -28.5 -66t25 -36.5t62.5 -14.5l-4 -20q-47 2 -78 2.5t-58 0.5q-22 0 -36.5 -0.5t-30.5 -2.5l4 20q27 7 52 31t66 82l412 580q15 -2 32.5 -2t30.5 2l40 -629q3 -36 18.5 -49.5t30.5 -14.5l-4 -20q-27 2 -72 2.5t-85 0.5q-48 0 -91 -0.5t-69 -2.5l4 20
q48 2 68.5 17.5t17.5 66.5l-24 449l44 47zM151 288h292l-8 -20h-302zM686 844l-6 -25h-416l6 25h416z" />
    <glyph glyph-name="amacron" unicode="&#x101;" horiz-adv-x="570" 
d="M190 47q12 0 27 12.5t31 38.5t33 67t33 99l-25 -108q-31 -96 -75.5 -133t-99.5 -37q-60 0 -89 33t-29 91q0 56 19 115.5t51.5 114t73 98t85 69t87.5 25.5q33 0 50.5 -23t11.5 -76l-11 -6q5 31 -1.5 46.5t-22.5 15.5q-24 0 -54 -34t-57 -90.5t-45.5 -124.5t-18.5 -135
q0 -31 6 -44.5t20 -13.5zM388 517q49 1 87.5 4.5t75.5 10.5l-133 -447q-4 -14 -4.5 -24.5t4 -16t13.5 -5.5q11 0 26 13t32 58l19 52h19l-25 -73q-22 -62 -61 -82.5t-77 -20.5q-56 0 -80 33q-15 22 -15 55t13 78zM574 712l-6 -25h-344l6 25h344z" />
    <glyph glyph-name="Abreve" unicode="&#x102;" horiz-adv-x="661" 
d="M54 137q-29 -41 -28.5 -66t25 -36.5t62.5 -14.5l-4 -20q-47 2 -78 2.5t-58 0.5q-22 0 -36.5 -0.5t-30.5 -2.5l4 20q27 7 52 31t66 82l412 580q15 -2 32.5 -2t30.5 2l40 -629q3 -36 18.5 -49.5t30.5 -14.5l-4 -20q-27 2 -72 2.5t-85 0.5q-48 0 -91 -0.5t-69 -2.5l4 20
q48 2 68.5 17.5t17.5 66.5l-24 449l44 47zM151 288h292l-8 -20h-302zM492 875q69 0 126 14.5t105 42.5l12 -10q-26 -39 -68 -75t-92 -58t-103 -22q-71 0 -110 45t-51 108l15 8q30 -27 68.5 -40t97.5 -13z" />
    <glyph glyph-name="abreve" unicode="&#x103;" horiz-adv-x="570" 
d="M190 47q12 0 27 12.5t31 38.5t33 67t33 99l-25 -108q-31 -96 -75.5 -133t-99.5 -37q-60 0 -89 33t-29 91q0 56 19 115.5t51.5 114t73 98t85 69t87.5 25.5q33 0 50.5 -23t11.5 -76l-11 -6q5 31 -1.5 46.5t-22.5 15.5q-24 0 -54 -34t-57 -90.5t-45.5 -124.5t-18.5 -135
q0 -31 6 -44.5t20 -13.5zM388 517q49 1 87.5 4.5t75.5 10.5l-133 -447q-4 -14 -4.5 -24.5t4 -16t13.5 -5.5q11 0 26 13t32 58l19 52h19l-25 -73q-22 -62 -61 -82.5t-77 -20.5q-56 0 -80 33q-15 22 -15 55t13 78zM400 726q55 0 106.5 15.5t94.5 46.5l12 -9
q-23 -41 -60.5 -78.5t-83 -60.5t-92.5 -23q-55 0 -85 47t-39 113l15 7q23 -30 52 -44t80 -14z" />
    <glyph glyph-name="Aogonek" unicode="&#x104;" horiz-adv-x="661" 
d="M54 137q-29 -41 -28.5 -66t25 -36.5t62.5 -14.5l-4 -20q-47 2 -78 2.5t-58 0.5q-22 0 -36.5 -0.5t-30.5 -2.5l4 20q27 7 52 31t66 82l412 580q15 -2 32.5 -2t30.5 2l40 -629q3 -36 18.5 -49.5t30.5 -14.5l-4 -20q-27 2 -72 2.5t-85 0.5q-48 0 -91 -0.5t-69 -2.5l4 20
q48 2 68.5 17.5t17.5 66.5l-24 449l44 47zM151 288h292l-8 -20h-302zM549 3q-31 -12 -54 -30.5t-35 -40t-12 -41.5q0 -29 31 -29q15 0 34.5 5.5t37.5 15.5l11 -17q-38 -29 -75 -41.5t-76 -12.5q-40 0 -64 16t-24 44q0 32 29.5 57t76.5 43.5t98 30.5h22z" />
    <glyph glyph-name="aogonek" unicode="&#x105;" horiz-adv-x="570" 
d="M190 47q12 0 27 12.5t31 38.5t33 67t33 99l-25 -108q-31 -96 -75.5 -133t-99.5 -37q-60 0 -89 33t-29 91q0 56 19 115.5t51.5 114t73 98t85 69t87.5 25.5q33 0 50.5 -23t11.5 -76l-11 -6q5 31 -1.5 46.5t-22.5 15.5q-24 0 -54 -34t-57 -90.5t-45.5 -124.5t-18.5 -135
q0 -31 6 -44.5t20 -13.5zM388 517q49 1 87.5 4.5t75.5 10.5l-133 -447q-4 -14 -4.5 -24.5t4 -16t13.5 -5.5q11 0 26 13t32 58l19 52h19l-25 -73q-22 -62 -61 -82.5t-77 -20.5q-56 0 -80 33q-15 22 -15 55t13 78zM434 3q-31 -12 -53.5 -30.5t-35 -40t-12.5 -43.5
q0 -27 26 -27q15 0 31.5 9t29.5 22l14 -13q-29 -35 -64.5 -51.5t-74.5 -16.5t-63 16t-24 45q0 31 29.5 56t76.5 43.5t98 30.5h22z" />
    <glyph glyph-name="Cacute" unicode="&#x106;" horiz-adv-x="700" 
d="M757 708q-15 -39 -31 -94.5t-33 -135.5h-22q9 50 8.5 89.5t-16.5 67.5q-19 34 -47.5 47.5t-66.5 13.5q-49 0 -94.5 -25.5t-83.5 -71.5t-66.5 -106.5t-44.5 -130.5t-16 -144q0 -102 36 -150t97 -48q35 0 73.5 16t66.5 46q27 29 46.5 64.5t43.5 93.5h22
q-25 -91 -38.5 -146.5t-20.5 -93.5h-22q3 21 3 34q0 21 -8 25t-25 -8q-40 -28 -88.5 -46.5t-109.5 -18.5q-144 0 -212 66.5t-68 185.5q0 71 23.5 140.5t67 131.5t105 110t136.5 75t161 27q61 0 93.5 -19.5t54.5 -45.5q13 -16 26.5 -3.5t28.5 54.5h21zM492 784q49 41 80 73
t55.5 56t52.5 38q23 13 53.5 11.5t46.5 -30.5q13 -26 -1 -48t-42 -37q-38 -21 -94.5 -32.5t-143.5 -42.5z" />
    <glyph glyph-name="cacute" unicode="&#x107;" horiz-adv-x="474" 
d="M370 512q-37 0 -72.5 -31.5t-63.5 -84t-44.5 -118t-16.5 -133.5q0 -54 21.5 -77.5t56.5 -23.5q31 0 62.5 18t63.5 66l20 -8q-20 -33 -51.5 -64t-74 -50.5t-97.5 -19.5q-73 0 -121 38t-48 118q0 63 24.5 131t71 127t112 95.5t146.5 36.5q59 0 92.5 -29.5t33.5 -70.5
q0 -30 -14.5 -57.5t-39 -45.5t-54.5 -18q-25 0 -44 16.5t-19 47.5q0 45 29.5 78t67.5 43q-8 8 -17.5 12t-23.5 4zM287 608q36 53 56.5 92.5t37 69t39.5 51.5q19 20 48.5 26.5t51.5 -16.5q21 -19 14.5 -44t-30.5 -49q-20 -21 -49 -39t-68.5 -41.5t-89.5 -59.5z" />
    <glyph glyph-name="Ccircumflex" unicode="&#x108;" horiz-adv-x="700" 
d="M757 708q-15 -39 -31 -94.5t-33 -135.5h-22q9 50 8.5 89.5t-16.5 67.5q-19 34 -47.5 47.5t-66.5 13.5q-49 0 -94.5 -25.5t-83.5 -71.5t-66.5 -106.5t-44.5 -130.5t-16 -144q0 -102 36 -150t97 -48q35 0 73.5 16t66.5 46q27 29 46.5 64.5t43.5 93.5h22
q-25 -91 -38.5 -146.5t-20.5 -93.5h-22q3 21 3 34q0 21 -8 25t-25 -8q-40 -28 -88.5 -46.5t-109.5 -18.5q-144 0 -212 66.5t-68 185.5q0 71 23.5 140.5t67 131.5t105 110t136.5 75t161 27q61 0 93.5 -19.5t54.5 -45.5q13 -16 26.5 -3.5t28.5 54.5h21zM510 827
q-44 -16 -101.5 -30.5t-119.5 -26.5l-5 14q88 28 163 72t120 92h18q21 -55 51.5 -94.5t87.5 -69.5l-4 -14q-73 13 -120 27t-90 30z" />
    <glyph glyph-name="ccircumflex" unicode="&#x109;" horiz-adv-x="474" 
d="M370 512q-37 0 -72.5 -31.5t-63.5 -84t-44.5 -118t-16.5 -133.5q0 -54 21.5 -77.5t56.5 -23.5q31 0 62.5 18t63.5 66l20 -8q-20 -33 -51.5 -64t-74 -50.5t-97.5 -19.5q-73 0 -121 38t-48 118q0 63 24.5 131t71 127t112 95.5t146.5 36.5q59 0 92.5 -29.5t33.5 -70.5
q0 -30 -14.5 -57.5t-39 -45.5t-54.5 -18q-25 0 -44 16.5t-19 47.5q0 45 29.5 78t67.5 43q-8 8 -17.5 12t-23.5 4zM332 671q-37 -18 -84.5 -34.5t-98.5 -29.5l-5 14q76 34 141.5 89t105.5 115h18q15 -71 41.5 -119.5t77.5 -84.5l-4 -14q-66 13 -110 28.5t-82 35.5z" />
    <glyph glyph-name="Cdotaccent" unicode="&#x10a;" horiz-adv-x="700" 
d="M757 708q-15 -39 -31 -94.5t-33 -135.5h-22q9 50 8.5 89.5t-16.5 67.5q-19 34 -47.5 47.5t-66.5 13.5q-49 0 -94.5 -25.5t-83.5 -71.5t-66.5 -106.5t-44.5 -130.5t-16 -144q0 -102 36 -150t97 -48q35 0 73.5 16t66.5 46q27 29 46.5 64.5t43.5 93.5h22
q-25 -91 -38.5 -146.5t-20.5 -93.5h-22q3 21 3 34q0 21 -8 25t-25 -8q-40 -28 -88.5 -46.5t-109.5 -18.5q-144 0 -212 66.5t-68 185.5q0 71 23.5 140.5t67 131.5t105 110t136.5 75t161 27q61 0 93.5 -19.5t54.5 -45.5q13 -16 26.5 -3.5t28.5 54.5h21zM429 826q0 48 32 74
t80 26q40 0 61 -17t21 -48q0 -43 -33 -71t-81 -28q-39 0 -59.5 17t-20.5 47z" />
    <glyph glyph-name="cdotaccent" unicode="&#x10b;" horiz-adv-x="474" 
d="M370 512q-37 0 -72.5 -31.5t-63.5 -84t-44.5 -118t-16.5 -133.5q0 -54 21.5 -77.5t56.5 -23.5q31 0 62.5 18t63.5 66l20 -8q-20 -33 -51.5 -64t-74 -50.5t-97.5 -19.5q-73 0 -121 38t-48 118q0 63 24.5 131t71 127t112 95.5t146.5 36.5q59 0 92.5 -29.5t33.5 -70.5
q0 -30 -14.5 -57.5t-39 -45.5t-54.5 -18q-25 0 -44 16.5t-19 47.5q0 45 29.5 78t67.5 43q-8 8 -17.5 12t-23.5 4zM270 677q0 49 32.5 75t80.5 26q39 0 60 -16.5t21 -48.5q0 -43 -32.5 -71t-80.5 -28q-39 0 -60 16.5t-21 46.5z" />
    <glyph glyph-name="Ccaron" unicode="&#x10c;" horiz-adv-x="700" 
d="M757 708q-15 -39 -31 -94.5t-33 -135.5h-22q9 50 8.5 89.5t-16.5 67.5q-19 34 -47.5 47.5t-66.5 13.5q-49 0 -94.5 -25.5t-83.5 -71.5t-66.5 -106.5t-44.5 -130.5t-16 -144q0 -102 36 -150t97 -48q35 0 73.5 16t66.5 46q27 29 46.5 64.5t43.5 93.5h22
q-25 -91 -38.5 -146.5t-20.5 -93.5h-22q3 21 3 34q0 21 -8 25t-25 -8q-40 -28 -88.5 -46.5t-109.5 -18.5q-144 0 -212 66.5t-68 185.5q0 71 23.5 140.5t67 131.5t105 110t136.5 75t161 27q61 0 93.5 -19.5t54.5 -45.5q13 -16 26.5 -3.5t28.5 54.5h21zM581 885q45 16 102 31
t119 26l5 -14q-87 -27 -162.5 -71.5t-120.5 -92.5h-18q-20 56 -51 95t-88 69l4 14q74 -13 120.5 -26.5t89.5 -30.5z" />
    <glyph glyph-name="ccaron" unicode="&#x10d;" horiz-adv-x="474" 
d="M370 512q-37 0 -72.5 -31.5t-63.5 -84t-44.5 -118t-16.5 -133.5q0 -54 21.5 -77.5t56.5 -23.5q31 0 62.5 18t63.5 66l20 -8q-20 -33 -51.5 -64t-74 -50.5t-97.5 -19.5q-73 0 -121 38t-48 118q0 63 24.5 131t71 127t112 95.5t146.5 36.5q59 0 92.5 -29.5t33.5 -70.5
q0 -30 -14.5 -57.5t-39 -45.5t-54.5 -18q-25 0 -44 16.5t-19 47.5q0 45 29.5 78t67.5 43q-8 8 -17.5 12t-23.5 4zM408 761q37 18 84 35t99 29l5 -14q-77 -33 -142.5 -88.5t-104.5 -115.5h-18q-15 72 -41.5 120t-77.5 84l4 14q66 -13 109.5 -28.5t82.5 -35.5z" />
    <glyph glyph-name="Dcaron" unicode="&#x10e;" horiz-adv-x="787" 
d="M774 463q0 -62 -18.5 -127t-56.5 -125t-97 -108t-140.5 -75.5t-187.5 -27.5q-24 0 -61.5 1.5t-92.5 1.5q-23 0 -54 -0.5t-59.5 -1t-46.5 -1.5l3 20q32 2 50.5 8t29.5 24t20 54l131 496q10 40 2 61.5t-60 24.5l3 20q19 -1 49.5 -2t64.5 -1h64q15 1 43 1.5t57 1t48 0.5
q146 0 227.5 -61.5t81.5 -183.5zM278 18q75 0 133 43.5t97.5 114.5t60.5 155.5t21 165.5q0 94 -34 143.5t-111 49.5q-23 0 -35 -6t-19 -24.5t-16 -55.5l-131 -500q-13 -50 -10.5 -68t44.5 -18zM532 885q45 16 102 31t119 26l5 -14q-87 -27 -162.5 -71.5t-120.5 -92.5h-18
q-20 56 -51 95t-88 69l4 14q74 -13 120.5 -26.5t89.5 -30.5z" />
    <glyph glyph-name="dcaron" unicode="&#x10f;" horiz-adv-x="591" 
d="M442 85q-9 -25 -4 -35.5t17 -10.5q11 0 25.5 13t31.5 58l19 52h19l-24 -73q-22 -63 -61 -83t-77 -20q-63 0 -85 42q-11 20 -10.5 51t12.5 73l137 515q10 34 -2 50t-61 16l7 21q76 1 136.5 11.5t115.5 29.5zM197 42q15 0 35 19.5t43.5 60.5t46.5 104t43 150l-15 -108
q-31 -94 -61.5 -157t-69 -94t-93.5 -31q-51 0 -87.5 33.5t-36.5 109.5q0 45 14 99t42 107t69 98t93.5 72t116.5 27q36 0 50 -13.5t17 -36.5l-8 -20q-4 23 -12 35t-28 12q-27 0 -59.5 -34.5t-61.5 -92.5t-47.5 -130t-18.5 -147q0 -31 6 -47t22 -16zM640 540q34 74 47.5 124
t13.5 69t-13 19l3 21q9 0 16 -0.5t14 -0.5q36 0 60.5 4t43.5 8q1 -2 1 -11q0 -38 -46 -101t-126 -136z" />
    <glyph glyph-name="Dcroat" unicode="&#x110;" horiz-adv-x="787" 
d="M774 463q0 -62 -18.5 -127t-56.5 -125t-97 -108t-140.5 -75.5t-187.5 -27.5q-24 0 -61.5 1.5t-92.5 1.5q-23 0 -54 -0.5t-59.5 -1t-46.5 -1.5l3 20q32 2 50.5 8t29.5 24t20 54l131 496q10 40 2 61.5t-60 24.5l3 20q19 -1 49.5 -2t64.5 -1h64q15 1 43 1.5t57 1t48 0.5
q146 0 227.5 -61.5t81.5 -183.5zM278 18q75 0 133 43.5t97.5 114.5t60.5 155.5t21 165.5q0 94 -34 143.5t-111 49.5q-23 0 -35 -6t-19 -24.5t-16 -55.5l-131 -500q-13 -50 -10.5 -68t44.5 -18zM453 366l-6 -25h-428l6 25h428z" />
    <glyph glyph-name="dcroat" unicode="&#x111;" horiz-adv-x="591" 
d="M442 85q-9 -25 -4 -35.5t17 -10.5q11 0 25.5 13t31.5 58l19 52h19l-24 -73q-22 -63 -61 -83t-77 -20q-63 0 -85 42q-11 20 -10.5 51t12.5 73l137 515q10 34 -2 50t-61 16l7 21q76 1 136.5 11.5t115.5 29.5zM197 42q15 0 35 19.5t43.5 60.5t46.5 104t43 150l-15 -108
q-31 -94 -61.5 -157t-69 -94t-93.5 -31q-51 0 -87.5 33.5t-36.5 109.5q0 45 14 99t42 107t69 98t93.5 72t116.5 27q36 0 50 -13.5t17 -36.5l-8 -20q-4 23 -12 35t-28 12q-27 0 -59.5 -34.5t-61.5 -92.5t-47.5 -130t-18.5 -147q0 -31 6 -47t22 -16zM668 628l-6 -20h-400l6 20
h400z" />
    <glyph glyph-name="Emacron" unicode="&#x112;" horiz-adv-x="632" 
d="M234 346l4 20h206l-5 -20h-205zM340 366q35 0 62 17.5t47 44t31 54.5h22q-14 -43 -21 -69t-15 -57q-4 -19 -8.5 -35t-8 -36.5t-10.5 -54.5h-22q1 25 -5.5 52t-26 45.5t-58.5 18.5zM608 528q3 59 -9 93.5t-38 49t-68 14.5h-17q-34 0 -52.5 -5.5t-28.5 -23t-20 -54.5
l-132 -496q-14 -55 -3 -69t60 -14h25q51 0 88 17t68 55.5t62 104.5h22q-5 -13 -10.5 -32t-10.5 -40q-5 -19 -13 -54.5t-14 -73.5q-51 2 -113.5 2.5t-112.5 0.5h-93t-122.5 -0.5t-120.5 -2.5l4 20q34 2 53 8t30 24t20 54l132 496q14 55 2.5 69.5t-61.5 16.5l5 20
q56 -1 120.5 -2t122.5 -1h93q45 0 102 0.5t103 2.5q-13 -35 -21.5 -61t-16.5 -57q-4 -18 -7.5 -34t-5.5 -28h-22zM644 844l-6 -25h-416l6 25h416z" />
    <glyph glyph-name="emacron" unicode="&#x113;" horiz-adv-x="483" 
d="M146 213q37 16 71 36.5t60 44.5q39 37 64 85.5t25 104.5q0 17 -4 23t-12 6q-27 0 -58 -34t-59.5 -88.5t-46.5 -118.5t-18 -123q0 -57 22.5 -77t58.5 -20q23 0 63 16.5t79 59.5l16 -8q-21 -33 -56 -64t-82 -50.5t-104 -19.5q-68 0 -116.5 35.5t-48.5 105.5q0 56 18 113
t51 109.5t79.5 93.5t102.5 65t121 24q48 0 81 -20.5t33 -63.5q0 -38 -21 -71.5t-56.5 -61.5t-80 -50t-91.5 -38t-92 -25zM552 712l-6 -25h-344l6 25h344z" />
    <glyph glyph-name="Ebreve" unicode="&#x114;" horiz-adv-x="632" 
d="M234 346l4 20h206l-5 -20h-205zM340 366q35 0 62 17.5t47 44t31 54.5h22q-14 -43 -21 -69t-15 -57q-4 -19 -8.5 -35t-8 -36.5t-10.5 -54.5h-22q1 25 -5.5 52t-26 45.5t-58.5 18.5zM608 528q3 59 -9 93.5t-38 49t-68 14.5h-17q-34 0 -52.5 -5.5t-28.5 -23t-20 -54.5
l-132 -496q-14 -55 -3 -69t60 -14h25q51 0 88 17t68 55.5t62 104.5h22q-5 -13 -10.5 -32t-10.5 -40q-5 -19 -13 -54.5t-14 -73.5q-51 2 -113.5 2.5t-112.5 0.5h-93t-122.5 -0.5t-120.5 -2.5l4 20q34 2 53 8t30 24t20 54l132 496q14 55 2.5 69.5t-61.5 16.5l5 20
q56 -1 120.5 -2t122.5 -1h93q45 0 102 0.5t103 2.5q-13 -35 -21.5 -61t-16.5 -57q-4 -18 -7.5 -34t-5.5 -28h-22zM449 875q69 0 126 14.5t105 42.5l12 -10q-26 -39 -68 -75t-92 -58t-103 -22q-71 0 -110 45t-51 108l15 8q30 -27 68.5 -40t97.5 -13z" />
    <glyph glyph-name="ebreve" unicode="&#x115;" horiz-adv-x="483" 
d="M146 213q37 16 71 36.5t60 44.5q39 37 64 85.5t25 104.5q0 17 -4 23t-12 6q-27 0 -58 -34t-59.5 -88.5t-46.5 -118.5t-18 -123q0 -57 22.5 -77t58.5 -20q23 0 63 16.5t79 59.5l16 -8q-21 -33 -56 -64t-82 -50.5t-104 -19.5q-68 0 -116.5 35.5t-48.5 105.5q0 56 18 113
t51 109.5t79.5 93.5t102.5 65t121 24q48 0 81 -20.5t33 -63.5q0 -38 -21 -71.5t-56.5 -61.5t-80 -50t-91.5 -38t-92 -25zM378 726q55 0 106.5 15.5t94.5 46.5l12 -9q-23 -41 -60.5 -78.5t-83 -60.5t-92.5 -23q-55 0 -85 47t-39 113l15 7q23 -30 52 -44t80 -14z" />
    <glyph glyph-name="Edotaccent" unicode="&#x116;" horiz-adv-x="632" 
d="M234 346l4 20h206l-5 -20h-205zM340 366q35 0 62 17.5t47 44t31 54.5h22q-14 -43 -21 -69t-15 -57q-4 -19 -8.5 -35t-8 -36.5t-10.5 -54.5h-22q1 25 -5.5 52t-26 45.5t-58.5 18.5zM608 528q3 59 -9 93.5t-38 49t-68 14.5h-17q-34 0 -52.5 -5.5t-28.5 -23t-20 -54.5
l-132 -496q-14 -55 -3 -69t60 -14h25q51 0 88 17t68 55.5t62 104.5h22q-5 -13 -10.5 -32t-10.5 -40q-5 -19 -13 -54.5t-14 -73.5q-51 2 -113.5 2.5t-112.5 0.5h-93t-122.5 -0.5t-120.5 -2.5l4 20q34 2 53 8t30 24t20 54l132 496q14 55 2.5 69.5t-61.5 16.5l5 20
q56 -1 120.5 -2t122.5 -1h93q45 0 102 0.5t103 2.5q-13 -35 -21.5 -61t-16.5 -57q-4 -18 -7.5 -34t-5.5 -28h-22zM352 826q0 48 32 74t80 26q40 0 61 -17t21 -48q0 -43 -33 -71t-81 -28q-39 0 -59.5 17t-20.5 47z" />
    <glyph glyph-name="edotaccent" unicode="&#x117;" horiz-adv-x="483" 
d="M146 213q37 16 71 36.5t60 44.5q39 37 64 85.5t25 104.5q0 17 -4 23t-12 6q-27 0 -58 -34t-59.5 -88.5t-46.5 -118.5t-18 -123q0 -57 22.5 -77t58.5 -20q23 0 63 16.5t79 59.5l16 -8q-21 -33 -56 -64t-82 -50.5t-104 -19.5q-68 0 -116.5 35.5t-48.5 105.5q0 56 18 113
t51 109.5t79.5 93.5t102.5 65t121 24q48 0 81 -20.5t33 -63.5q0 -38 -21 -71.5t-56.5 -61.5t-80 -50t-91.5 -38t-92 -25zM282 678q0 49 32.5 75t80.5 26q39 0 60 -16.5t21 -48.5q0 -43 -32.5 -71t-80.5 -28q-39 0 -60 16.5t-21 46.5z" />
    <glyph glyph-name="Eogonek" unicode="&#x118;" horiz-adv-x="632" 
d="M234 346l4 20h206l-5 -20h-205zM340 366q35 0 62 17.5t47 44t31 54.5h22q-14 -43 -21 -69t-15 -57q-4 -19 -8.5 -35t-8 -36.5t-10.5 -54.5h-22q1 25 -5.5 52t-26 45.5t-58.5 18.5zM608 528q3 59 -9 93.5t-38 49t-68 14.5h-17q-34 0 -52.5 -5.5t-28.5 -23t-20 -54.5
l-132 -496q-14 -55 -3 -69t60 -14h25q51 0 88 17t68 55.5t62 104.5h22q-5 -13 -10.5 -32t-10.5 -40q-5 -19 -13 -54.5t-14 -73.5q-51 2 -113.5 2.5t-112.5 0.5h-93t-122.5 -0.5t-120.5 -2.5l4 20q34 2 53 8t30 24t20 54l132 496q14 55 2.5 69.5t-61.5 16.5l5 20
q56 -1 120.5 -2t122.5 -1h93q45 0 102 0.5t103 2.5q-13 -35 -21.5 -61t-16.5 -57q-4 -18 -7.5 -34t-5.5 -28h-22zM515 3q-31 -12 -54 -30.5t-35 -40t-12 -41.5q0 -29 31 -29q15 0 34.5 5.5t37.5 15.5l11 -17q-38 -29 -75 -41.5t-76 -12.5q-40 0 -64 16t-24 44q0 32 29.5 57
t76.5 43.5t98 30.5h22z" />
    <glyph glyph-name="eogonek" unicode="&#x119;" horiz-adv-x="483" 
d="M146 213q37 16 71 36.5t60 44.5q39 37 64 85.5t25 104.5q0 17 -4 23t-12 6q-27 0 -58 -34t-59.5 -88.5t-46.5 -118.5t-18 -123q0 -57 22.5 -77t58.5 -20q23 0 63 16.5t79 59.5l16 -8q-21 -33 -56 -64t-82 -50.5t-104 -19.5q-68 0 -116.5 35.5t-48.5 105.5q0 56 18 113
t51 109.5t79.5 93.5t102.5 65t121 24q48 0 81 -20.5t33 -63.5q0 -38 -21 -71.5t-56.5 -61.5t-80 -50t-91.5 -38t-92 -25zM260 3q-31 -12 -53.5 -30.5t-35 -40t-12.5 -43.5q0 -27 26 -27q15 0 31.5 9t29.5 22l14 -13q-29 -35 -64.5 -51.5t-74.5 -16.5t-63 16t-24 45
q0 31 29.5 56t76.5 43.5t98 30.5h22z" />
    <glyph glyph-name="Ecaron" unicode="&#x11a;" horiz-adv-x="632" 
d="M234 346l4 20h206l-5 -20h-205zM340 366q35 0 62 17.5t47 44t31 54.5h22q-14 -43 -21 -69t-15 -57q-4 -19 -8.5 -35t-8 -36.5t-10.5 -54.5h-22q1 25 -5.5 52t-26 45.5t-58.5 18.5zM608 528q3 59 -9 93.5t-38 49t-68 14.5h-17q-34 0 -52.5 -5.5t-28.5 -23t-20 -54.5
l-132 -496q-14 -55 -3 -69t60 -14h25q51 0 88 17t68 55.5t62 104.5h22q-5 -13 -10.5 -32t-10.5 -40q-5 -19 -13 -54.5t-14 -73.5q-51 2 -113.5 2.5t-112.5 0.5h-93t-122.5 -0.5t-120.5 -2.5l4 20q34 2 53 8t30 24t20 54l132 496q14 55 2.5 69.5t-61.5 16.5l5 20
q56 -1 120.5 -2t122.5 -1h93q45 0 102 0.5t103 2.5q-13 -35 -21.5 -61t-16.5 -57q-4 -18 -7.5 -34t-5.5 -28h-22zM503 885q45 16 102 31t119 26l5 -14q-87 -27 -162.5 -71.5t-120.5 -92.5h-18q-20 56 -51 95t-88 69l4 14q74 -13 120.5 -26.5t89.5 -30.5z" />
    <glyph glyph-name="ecaron" unicode="&#x11b;" horiz-adv-x="483" 
d="M146 213q37 16 71 36.5t60 44.5q39 37 64 85.5t25 104.5q0 17 -4 23t-12 6q-27 0 -58 -34t-59.5 -88.5t-46.5 -118.5t-18 -123q0 -57 22.5 -77t58.5 -20q23 0 63 16.5t79 59.5l16 -8q-21 -33 -56 -64t-82 -50.5t-104 -19.5q-68 0 -116.5 35.5t-48.5 105.5q0 56 18 113
t51 109.5t79.5 93.5t102.5 65t121 24q48 0 81 -20.5t33 -63.5q0 -38 -21 -71.5t-56.5 -61.5t-80 -50t-91.5 -38t-92 -25zM419 762q37 18 84 35t99 29l5 -14q-77 -33 -142.5 -88.5t-104.5 -115.5h-18q-15 72 -41.5 120t-77.5 84l4 14q66 -13 109.5 -28.5t82.5 -35.5z" />
    <glyph glyph-name="Gcircumflex" unicode="&#x11c;" horiz-adv-x="750" 
d="M348 6q18 0 35 4.5t29 12.5q17 12 24.5 29t15.5 48l23 88q11 41 8.5 61t-22 27t-61.5 8l5 20q32 -1 84.5 -2t95.5 -1q47 0 87.5 1t65.5 2l-5 -20q-22 -1 -34.5 -7t-21 -24t-18.5 -55l-53 -198h-20q2 29 -6.5 43t-27.5 14q-23 0 -49 -13t-50 -24q-38 -19 -70.5 -26.5
t-66.5 -7.5q-132 0 -207 60t-75 169q0 68 23 139t66 137t104 118t137 82.5t164 30.5q65 0 100.5 -19t63.5 -46q15 -15 28 -5t29 56h22q-15 -39 -31 -94.5t-33 -135.5h-22q2 20 3.5 38.5t1.5 36.5q0 21 -2.5 38t-11.5 35q-19 38 -58.5 58t-95.5 20q-60 0 -108.5 -35.5
t-86 -94t-62 -128t-37.5 -139t-13 -125.5q0 -90 33.5 -133t99.5 -43zM526 827q-44 -16 -101.5 -30.5t-119.5 -26.5l-5 14q88 28 163 72t120 92h18q21 -55 51.5 -94.5t87.5 -69.5l-4 -14q-73 13 -120 27t-90 30z" />
    <glyph glyph-name="gcircumflex" unicode="&#x11d;" horiz-adv-x="479" 
d="M226 227l53 6q-62 -24 -94.5 -42t-32.5 -33q0 -8 10 -14.5t30 -12.5l87 -31q28 -10 54 -24t43 -36t17 -55q0 -41 -26.5 -73.5t-71.5 -55t-99.5 -34t-111.5 -11.5q-50 0 -93 9.5t-69.5 26.5t-26.5 40q0 20 19.5 35t50 25t64 15t63.5 6l2 -15q-33 -18 -46.5 -37t-13.5 -37
q0 -25 19 -38t53 -13q35 0 72.5 12.5t64 35t26.5 50.5q0 20 -15 27.5t-40 14.5l-139 42q-25 8 -43.5 24.5t-18.5 42.5q0 30 26.5 53.5t75 47t111.5 49.5zM266 513q-18 0 -33.5 -19.5t-26.5 -52t-17 -71.5t-6 -78q0 -33 6.5 -45.5t19.5 -12.5q20 0 35.5 19.5t26.5 51.5t16 71
t5 78q0 23 -4.5 41t-21.5 18zM288 531q68 0 112.5 -26.5t44.5 -86.5q0 -48 -31 -95t-88.5 -77t-135.5 -30q-67 0 -112.5 27t-45.5 86q0 34 17 69.5t49.5 66t80 48.5t109.5 18zM369 478l-20 7q15 41 49 66.5t73 25.5q33 0 50 -18t17 -47t-15 -44t-33 -15q-16 0 -30.5 12.5
t-18.5 37.5t12 65l6 -7q-36 -13 -56 -32t-34 -51zM307 672q-37 -18 -84.5 -34.5t-98.5 -29.5l-5 14q76 34 141.5 89t105.5 115h18q15 -71 41.5 -119.5t77.5 -84.5l-4 -14q-66 13 -110 28.5t-82 35.5z" />
    <glyph glyph-name="Gbreve" unicode="&#x11e;" horiz-adv-x="750" 
d="M348 6q18 0 35 4.5t29 12.5q17 12 24.5 29t15.5 48l23 88q11 41 8.5 61t-22 27t-61.5 8l5 20q32 -1 84.5 -2t95.5 -1q47 0 87.5 1t65.5 2l-5 -20q-22 -1 -34.5 -7t-21 -24t-18.5 -55l-53 -198h-20q2 29 -6.5 43t-27.5 14q-23 0 -49 -13t-50 -24q-38 -19 -70.5 -26.5
t-66.5 -7.5q-132 0 -207 60t-75 169q0 68 23 139t66 137t104 118t137 82.5t164 30.5q65 0 100.5 -19t63.5 -46q15 -15 28 -5t29 56h22q-15 -39 -31 -94.5t-33 -135.5h-22q2 20 3.5 38.5t1.5 36.5q0 21 -2.5 38t-11.5 35q-19 38 -58.5 58t-95.5 20q-60 0 -108.5 -35.5
t-86 -94t-62 -128t-37.5 -139t-13 -125.5q0 -90 33.5 -133t99.5 -43zM543 875q69 0 126 14.5t105 42.5l12 -10q-26 -39 -68 -75t-92 -58t-103 -22q-71 0 -110 45t-51 108l15 8q30 -27 68.5 -40t97.5 -13z" />
    <glyph glyph-name="gbreve" unicode="&#x11f;" horiz-adv-x="479" 
d="M226 227l53 6q-62 -24 -94.5 -42t-32.5 -33q0 -8 10 -14.5t30 -12.5l87 -31q28 -10 54 -24t43 -36t17 -55q0 -41 -26.5 -73.5t-71.5 -55t-99.5 -34t-111.5 -11.5q-50 0 -93 9.5t-69.5 26.5t-26.5 40q0 20 19.5 35t50 25t64 15t63.5 6l2 -15q-33 -18 -46.5 -37t-13.5 -37
q0 -25 19 -38t53 -13q35 0 72.5 12.5t64 35t26.5 50.5q0 20 -15 27.5t-40 14.5l-139 42q-25 8 -43.5 24.5t-18.5 42.5q0 30 26.5 53.5t75 47t111.5 49.5zM266 513q-18 0 -33.5 -19.5t-26.5 -52t-17 -71.5t-6 -78q0 -33 6.5 -45.5t19.5 -12.5q20 0 35.5 19.5t26.5 51.5t16 71
t5 78q0 23 -4.5 41t-21.5 18zM288 531q68 0 112.5 -26.5t44.5 -86.5q0 -48 -31 -95t-88.5 -77t-135.5 -30q-67 0 -112.5 27t-45.5 86q0 34 17 69.5t49.5 66t80 48.5t109.5 18zM369 478l-20 7q15 41 49 66.5t73 25.5q33 0 50 -18t17 -47t-15 -44t-33 -15q-16 0 -30.5 12.5
t-18.5 37.5t12 65l6 -7q-36 -13 -56 -32t-34 -51zM341 726q55 0 106.5 15.5t94.5 46.5l12 -9q-23 -41 -60.5 -78.5t-83 -60.5t-92.5 -23q-55 0 -85 47t-39 113l15 7q23 -30 52 -44t80 -14z" />
    <glyph glyph-name="Gdotaccent" unicode="&#x120;" horiz-adv-x="750" 
d="M348 6q18 0 35 4.5t29 12.5q17 12 24.5 29t15.5 48l23 88q11 41 8.5 61t-22 27t-61.5 8l5 20q32 -1 84.5 -2t95.5 -1q47 0 87.5 1t65.5 2l-5 -20q-22 -1 -34.5 -7t-21 -24t-18.5 -55l-53 -198h-20q2 29 -6.5 43t-27.5 14q-23 0 -49 -13t-50 -24q-38 -19 -70.5 -26.5
t-66.5 -7.5q-132 0 -207 60t-75 169q0 68 23 139t66 137t104 118t137 82.5t164 30.5q65 0 100.5 -19t63.5 -46q15 -15 28 -5t29 56h22q-15 -39 -31 -94.5t-33 -135.5h-22q2 20 3.5 38.5t1.5 36.5q0 21 -2.5 38t-11.5 35q-19 38 -58.5 58t-95.5 20q-60 0 -108.5 -35.5
t-86 -94t-62 -128t-37.5 -139t-13 -125.5q0 -90 33.5 -133t99.5 -43zM445 826q0 48 32 74t80 26q40 0 61 -17t21 -48q0 -43 -33 -71t-81 -28q-39 0 -59.5 17t-20.5 47z" />
    <glyph glyph-name="gdotaccent" unicode="&#x121;" horiz-adv-x="479" 
d="M226 227l53 6q-62 -24 -94.5 -42t-32.5 -33q0 -8 10 -14.5t30 -12.5l87 -31q28 -10 54 -24t43 -36t17 -55q0 -41 -26.5 -73.5t-71.5 -55t-99.5 -34t-111.5 -11.5q-50 0 -93 9.5t-69.5 26.5t-26.5 40q0 20 19.5 35t50 25t64 15t63.5 6l2 -15q-33 -18 -46.5 -37t-13.5 -37
q0 -25 19 -38t53 -13q35 0 72.5 12.5t64 35t26.5 50.5q0 20 -15 27.5t-40 14.5l-139 42q-25 8 -43.5 24.5t-18.5 42.5q0 30 26.5 53.5t75 47t111.5 49.5zM266 513q-18 0 -33.5 -19.5t-26.5 -52t-17 -71.5t-6 -78q0 -33 6.5 -45.5t19.5 -12.5q20 0 35.5 19.5t26.5 51.5t16 71
t5 78q0 23 -4.5 41t-21.5 18zM288 531q68 0 112.5 -26.5t44.5 -86.5q0 -48 -31 -95t-88.5 -77t-135.5 -30q-67 0 -112.5 27t-45.5 86q0 34 17 69.5t49.5 66t80 48.5t109.5 18zM369 478l-20 7q15 41 49 66.5t73 25.5q33 0 50 -18t17 -47t-15 -44t-33 -15q-16 0 -30.5 12.5
t-18.5 37.5t12 65l6 -7q-36 -13 -56 -32t-34 -51zM245 678q0 49 32.5 75t80.5 26q39 0 60 -16.5t21 -48.5q0 -43 -32.5 -71t-80.5 -28q-39 0 -60 16.5t-21 46.5z" />
    <glyph glyph-name="uni0122" unicode="&#x122;" horiz-adv-x="750" 
d="M348 6q18 0 35 4.5t29 12.5q17 12 24.5 29t15.5 48l23 88q11 41 8.5 61t-22 27t-61.5 8l5 20q32 -1 84.5 -2t95.5 -1q47 0 87.5 1t65.5 2l-5 -20q-22 -1 -34.5 -7t-21 -24t-18.5 -55l-53 -198h-20q2 29 -6.5 43t-27.5 14q-23 0 -49 -13t-50 -24q-38 -19 -70.5 -26.5
t-66.5 -7.5q-132 0 -207 60t-75 169q0 68 23 139t66 137t104 118t137 82.5t164 30.5q65 0 100.5 -19t63.5 -46q15 -15 28 -5t29 56h22q-15 -39 -31 -94.5t-33 -135.5h-22q2 20 3.5 38.5t1.5 36.5q0 21 -2.5 38t-11.5 35q-19 38 -58.5 58t-95.5 20q-60 0 -108.5 -35.5
t-86 -94t-62 -128t-37.5 -139t-13 -125.5q0 -90 33.5 -133t99.5 -43zM328 -47q27 0 50 -15t23 -48q0 -55 -41 -90t-110 -41l-1 20q42 2 72 17t36 39q-12 -8 -27.5 -12.5t-34.5 -4.5q-31 0 -48 12.5t-17 37.5q0 38 29 61.5t69 23.5z" />
    <glyph glyph-name="uni0123" unicode="&#x123;" horiz-adv-x="479" 
d="M226 227l53 6q-62 -24 -94.5 -42t-32.5 -33q0 -8 10 -14.5t30 -12.5l87 -31q28 -10 54 -24t43 -36t17 -55q0 -41 -26.5 -73.5t-71.5 -55t-99.5 -34t-111.5 -11.5q-50 0 -93 9.5t-69.5 26.5t-26.5 40q0 20 19.5 35t50 25t64 15t63.5 6l2 -15q-33 -18 -46.5 -37t-13.5 -37
q0 -25 19 -38t53 -13q35 0 72.5 12.5t64 35t26.5 50.5q0 20 -15 27.5t-40 14.5l-139 42q-25 8 -43.5 24.5t-18.5 42.5q0 30 26.5 53.5t75 47t111.5 49.5zM266 513q-18 0 -33.5 -19.5t-26.5 -52t-17 -71.5t-6 -78q0 -33 6.5 -45.5t19.5 -12.5q20 0 35.5 19.5t26.5 51.5t16 71
t5 78q0 23 -4.5 41t-21.5 18zM288 531q68 0 112.5 -26.5t44.5 -86.5q0 -48 -31 -95t-88.5 -77t-135.5 -30q-67 0 -112.5 27t-45.5 86q0 34 17 69.5t49.5 66t80 48.5t109.5 18zM369 478l-20 7q15 41 49 66.5t73 25.5q33 0 50 -18t17 -47t-15 -44t-33 -15q-16 0 -30.5 12.5
t-18.5 37.5t12 65l6 -7q-36 -13 -56 -32t-34 -51zM309 612q-27 0 -50 15t-23 48q0 55 41 90t110 41l1 -20q-42 -2 -72 -17t-36 -39q12 8 27.5 12.5t34.5 4.5q31 0 48 -12.5t17 -37.5q0 -38 -29 -61.5t-69 -23.5z" />
    <glyph glyph-name="Hcircumflex" unicode="&#x124;" horiz-adv-x="828" 
d="M248 346l7 20h353l-8 -20h-352zM616 602q15 55 3 69.5t-62 16.5l5 20q28 -1 74 -2t92 -1q53 0 100.5 1t76.5 2l-5 -20q-34 -1 -53 -7.5t-29.5 -24t-20.5 -54.5l-132 -496q-14 -55 -3 -69.5t62 -16.5l-4 -20q-28 2 -75.5 2.5t-100.5 0.5q-46 0 -92 -0.5t-75 -2.5l4 20
q34 2 53 8t30 24t20 54zM243 106q-14 -55 -3 -69.5t62 -16.5l-4 -20q-30 2 -75 2.5t-92 0.5q-54 0 -100 -0.5t-75 -2.5l5 20q33 2 51.5 8t29.5 24t20 54l132 496q14 55 2.5 69.5t-61.5 16.5l5 20q27 -1 74 -2t101 -1q47 0 91 1t77 2l-5 -20q-34 -1 -53 -7.5t-29.5 -24
t-20.5 -54.5zM530 827q-44 -16 -101.5 -30.5t-119.5 -26.5l-5 14q88 28 163 72t120 92h18q21 -55 51.5 -94.5t87.5 -69.5l-4 -14q-73 13 -120 27t-90 30z" />
    <glyph glyph-name="hcircumflex" unicode="&#x125;" horiz-adv-x="581" 
d="M138 0h-159l198 667q10 34 -2 50t-61 16l7 21q76 1 135.5 11.5t114.5 29.5zM162 144q40 119 74.5 194.5t67.5 118t68 59t74 16.5q50 0 72 -20.5t22.5 -55t-12.5 -75.5l-99 -296q-10 -28 -3.5 -37t16.5 -9q11 0 26 12.5t32 58.5l19 52h19l-25 -73q-22 -63 -61 -83t-78 -20
q-50 0 -73 22.5t-24 60.5t14 83l88 264q5 17 7 31t-0.5 21.5t-12.5 7.5q-23 0 -53.5 -40t-63 -107.5t-63 -151t-53.5 -171.5zM501 912q-37 -18 -84.5 -34.5t-98.5 -29.5l-5 14q76 34 141.5 89t105.5 115h18q15 -71 41.5 -119.5t77.5 -84.5l-4 -14q-66 13 -110 28.5t-82 35.5
z" />
    <glyph glyph-name="Hbar" unicode="&#x126;" horiz-adv-x="828" 
d="M248 346l7 20h353l-8 -20h-352zM616 602q15 55 3 69.5t-62 16.5l5 20q28 -1 74 -2t92 -1q53 0 100.5 1t76.5 2l-5 -20q-34 -1 -53 -7.5t-29.5 -24t-20.5 -54.5l-132 -496q-14 -55 -3 -69.5t62 -16.5l-4 -20q-28 2 -75.5 2.5t-100.5 0.5q-46 0 -92 -0.5t-75 -2.5l4 20
q34 2 53 8t30 24t20 54zM243 106q-14 -55 -3 -69.5t62 -16.5l-4 -20q-30 2 -75 2.5t-92 0.5q-54 0 -100 -0.5t-75 -2.5l5 20q33 2 51.5 8t29.5 24t20 54l132 496q14 55 2.5 69.5t-61.5 16.5l5 20q27 -1 74 -2t101 -1q47 0 91 1t77 2l-5 -20q-34 -1 -53 -7.5t-29.5 -24
t-20.5 -54.5zM891 533l-5 -20h-825l5 20h825z" />
    <glyph glyph-name="hbar" unicode="&#x127;" horiz-adv-x="581" 
d="M138 0h-159l198 667q10 34 -2 50t-61 16l7 21q76 1 135.5 11.5t114.5 29.5zM162 144q40 119 74.5 194.5t67.5 118t68 59t74 16.5q50 0 72 -20.5t22.5 -55t-12.5 -75.5l-99 -296q-10 -28 -3.5 -37t16.5 -9q11 0 26 12.5t32 58.5l19 52h19l-25 -73q-22 -63 -61 -83t-78 -20
q-50 0 -73 22.5t-24 60.5t14 83l88 264q5 17 7 31t-0.5 21.5t-12.5 7.5q-23 0 -53.5 -40t-63 -107.5t-63 -151t-53.5 -171.5zM483 628l-6 -20h-400l6 20h400z" />
    <glyph glyph-name="Itilde" unicode="&#x128;" horiz-adv-x="406" 
d="M243 106q-14 -55 -3 -69.5t62 -16.5l-4 -20q-30 2 -78 2.5t-97 0.5q-51 0 -95 -0.5t-72 -2.5l5 20q33 2 51.5 8t29.5 24t20 54l132 496q14 55 2.5 69.5t-61.5 16.5l5 20q26 -1 71 -2t96 -1q49 0 95 1t81 2l-5 -20q-34 -1 -53 -7.5t-29.5 -24t-20.5 -54.5zM298 937
q38 0 63.5 -11t44.5 -25.5t39 -25.5t49 -11q22 0 41.5 13.5t37.5 44.5l18 -5q-30 -80 -79 -115.5t-99 -35.5q-38 0 -63 11t-44.5 25.5t-39.5 25.5t-48 11q-22 0 -41 -13t-39 -45l-18 5q31 81 80 116t98 35z" />
    <glyph glyph-name="itilde" unicode="&#x129;" horiz-adv-x="328" 
d="M132 433q16 46 -10 46q-16 0 -30 -16t-29 -55l-22 -56h-19l28 77q21 57 58.5 80t85.5 23q49 0 71 -22t24.5 -54t-8.5 -64l-105 -307q-8 -26 -3.5 -36t16.5 -10q11 0 26 13t32 58l20 52h19l-26 -73q-21 -62 -60.5 -82.5t-78.5 -20.5q-43 0 -68 19t-29 56t13 91zM207 792
q30 0 49.5 -11t34.5 -25.5t30.5 -25.5t36.5 -11q20 0 37.5 13.5t34.5 44.5l18 -5q-28 -81 -73 -116t-89 -35q-30 0 -49.5 11t-34.5 25.5t-30.5 25.5t-37.5 11q-19 0 -36.5 -13t-34.5 -45l-18 5q27 81 72 116t90 35z" />
    <glyph glyph-name="Imacron" unicode="&#x12a;" horiz-adv-x="406" 
d="M243 106q-14 -55 -3 -69.5t62 -16.5l-4 -20q-30 2 -78 2.5t-97 0.5q-51 0 -95 -0.5t-72 -2.5l5 20q33 2 51.5 8t29.5 24t20 54l132 496q14 55 2.5 69.5t-61.5 16.5l5 20q26 -1 71 -2t96 -1q49 0 95 1t81 2l-5 -20q-34 -1 -53 -7.5t-29.5 -24t-20.5 -54.5zM541 844l-6 -25
h-416l6 25h416z" />
    <glyph glyph-name="imacron" unicode="&#x12b;" horiz-adv-x="328" 
d="M132 433q16 46 -10 46q-16 0 -30 -16t-29 -55l-22 -56h-19l28 77q21 57 58.5 80t85.5 23q49 0 71 -22t24.5 -54t-8.5 -64l-105 -307q-8 -26 -3.5 -36t16.5 -10q11 0 26 13t32 58l20 52h19l-26 -73q-21 -62 -60.5 -82.5t-78.5 -20.5q-43 0 -68 19t-29 56t13 91z
M388.438 712l-5.09961 -25h-292.392l5.09961 25h292.392z" />
    <glyph glyph-name="Ibreve" unicode="&#x12c;" horiz-adv-x="406" 
d="M243 106q-14 -55 -3 -69.5t62 -16.5l-4 -20q-30 2 -78 2.5t-97 0.5q-51 0 -95 -0.5t-72 -2.5l5 20q33 2 51.5 8t29.5 24t20 54l132 496q14 55 2.5 69.5t-61.5 16.5l5 20q26 -1 71 -2t96 -1q49 0 95 1t81 2l-5 -20q-34 -1 -53 -7.5t-29.5 -24t-20.5 -54.5zM347 875
q69 0 126 14.5t105 42.5l12 -10q-26 -39 -68 -75t-92 -58t-103 -22q-71 0 -110 45t-51 108l15 8q30 -27 68.5 -40t97.5 -13z" />
    <glyph glyph-name="ibreve" unicode="&#x12d;" horiz-adv-x="328" 
d="M132 433q16 46 -10 46q-16 0 -30 -16t-29 -55l-22 -56h-19l28 77q21 57 58.5 80t85.5 23q49 0 71 -22t24.5 -54t-8.5 -64l-105 -307q-8 -26 -3.5 -36t16.5 -10q11 0 26 13t32 58l20 52h19l-26 -73q-21 -62 -60.5 -82.5t-78.5 -20.5q-43 0 -68 19t-29 56t13 91zM246 726
q55 0 106.5 15.5t94.5 46.5l12 -9q-23 -41 -60.5 -78.5t-83 -60.5t-92.5 -23q-55 0 -85 47t-39 113l15 7q23 -30 52 -44t80 -14z" />
    <glyph glyph-name="Iogonek" unicode="&#x12e;" horiz-adv-x="406" 
d="M243 106q-14 -55 -3 -69.5t62 -16.5l-4 -20q-30 2 -78 2.5t-97 0.5q-51 0 -95 -0.5t-72 -2.5l5 20q33 2 51.5 8t29.5 24t20 54l132 496q14 55 2.5 69.5t-61.5 16.5l5 20q26 -1 71 -2t96 -1q49 0 95 1t81 2l-5 -20q-34 -1 -53 -7.5t-29.5 -24t-20.5 -54.5zM290 3
q-31 -12 -54 -30.5t-35 -40t-12 -41.5q0 -29 31 -29q15 0 34.5 5.5t37.5 15.5l11 -17q-38 -29 -75 -41.5t-76 -12.5q-40 0 -64 16t-24 44q0 32 29.5 57t76.5 43.5t98 30.5h22z" />
    <glyph glyph-name="iogonek" unicode="&#x12f;" horiz-adv-x="329" 
d="M173 680q1 48 33.5 73t78.5 25q41 0 61.5 -17.5t19.5 -50.5q-1 -42 -33.5 -69t-79.5 -27q-39 0 -60 17.5t-20 48.5zM133 433q16 46 -10 46q-16 0 -30 -16t-30 -55l-21 -56h-19l28 77q20 57 58 80t86 23q49 0 71 -22t24.5 -54t-8.5 -64l-105 -307q-8 -26 -3.5 -36
t16.5 -10q11 0 26 13t32 58l19 52h19l-25 -73q-22 -62 -61 -82.5t-78 -20.5q-44 0 -69 19t-29 56t14 91zM193 3q-31 -12 -53.5 -30.5t-35 -40t-12.5 -43.5q0 -27 26 -27q15 0 31.5 9t29.5 22l14 -13q-29 -35 -64.5 -51.5t-74.5 -16.5t-63 16t-24 45q0 31 29.5 56t76.5 43.5
t98 30.5h22z" />
    <glyph glyph-name="Idotaccent" unicode="&#x130;" horiz-adv-x="406" 
d="M243 106q-14 -55 -3 -69.5t62 -16.5l-4 -20q-30 2 -78 2.5t-97 0.5q-51 0 -95 -0.5t-72 -2.5l5 20q33 2 51.5 8t29.5 24t20 54l132 496q14 55 2.5 69.5t-61.5 16.5l5 20q26 -1 71 -2t96 -1q49 0 95 1t81 2l-5 -20q-34 -1 -53 -7.5t-29.5 -24t-20.5 -54.5zM249 826
q0 48 32 74t80 26q40 0 61 -17t21 -48q0 -43 -33 -71t-81 -28q-39 0 -59.5 17t-20.5 47z" />
    <glyph glyph-name="dotlessi" unicode="&#x131;" horiz-adv-x="328" 
d="M132 433q16 46 -10 46q-16 0 -30 -16t-29 -55l-22 -56h-19l28 77q21 57 58.5 80t85.5 23q49 0 71 -22t24.5 -54t-8.5 -64l-105 -307q-8 -26 -3.5 -36t16.5 -10q11 0 26 13t32 58l20 52h19l-26 -73q-21 -62 -60.5 -82.5t-78.5 -20.5q-43 0 -68 19t-29 56t13 91z" />
    <glyph glyph-name="Jcircumflex" unicode="&#x134;" horiz-adv-x="699" 
d="M668 366l-3 -20h-409l3 20h409zM422 555q-41 0 -75.5 12t-66 24t-62.5 12q-25 0 -42 -13t-17 -41q0 -32 29.5 -52.5t95.5 -26.5l-1 -9l-1 -9q-86 6 -140.5 43t-54.5 107q-1 61 36.5 99t113.5 38q51 0 88 -15t69.5 -34.5t70 -34.5t89.5 -15q36 0 81.5 9t84.5 28
q21 32 41 49t35 4q12 -10 -1 -27t-66 -37q-67 -57 -107 -150t-70 -209l-62 -242q-17 -68 -55 -126t-101.5 -92.5t-160.5 -34.5q-63 0 -107.5 18.5t-44.5 63.5q0 35 24 58.5t70 23.5q37 0 63 -17t26 -50q1 -26 -15 -45.5t-45 -32.5q8 -1 14 -1.5t12 -0.5q26 0 45 14t33 41.5
t26.5 68t27.5 92.5l61 217q28 102 75.5 170t112 119.5t144.5 101.5q-44 -13 -77 -30t-62 -32.5t-61 -25.5t-73 -10zM546 827q-44 -16 -101.5 -30.5t-119.5 -26.5l-5 14q88 28 163 72t120 92h18q21 -55 51.5 -94.5t87.5 -69.5l-4 -14q-73 13 -120 27t-90 30z" />
    <glyph glyph-name="jcircumflex" unicode="&#x135;" horiz-adv-x="310" 
d="M-139 -188l5 19q45 1 81 33.5t54 105.5l129 463q7 25 4.5 35.5t-15.5 10.5q-16 0 -30 -16t-28 -55l-21 -56h-19l27 77q21 59 61.5 81t83.5 22q49 0 70 -21.5t22 -53.5t-9 -65l-84 -305q-21 -85 -50 -136t-76 -87q-32 -23 -80.5 -37.5t-124.5 -14.5zM229 672
q-37 -18 -84.5 -34.5t-98.5 -29.5l-5 14q76 34 141.5 89t105.5 115h18q15 -71 41.5 -119.5t77.5 -84.5l-4 -14q-66 13 -110 28.5t-82 35.5z" />
    <glyph glyph-name="uni0136" unicode="&#x136;" horiz-adv-x="761" 
d="M243 106q-14 -55 -3 -69.5t62 -16.5l-4 -20q-30 2 -75 2.5t-92 0.5q-54 0 -100 -0.5t-75 -2.5l5 20q33 2 51.5 8t29.5 24t20 54l132 496q14 55 2.5 69.5t-61.5 16.5l5 20q27 -1 74 -2t101 -1q47 0 91 1t77 2l-5 -20q-34 -1 -53 -7.5t-29.5 -24t-20.5 -54.5zM617 65
q17 0 28.5 14t20.5 40l17 51h20l-26 -77q-19 -56 -56.5 -81.5t-81.5 -25.5q-70 0 -101.5 36t-22.5 94l24 149q4 30 3 49t-9 31t-23 20l2 10q85 -2 129.5 -21t58.5 -57t7 -98l-14 -102q-2 -14 4.5 -23t19.5 -9zM424 360q-54 -14 -73.5 -11.5t-15.5 20.5q3 16 21 19.5
t68 -10.5v-18zM632 679q-22 -24 -35 -63t-25 -82t-30.5 -81t-49 -62t-81.5 -23l2 10q47 5 74.5 30.5t43.5 63t26.5 79.5t23.5 79t36 61q17 19 36.5 25t38.5 6q48 0 77.5 -28t28.5 -73q0 -38 -26 -73.5t-76 -35.5q-30 0 -53 19t-23 56q1 34 24.5 65.5t64.5 47.5q-3 2 -8.5 3
t-12.5 1q-20 0 -33 -6.5t-23 -18.5zM292 -47q27 0 50 -15t23 -48q0 -55 -41 -90t-110 -41l-1 20q42 2 72 17t36 39q-12 -8 -27.5 -12.5t-34.5 -4.5q-31 0 -48 12.5t-17 37.5q0 38 29 61.5t69 23.5z" />
    <glyph glyph-name="uni0137" unicode="&#x137;" horiz-adv-x="565" 
d="M138 0h-159l198 667q10 34 -2 50t-61 16l7 21q76 1 135.5 11.5t114.5 29.5zM413 81q-5 -25 -1 -33.5t14 -8.5q12 0 26.5 13t31.5 58l19 52h19l-25 -73q-15 -42 -39.5 -64t-54 -30.5t-58.5 -8.5q-55 0 -76.5 31.5t-9.5 90.5l18 74q13 53 -4 75.5t-73 28.5v4
q46 3 90.5 -0.5t79 -18t51 -44.5t5.5 -80zM446 513q-14 0 -24.5 -4t-20.5 -12q-17 -14 -27.5 -40t-21 -55.5t-26.5 -55.5t-43 -43t-71 -16l-10 -1l2 11q43 3 68 20.5t40 43t24.5 53.5t20 53.5t29.5 41.5q16 13 33.5 18t30.5 5q53 0 78.5 -30.5t24.5 -72.5q0 -43 -26 -68.5
t-66 -25.5q-36 0 -54.5 19.5t-18.5 44.5q1 36 24.5 62.5t53.5 40.5q-3 5 -9 8t-11 3zM193 -47q27 0 50 -15t23 -48q0 -55 -41 -90t-110 -41l-1 20q42 2 72 17t36 39q-12 -8 -27.5 -12.5t-34.5 -4.5q-31 0 -48 12.5t-17 37.5q0 38 29 61.5t69 23.5z" />
    <glyph glyph-name="kgreenlandic" unicode="&#x138;" horiz-adv-x="604" 
d="M441 81q-4 -26 -0.5 -34t13.5 -8q11 0 26 13t31 58l20 52h19l-25 -73q-15 -42 -40 -64t-54 -30.5t-58 -8.5q-55 0 -76.5 31t-9.5 91l10 47q11 52 -4.5 74.5t-72.5 28.5v4q46 3 89.5 0.5t77.5 -17.5t50.5 -45t9.5 -80zM473 513q-13 0 -23.5 -4t-20.5 -12
q-17 -15 -28.5 -43.5t-23 -62t-28.5 -64t-44.5 -50t-72.5 -18.5l-10 -1l2 11q44 3 70 23t41.5 49.5t26 62t22 60.5t30.5 45q16 13 33 18t30 5q54 0 79.5 -30.5t24.5 -72.5q0 -43 -26.5 -68.5t-65.5 -25.5q-36 0 -54.5 19.5t-18.5 44.5q0 36 24 62.5t54 40.5q-4 5 -9.5 8
t-11.5 3zM168 0h-16h-39.5h-47h-40h-16.5l122 433q7 25 5.5 35.5t-15.5 10.5q-17 0 -31 -15.5t-29 -55.5l-21 -56h-19l28 77q19 55 52.5 79t80.5 24q50 0 71 -21t24 -53t-7 -66z" />
    <glyph glyph-name="Lacute" unicode="&#x139;" horiz-adv-x="611" 
d="M571 210q-6 -16 -12 -37t-12 -45q-5 -19 -13 -54.5t-13 -73.5q-51 2 -114 2.5t-113 0.5h-93.5t-124 -0.5t-121.5 -2.5l4 20q34 2 53 8t30 24t20 54l132 496q14 55 2.5 69.5t-61.5 16.5l5 20q28 -1 76 -2t101 -1q47 0 90 1t75 2l-5 -20q-34 -1 -53 -7.5t-29.5 -24
t-20.5 -54.5l-132 -496q-14 -55 -3 -69t60 -14h29q40 0 80 18t76.5 59t64.5 110h22zM305 784q49 41 80 73t55.5 56t52.5 38q23 13 53.5 11.5t46.5 -30.5q13 -26 -1 -48t-42 -37q-38 -21 -94.5 -32.5t-143.5 -42.5z" />
    <glyph glyph-name="lacute" unicode="&#x13a;" horiz-adv-x="308" 
d="M156 85q-8 -25 -1.5 -35.5t17.5 -10.5q8 0 23.5 12t32.5 59l19 52h19l-25 -73q-15 -42 -38 -64t-49 -30.5t-51 -8.5q-42 0 -67 20t-29.5 57t10.5 89l155 515q10 34 -2 50t-61 16l7 21q77 1 136 11.5t114 29.5zM255 847q49 41 80 73t55.5 56t52.5 38q23 13 53.5 11.5
t46.5 -30.5q13 -26 -1 -48t-42 -37q-38 -21 -94.5 -32.5t-143.5 -42.5z" />
    <glyph glyph-name="uni013B" unicode="&#x13b;" horiz-adv-x="611" 
d="M571 210q-6 -16 -12 -37t-12 -45q-5 -19 -13 -54.5t-13 -73.5q-51 2 -114 2.5t-113 0.5h-93.5t-124 -0.5t-121.5 -2.5l4 20q34 2 53 8t30 24t20 54l132 496q14 55 2.5 69.5t-61.5 16.5l5 20q28 -1 76 -2t101 -1q47 0 90 1t75 2l-5 -20q-34 -1 -53 -7.5t-29.5 -24
t-20.5 -54.5l-132 -496q-14 -55 -3 -69t60 -14h29q40 0 80 18t76.5 59t64.5 110h22zM280 -47q27 0 50 -15t23 -48q0 -55 -41 -90t-110 -41l-1 20q42 2 72 17t36 39q-12 -8 -27.5 -12.5t-34.5 -4.5q-31 0 -48 12.5t-17 37.5q0 38 29 61.5t69 23.5z" />
    <glyph glyph-name="uni013C" unicode="&#x13c;" horiz-adv-x="308" 
d="M156 85q-8 -25 -1.5 -35.5t17.5 -10.5q8 0 23.5 12t32.5 59l19 52h19l-25 -73q-15 -42 -38 -64t-49 -30.5t-51 -8.5q-42 0 -67 20t-29.5 57t10.5 89l155 515q10 34 -2 50t-61 16l7 21q77 1 136 11.5t114 29.5zM90 -47q27 0 50 -15t23 -48q0 -55 -41 -90t-110 -41l-1 20
q42 2 72 17t36 39q-12 -8 -27.5 -12.5t-34.5 -4.5q-31 0 -48 12.5t-17 37.5q0 38 29 61.5t69 23.5z" />
    <glyph glyph-name="Lcaron" unicode="&#x13d;" horiz-adv-x="611" 
d="M571 210q-6 -16 -12 -37t-12 -45q-5 -19 -13 -54.5t-13 -73.5q-51 2 -114 2.5t-113 0.5h-93.5t-124 -0.5t-121.5 -2.5l4 20q34 2 53 8t30 24t20 54l132 496q14 55 2.5 69.5t-61.5 16.5l5 20q28 -1 76 -2t101 -1q47 0 90 1t75 2l-5 -20q-34 -1 -53 -7.5t-29.5 -24
t-20.5 -54.5l-132 -496q-14 -55 -3 -69t60 -14h29q40 0 80 18t76.5 59t64.5 110h22zM479 485q31 70 43 117.5t12 65.5q0 9 -5 14t-20 5l3 21q12 0 22 -0.5t20 -0.5q36 0 60 4t44 8q1 -2 1 -11q0 -36 -44.5 -96.5t-121.5 -130.5z" />
    <glyph glyph-name="lcaron" unicode="&#x13e;" horiz-adv-x="308" 
d="M156 85q-8 -25 -1.5 -35.5t17.5 -10.5q8 0 23.5 12t32.5 59l19 52h19l-25 -73q-15 -42 -38 -64t-49 -30.5t-51 -8.5q-42 0 -67 20t-29.5 57t10.5 89l155 515q10 34 -2 50t-61 16l7 21q77 1 136 11.5t114 29.5zM367 540q34 74 47.5 124t13.5 69t-13 19l3 21q9 0 16 -0.5
t14 -0.5q36 0 60.5 4t43.5 8q1 -2 1 -11q0 -38 -46 -101t-126 -136z" />
    <glyph glyph-name="Ldot" unicode="&#x13f;" horiz-adv-x="629" 
d="M571 210q-6 -16 -12 -37t-12 -45q-5 -19 -13 -54.5t-13 -73.5q-51 2 -114 2.5t-113 0.5h-93.5t-124 -0.5t-121.5 -2.5l4 20q34 2 53 8t30 24t20 54l132 496q14 55 2.5 69.5t-61.5 16.5l5 20q28 -1 76 -2t101 -1q47 0 90 1t75 2l-5 -20q-34 -1 -53 -7.5t-29.5 -24
t-20.5 -54.5l-132 -496q-14 -55 -3 -69t60 -14h29q40 0 80 18t76.5 59t64.5 110h22zM456 354q0 44 30 72t74 28q35 0 54.5 -16.5t19.5 -48.5q0 -38 -31 -68t-75 -30q-34 0 -53 16.5t-19 46.5z" />
    <glyph glyph-name="ldot" unicode="&#x140;" horiz-adv-x="476" 
d="M156 85q-8 -25 -1.5 -35.5t17.5 -10.5q8 0 23.5 12t32.5 59l19 52h19l-25 -73q-15 -42 -38 -64t-49 -30.5t-51 -8.5q-42 0 -67 20t-29.5 57t10.5 89l155 515q10 34 -2 50t-61 16l7 21q77 1 136 11.5t114 29.5zM287 275q0 44 30 72t74 28q35 0 54.5 -16.5t19.5 -48.5
q0 -38 -31 -68t-75 -30q-34 0 -53 16.5t-19 46.5z" />
    <glyph glyph-name="Lslash" unicode="&#x141;" horiz-adv-x="612" 
d="M190 308l328 165l-6 -23l-328 -165zM186 295l-169 -85l6 23l169 85zM572 210q-6 -16 -12 -37t-12 -45q-5 -19 -13 -54.5t-13 -73.5q-51 2 -114 2.5t-113 0.5h-93.5t-124 -0.5t-121.5 -2.5l4 20q34 2 53 8t30 24t20 54l132 496q14 55 2.5 69.5t-61.5 16.5l5 20
q28 -1 76 -2t101 -1q47 0 90 1t76 2l-5 -20q-34 -1 -53 -7.5t-30 -24t-21 -54.5l-132 -496q-14 -55 -3 -69t61 -14h29q39 0 79 18t77 59t64 110h22z" />
    <glyph glyph-name="lslash" unicode="&#x142;" horiz-adv-x="324" 
d="M205 385l173 115l-4 -30l-173 -115zM163 364l-174 -117l4 30l174 117zM163 85q-8 -25 -1.5 -35.5t17.5 -10.5q8 0 23.5 12t32.5 59l19 52h19l-25 -73q-15 -42 -38 -64t-49 -30.5t-51 -8.5q-42 0 -67 20t-29.5 57t10.5 89l155 515q10 34 -2 50t-61 16l7 21q77 1 136 11.5
t114 29.5z" />
    <glyph glyph-name="Nacute" unicode="&#x143;" horiz-adv-x="843" 
d="M534 -5l-261 522l1 13t1.5 29.5t1.5 29.5l1 13q8 37 5.5 54.5t-20 24t-56.5 7.5l5 20q16 -1 39.5 -2t49.5 -1q47 0 81 3l218 -461l-4.5 -25.5t-11 -62.5t-13 -75t-11 -63.5l-4.5 -25.5h-22zM842 736q-26 0 -47.5 -15.5t-37.5 -38.5q-46 -68 -94 -239t-107 -448l-14 28
q18 84 40.5 182.5t47.5 193.5t52.5 172t56.5 119q19 27 45 45.5t63 18.5q50 0 78 -28t28 -68q0 -43 -29 -70.5t-73 -27.5q-36 0 -57 18t-21 49q0 39 25.5 67t63.5 36q-3 3 -8.5 4.5t-11.5 1.5zM29 -56q28 0 48.5 15t36.5 40q29 46 58.5 144t60 237t61.5 305l17 -21
q-20 -102 -42 -208t-45.5 -201t-47 -165.5t-46.5 -100.5q-18 -24 -42.5 -43.5t-64.5 -19.5q-49 0 -77 28t-28 68q0 43 29 70.5t72 27.5q37 0 58 -18t21 -49q0 -39 -26 -66.5t-64 -36.5q4 -3 9 -4.5t12 -1.5zM515 784q49 41 80 73t55.5 56t52.5 38q23 13 53.5 11.5
t46.5 -30.5q13 -26 -1 -48t-42 -37q-38 -21 -94.5 -32.5t-143.5 -42.5z" />
    <glyph glyph-name="nacute" unicode="&#x144;" horiz-adv-x="611" 
d="M168 0h-159l122 433q5 15 6 25t-2.5 15.5t-13.5 5.5q-17 0 -30.5 -15t-29.5 -56l-21 -56h-19l28 77q19 55 52 79t81 24q51 0 72 -21.5t23 -54t-7 -64.5zM196 156q40 116 74 189t66.5 114.5t67 57t73.5 15.5q49 0 71 -20.5t23 -55t-13 -75.5l-99 -296q-9 -28 -3 -37t16 -9
q11 0 26 12.5t32 58.5l19 52h19l-25 -73q-22 -63 -61 -83t-77 -20q-60 0 -85 35q-14 20 -14.5 51t15.5 80l88 264q6 17 8 30.5t-1 21.5t-13 8q-22 0 -52 -39.5t-62.5 -106t-63 -148t-52.5 -166.5zM312 609q36 53 56.5 92.5t37 69t39.5 51.5q19 20 48.5 26.5t51.5 -16.5
q21 -19 14.5 -44t-30.5 -49q-20 -21 -49 -39t-68.5 -41.5t-89.5 -59.5z" />
    <glyph glyph-name="uni0145" unicode="&#x145;" horiz-adv-x="843" 
d="M534 -5l-261 522l1 13t1.5 29.5t1.5 29.5l1 13q8 37 5.5 54.5t-20 24t-56.5 7.5l5 20q16 -1 39.5 -2t49.5 -1q47 0 81 3l218 -461l-4.5 -25.5t-11 -62.5t-13 -75t-11 -63.5l-4.5 -25.5h-22zM842 736q-26 0 -47.5 -15.5t-37.5 -38.5q-46 -68 -94 -239t-107 -448l-14 28
q18 84 40.5 182.5t47.5 193.5t52.5 172t56.5 119q19 27 45 45.5t63 18.5q50 0 78 -28t28 -68q0 -43 -29 -70.5t-73 -27.5q-36 0 -57 18t-21 49q0 39 25.5 67t63.5 36q-3 3 -8.5 4.5t-11.5 1.5zM29 -56q28 0 48.5 15t36.5 40q29 46 58.5 144t60 237t61.5 305l17 -21
q-20 -102 -42 -208t-45.5 -201t-47 -165.5t-46.5 -100.5q-18 -24 -42.5 -43.5t-64.5 -19.5q-49 0 -77 28t-28 68q0 43 29 70.5t72 27.5q37 0 58 -18t21 -49q0 -39 -26 -66.5t-64 -36.5q4 -3 9 -4.5t12 -1.5zM320 -47q27 0 50 -15t23 -48q0 -55 -41 -90t-110 -41l-1 20
q42 2 72 17t36 39q-12 -8 -27.5 -12.5t-34.5 -4.5q-31 0 -48 12.5t-17 37.5q0 38 29 61.5t69 23.5z" />
    <glyph glyph-name="uni0146" unicode="&#x146;" horiz-adv-x="611" 
d="M168 0h-159l122 433q5 15 6 25t-2.5 15.5t-13.5 5.5q-17 0 -30.5 -15t-29.5 -56l-21 -56h-19l28 77q19 55 52 79t81 24q51 0 72 -21.5t23 -54t-7 -64.5zM196 156q40 116 74 189t66.5 114.5t67 57t73.5 15.5q49 0 71 -20.5t23 -55t-13 -75.5l-99 -296q-9 -28 -3 -37t16 -9
q11 0 26 12.5t32 58.5l19 52h19l-25 -73q-22 -63 -61 -83t-77 -20q-60 0 -85 35q-14 20 -14.5 51t15.5 80l88 264q6 17 8 30.5t-1 21.5t-13 8q-22 0 -52 -39.5t-62.5 -106t-63 -148t-52.5 -166.5zM211 -47q27 0 50 -15t23 -48q0 -55 -41 -90t-110 -41l-1 20q42 2 72 17
t36 39q-12 -8 -27.5 -12.5t-34.5 -4.5q-31 0 -48 12.5t-17 37.5q0 38 29 61.5t69 23.5z" />
    <glyph glyph-name="Ncaron" unicode="&#x147;" horiz-adv-x="843" 
d="M534 -5l-261 522l1 13t1.5 29.5t1.5 29.5l1 13q8 37 5.5 54.5t-20 24t-56.5 7.5l5 20q16 -1 39.5 -2t49.5 -1q47 0 81 3l218 -461l-4.5 -25.5t-11 -62.5t-13 -75t-11 -63.5l-4.5 -25.5h-22zM842 736q-26 0 -47.5 -15.5t-37.5 -38.5q-46 -68 -94 -239t-107 -448l-14 28
q18 84 40.5 182.5t47.5 193.5t52.5 172t56.5 119q19 27 45 45.5t63 18.5q50 0 78 -28t28 -68q0 -43 -29 -70.5t-73 -27.5q-36 0 -57 18t-21 49q0 39 25.5 67t63.5 36q-3 3 -8.5 4.5t-11.5 1.5zM29 -56q28 0 48.5 15t36.5 40q29 46 58.5 144t60 237t61.5 305l17 -21
q-20 -102 -42 -208t-45.5 -201t-47 -165.5t-46.5 -100.5q-18 -24 -42.5 -43.5t-64.5 -19.5q-49 0 -77 28t-28 68q0 43 29 70.5t72 27.5q37 0 58 -18t21 -49q0 -39 -26 -66.5t-64 -36.5q4 -3 9 -4.5t12 -1.5zM604 885q45 16 102 31t119 26l5 -14q-87 -27 -162.5 -71.5
t-120.5 -92.5h-18q-20 56 -51 95t-88 69l4 14q74 -13 120.5 -26.5t89.5 -30.5z" />
    <glyph glyph-name="ncaron" unicode="&#x148;" horiz-adv-x="611" 
d="M168 0h-159l122 433q5 15 6 25t-2.5 15.5t-13.5 5.5q-17 0 -30.5 -15t-29.5 -56l-21 -56h-19l28 77q19 55 52 79t81 24q51 0 72 -21.5t23 -54t-7 -64.5zM196 156q40 116 74 189t66.5 114.5t67 57t73.5 15.5q49 0 71 -20.5t23 -55t-13 -75.5l-99 -296q-9 -28 -3 -37t16 -9
q11 0 26 12.5t32 58.5l19 52h19l-25 -73q-22 -63 -61 -83t-77 -20q-60 0 -85 35q-14 20 -14.5 51t15.5 80l88 264q6 17 8 30.5t-1 21.5t-13 8q-22 0 -52 -39.5t-62.5 -106t-63 -148t-52.5 -166.5zM432 762q37 18 84 35t99 29l5 -14q-77 -33 -142.5 -88.5t-104.5 -115.5h-18
q-15 72 -41.5 120t-77.5 84l4 14q66 -13 109.5 -28.5t82.5 -35.5z" />
    <glyph glyph-name="napostrophe" unicode="&#x149;" horiz-adv-x="611" 
d="M168 0h-159l122 433q5 15 6 25t-2.5 15.5t-13.5 5.5q-17 0 -30.5 -15t-29.5 -56l-21 -56h-19l28 77q19 55 52 79t81 24q51 0 72 -21.5t23 -54t-7 -64.5zM196 156q40 116 74 189t66.5 114.5t67 57t73.5 15.5q49 0 71 -20.5t23 -55t-13 -75.5l-99 -296q-9 -28 -3 -37t16 -9
q11 0 26 12.5t32 58.5l19 52h19l-25 -73q-22 -63 -61 -83t-77 -20q-60 0 -85 35q-14 20 -14.5 51t15.5 80l88 264q6 17 8 30.5t-1 21.5t-13 8q-22 0 -52 -39.5t-62.5 -106t-63 -148t-52.5 -166.5zM175 719q0 -67 -39.5 -122.5t-109.5 -86.5l-5 17q42 19 74 55t35 81
q-13 -14 -30 -22t-36 -8q-70 0 -70 60q0 29 14 52.5t39 37t55 13.5q35 0 54 -18.5t19 -58.5z" />
    <glyph glyph-name="Eng" unicode="&#x14a;" horiz-adv-x="728" 
d="M683 600q14 55 2.5 70.5t-63.5 17.5l5 20q17 -1 43 -2t52 -1t50 1t41 2l-5 -20q-34 -1 -53 -8t-29.5 -25t-20.5 -55l-156 -591l-25 -15l-329 516l-108 -402q-15 -55 -3 -70.5t64 -17.5l-4 -20q-18 2 -42 2.5t-50 0.5t-52 -0.5t-43 -2.5l5 20q35 2 53.5 8.5t29.5 25
t20 54.5l131 494q14 54 1.5 69t-69.5 17l5 20q16 -1 39.5 -2t49.5 -1q47 0 81 3l287 -459zM550 14q-12 -59 -31.5 -104.5t-51.5 -71.5t-85 -26q-31 0 -61 8t-49.5 26t-19.5 48q0 35 24.5 58.5t69.5 23.5q37 0 63 -17t26 -50q1 -26 -15.5 -45.5t-45.5 -32.5q9 -2 17 -2
q35 0 59 19t39.5 49.5t25 65t16.5 66.5z" />
    <glyph glyph-name="eng" unicode="&#x14b;" horiz-adv-x="591" 
d="M168 0h-16h-39.5h-47h-40h-16.5l122 433q7 25 6 35.5t-16 10.5q-17 0 -31 -15.5t-29 -55.5l-21 -56h-19l28 77q19 55 52.5 79t80.5 24q50 0 71 -20.5t24 -53t-7 -66.5zM481 115q-31 -102 -64.5 -163.5t-80.5 -91.5q-37 -29 -82 -38.5t-79 -9.5q-58 0 -85 18t-25 50
q1 32 24.5 53t57.5 21q32 0 50 -19t17 -43q-1 -16 -11 -34t-31 -31q38 5 60.5 29t38.5 79l138 481q8 30 8 45t-14 15q-22 0 -52 -39.5t-62.5 -106t-63 -148t-53.5 -166.5l25 140q39 116 73 189t66.5 114.5t66.5 57t74 15.5q48 0 70 -20t23.5 -54t-12.5 -77z" />
    <glyph glyph-name="Omacron" unicode="&#x14c;" horiz-adv-x="793" 
d="M494 704q-51 0 -97.5 -42t-83.5 -113t-59 -158.5t-22 -177.5q0 -98 27.5 -153.5t70.5 -55.5q51 0 97.5 42t83.5 113t59 158.5t22 177.5q0 98 -27.5 153.5t-70.5 55.5zM38 226q0 66 21.5 136t61.5 134t97 115t129 81t156 30q133 0 208.5 -62.5t75.5 -178.5
q0 -66 -21.5 -135.5t-62 -133.5t-98 -115t-129 -81t-155.5 -30q-133 0 -208 62.5t-75 177.5zM715 844l-6 -25h-416l6 25h416z" />
    <glyph glyph-name="omacron" unicode="&#x14d;" horiz-adv-x="543" 
d="M340 512q-20 0 -44.5 -28t-48.5 -75t-44 -105t-32 -119t-12 -117q0 -34 6.5 -48t20.5 -14q19 0 43 26.5t47.5 72t43.5 103t32.5 119.5t12.5 121q0 40 -7 52t-18 12zM9 153q0 59 20 124.5t62 123.5t105 94.5t149 36.5q82 0 126 -43t44 -124q0 -59 -20 -124.5t-62 -123.5
t-105 -94.5t-149 -36.5q-82 0 -126 43t-44 124zM562 712l-6 -25h-344l6 25h344z" />
    <glyph glyph-name="Obreve" unicode="&#x14e;" horiz-adv-x="793" 
d="M494 704q-51 0 -97.5 -42t-83.5 -113t-59 -158.5t-22 -177.5q0 -98 27.5 -153.5t70.5 -55.5q51 0 97.5 42t83.5 113t59 158.5t22 177.5q0 98 -27.5 153.5t-70.5 55.5zM38 226q0 66 21.5 136t61.5 134t97 115t129 81t156 30q133 0 208.5 -62.5t75.5 -178.5
q0 -66 -21.5 -135.5t-62 -133.5t-98 -115t-129 -81t-155.5 -30q-133 0 -208 62.5t-75 177.5zM520 875q69 0 126 14.5t105 42.5l12 -10q-26 -39 -68 -75t-92 -58t-103 -22q-71 0 -110 45t-51 108l15 8q30 -27 68.5 -40t97.5 -13z" />
    <glyph glyph-name="obreve" unicode="&#x14f;" horiz-adv-x="543" 
d="M340 512q-20 0 -44.5 -28t-48.5 -75t-44 -105t-32 -119t-12 -117q0 -34 6.5 -48t20.5 -14q19 0 43 26.5t47.5 72t43.5 103t32.5 119.5t12.5 121q0 40 -7 52t-18 12zM9 153q0 59 20 124.5t62 123.5t105 94.5t149 36.5q82 0 126 -43t44 -124q0 -59 -20 -124.5t-62 -123.5
t-105 -94.5t-149 -36.5q-82 0 -126 43t-44 124zM388 726q55 0 106.5 15.5t94.5 46.5l12 -9q-23 -41 -60.5 -78.5t-83 -60.5t-92.5 -23q-55 0 -85 47t-39 113l15 7q23 -30 52 -44t80 -14z" />
    <glyph glyph-name="Ohungarumlaut" unicode="&#x150;" horiz-adv-x="793" 
d="M494 704q-51 0 -97.5 -42t-83.5 -113t-59 -158.5t-22 -177.5q0 -98 27.5 -153.5t70.5 -55.5q51 0 97.5 42t83.5 113t59 158.5t22 177.5q0 98 -27.5 153.5t-70.5 55.5zM38 226q0 66 21.5 136t61.5 134t97 115t129 81t156 30q133 0 208.5 -62.5t75.5 -178.5
q0 -66 -21.5 -135.5t-62 -133.5t-98 -115t-129 -81t-155.5 -30q-133 0 -208 62.5t-75 177.5zM551 782q33 39 53.5 69t36.5 52t35 36t46 11t43 -27q15 -21 7 -44t-31 -38q-27 -19 -71 -30.5t-110 -38.5zM332 782q33 39 53.5 69t36.5 52t35 36q20 14 46.5 11t42.5 -27
q13 -21 6 -44t-30 -38q-27 -19 -71 -30.5t-110 -38.5z" />
    <glyph glyph-name="ohungarumlaut" unicode="&#x151;" horiz-adv-x="543" 
d="M340 512q-20 0 -44.5 -28t-48.5 -75t-44 -105t-32 -119t-12 -117q0 -34 6.5 -48t20.5 -14q19 0 43 26.5t47.5 72t43.5 103t32.5 119.5t12.5 121q0 40 -7 52t-18 12zM9 153q0 59 20 124.5t62 123.5t105 94.5t149 36.5q82 0 126 -43t44 -124q0 -59 -20 -124.5t-62 -123.5
t-105 -94.5t-149 -36.5q-82 0 -126 43t-44 124zM238 606q23 49 33.5 84.5t19 61t20.5 42.5q17 22 43 25t48 -14q19 -16 20.5 -40t-16.5 -45q-20 -26 -58 -49t-98 -73zM417 606q22 49 33 84.5t19.5 61t20.5 42.5q17 22 43 25t48 -14q19 -16 20.5 -40t-16.5 -45
q-20 -26 -58 -49t-98 -73z" />
    <glyph glyph-name="OE" unicode="&#x152;" horiz-adv-x="1007" 
d="M611 346l4 20h212l-4 -20h-212zM756 366q45 0 66 34.5t37 77.5h22q-13 -39 -19.5 -64.5t-14.5 -57.5q-6 -22 -11.5 -47t-14.5 -75h-22q0 23 4 48t-4.5 43.5t-46.5 20.5zM339 4q34 0 57.5 12.5t32.5 48.5l143 537q11 41 6 63t-23.5 30.5t-51.5 8.5q-55 0 -103.5 -42
t-86.5 -113t-59.5 -158.5t-21.5 -177.5q0 -98 28.5 -153.5t78.5 -55.5zM985 528q16 89 -2.5 123t-78.5 34h-51q-33 0 -51.5 -5.5t-28.5 -23t-20 -54.5l-132 -496q-14 -55 -3 -69t60 -14h61q48 0 79.5 17t54.5 55.5t45 104.5h22q-5 -13 -10.5 -32t-10.5 -40q-5 -19 -13 -54.5
t-13 -73.5q-51 2 -113 2.5t-111 0.5h-65h-90.5t-90.5 -1q-24 -7 -51 -11.5t-55 -4.5q-130 0 -204.5 62.5t-74.5 177.5q0 66 21.5 136t61 134t96 115t128 81t154.5 30q25 0 48 -4.5t43 -12.5h96.5h97.5h71q45 0 101 0.5t102 2.5q-13 -35 -22 -61t-16 -57q-5 -18 -8.5 -34
t-4.5 -28h-22z" />
    <glyph glyph-name="oe" unicode="&#x153;" horiz-adv-x="796" 
d="M459 213q39 15 75.5 35.5t63.5 46.5q38 36 59.5 85t21.5 104q0 29 -20 29q-26 0 -56.5 -34t-58.5 -88.5t-45.5 -118.5t-17.5 -123q0 -57 22.5 -77t58.5 -20q23 0 62.5 16.5t79.5 59.5l16 -8q-21 -33 -56 -64t-82 -50.5t-104 -19.5q-68 0 -116.5 35.5t-48.5 105.5
q0 56 18 113t50.5 109.5t78 93.5t101.5 65t120 24q50 0 84 -21t34 -65q0 -38 -21 -71.5t-56.5 -60.5t-80 -49t-91.5 -38t-92 -25zM458 435q-3 17 -12 28.5t-22 17t-29 5.5q-40 0 -80.5 -29.5t-73 -79.5t-52.5 -112t-20 -127q0 -48 16 -69.5t45 -21.5q23 0 50 15.5t48 47.5
l10 -10q-18 -33 -44.5 -59t-58 -40.5t-69.5 -14.5q-77 0 -120 43t-43 124q0 58 26 123.5t74 123t116 94t152 36.5q43 0 71.5 -22.5t31.5 -66.5z" />
    <glyph glyph-name="Racute" unicode="&#x154;" horiz-adv-x="726" 
d="M293 355q21 -1 37 -2t28.5 -2.5t25.5 -2.5q64 -4 114.5 -15.5t77.5 -40t18 -83.5l-15 -104q-4 -32 3.5 -49t27.5 -17t34.5 17.5t26.5 50.5l5 14h23l-4 -13q-19 -63 -58 -92.5t-106 -29.5q-76 0 -108 34t-23 89l16 114q6 38 -1 64t-35.5 40t-88.5 14zM275 342l5 16h29
q56 0 104.5 25t79 76t30.5 127q0 53 -20.5 77.5t-60.5 24.5q-25 0 -38.5 -12t-22.5 -47l-138 -523q-8 -30 -9.5 -48t13.5 -27t54 -11l-4 -20q-32 2 -75 2.5t-92 0.5q-50 0 -98.5 -0.5t-76.5 -2.5l4 20q34 2 53 8t30 24t20 54l131 496q8 30 8.5 48.5t-14 27t-52.5 10.5l5 20
q19 -1 47 -1.5t58.5 -1t55.5 -0.5q49 0 84 1t67 1q129 0 190.5 -32.5t61.5 -106.5q0 -69 -49 -119.5t-136 -78t-204 -27.5zM412 784q49 41 80 73t55.5 56t52.5 38q23 13 53.5 11.5t46.5 -30.5q13 -26 -1 -48t-42 -37q-38 -21 -94.5 -32.5t-143.5 -42.5z" />
    <glyph glyph-name="racute" unicode="&#x155;" horiz-adv-x="484" 
d="M168 0h-159l122 433q7 25 4.5 35.5t-14.5 10.5q-17 0 -31 -15.5t-29 -55.5l-21 -56h-19l28 77q20 57 57.5 80t85.5 23q45 0 64 -21.5t20.5 -54t-6.5 -64.5zM424 511q-20 0 -42 -9t-46 -37t-50.5 -82.5t-55.5 -145t-60 -225.5l22 138q31 113 56.5 186.5t51 117t55.5 61
t69 17.5q43 0 66 -25.5t23 -63.5q0 -46 -29.5 -80t-74.5 -34q-33 0 -50.5 17t-17.5 50q0 40 28.5 72t67.5 40l-6 2t-7 1zM261 609q36 53 56.5 92.5t37 69t39.5 51.5q19 20 48.5 26.5t51.5 -16.5q21 -19 14.5 -44t-30.5 -49q-20 -21 -49 -39t-68.5 -41.5t-89.5 -59.5z" />
    <glyph glyph-name="uni0156" unicode="&#x156;" horiz-adv-x="726" 
d="M293 355q21 -1 37 -2t28.5 -2.5t25.5 -2.5q64 -4 114.5 -15.5t77.5 -40t18 -83.5l-15 -104q-4 -32 3.5 -49t27.5 -17t34.5 17.5t26.5 50.5l5 14h23l-4 -13q-19 -63 -58 -92.5t-106 -29.5q-76 0 -108 34t-23 89l16 114q6 38 -1 64t-35.5 40t-88.5 14zM275 342l5 16h29
q56 0 104.5 25t79 76t30.5 127q0 53 -20.5 77.5t-60.5 24.5q-25 0 -38.5 -12t-22.5 -47l-138 -523q-8 -30 -9.5 -48t13.5 -27t54 -11l-4 -20q-32 2 -75 2.5t-92 0.5q-50 0 -98.5 -0.5t-76.5 -2.5l4 20q34 2 53 8t30 24t20 54l131 496q8 30 8.5 48.5t-14 27t-52.5 10.5l5 20
q19 -1 47 -1.5t58.5 -1t55.5 -0.5q49 0 84 1t67 1q129 0 190.5 -32.5t61.5 -106.5q0 -69 -49 -119.5t-136 -78t-204 -27.5zM315 -47q27 0 50 -15t23 -48q0 -55 -41 -90t-110 -41l-1 20q42 2 72 17t36 39q-12 -8 -27.5 -12.5t-34.5 -4.5q-31 0 -48 12.5t-17 37.5
q0 38 29 61.5t69 23.5z" />
    <glyph glyph-name="uni0157" unicode="&#x157;" horiz-adv-x="484" 
d="M168 0h-159l122 433q7 25 4.5 35.5t-14.5 10.5q-17 0 -31 -15.5t-29 -55.5l-21 -56h-19l28 77q20 57 57.5 80t85.5 23q45 0 64 -21.5t20.5 -54t-6.5 -64.5zM424 511q-20 0 -42 -9t-46 -37t-50.5 -82.5t-55.5 -145t-60 -225.5l22 138q31 113 56.5 186.5t51 117t55.5 61
t69 17.5q43 0 66 -25.5t23 -63.5q0 -46 -29.5 -80t-74.5 -34q-33 0 -50.5 17t-17.5 50q0 40 28.5 72t67.5 40l-6 2t-7 1zM70 -47q27 0 50 -15t23 -48q0 -55 -41 -90t-110 -41l-1 20q42 2 72 17t36 39q-12 -8 -27.5 -12.5t-34.5 -4.5q-31 0 -48 12.5t-17 37.5q0 38 29 61.5
t69 23.5z" />
    <glyph glyph-name="Rcaron" unicode="&#x158;" horiz-adv-x="726" 
d="M293 355q21 -1 37 -2t28.5 -2.5t25.5 -2.5q64 -4 114.5 -15.5t77.5 -40t18 -83.5l-15 -104q-4 -32 3.5 -49t27.5 -17t34.5 17.5t26.5 50.5l5 14h23l-4 -13q-19 -63 -58 -92.5t-106 -29.5q-76 0 -108 34t-23 89l16 114q6 38 -1 64t-35.5 40t-88.5 14zM275 342l5 16h29
q56 0 104.5 25t79 76t30.5 127q0 53 -20.5 77.5t-60.5 24.5q-25 0 -38.5 -12t-22.5 -47l-138 -523q-8 -30 -9.5 -48t13.5 -27t54 -11l-4 -20q-32 2 -75 2.5t-92 0.5q-50 0 -98.5 -0.5t-76.5 -2.5l4 20q34 2 53 8t30 24t20 54l131 496q8 30 8.5 48.5t-14 27t-52.5 10.5l5 20
q19 -1 47 -1.5t58.5 -1t55.5 -0.5q49 0 84 1t67 1q129 0 190.5 -32.5t61.5 -106.5q0 -69 -49 -119.5t-136 -78t-204 -27.5zM501 885q45 16 102 31t119 26l5 -14q-87 -27 -162.5 -71.5t-120.5 -92.5h-18q-20 56 -51 95t-88 69l4 14q74 -13 120.5 -26.5t89.5 -30.5z" />
    <glyph glyph-name="rcaron" unicode="&#x159;" horiz-adv-x="484" 
d="M168 0h-159l122 433q7 25 4.5 35.5t-14.5 10.5q-17 0 -31 -15.5t-29 -55.5l-21 -56h-19l28 77q20 57 57.5 80t85.5 23q45 0 64 -21.5t20.5 -54t-6.5 -64.5zM424 511q-20 0 -42 -9t-46 -37t-50.5 -82.5t-55.5 -145t-60 -225.5l22 138q31 113 56.5 186.5t51 117t55.5 61
t69 17.5q43 0 66 -25.5t23 -63.5q0 -46 -29.5 -80t-74.5 -34q-33 0 -50.5 17t-17.5 50q0 40 28.5 72t67.5 40l-6 2t-7 1zM381 762q37 18 84 35t99 29l5 -14q-77 -33 -142.5 -88.5t-104.5 -115.5h-18q-15 72 -41.5 120t-77.5 84l4 14q66 -13 109.5 -28.5t82.5 -35.5z" />
    <glyph glyph-name="Sacute" unicode="&#x15a;" horiz-adv-x="598" 
d="M634 715q-10 -26 -26.5 -75.5t-32.5 -128.5h-20q6 29 6 55q0 60 -37 95.5t-106 35.5q-47 0 -81 -24t-34 -79q0 -42 23.5 -81t57.5 -76.5t68 -76t57 -81.5t23 -92q0 -55 -27.5 -93t-71 -62t-92.5 -35t-92 -11q-50 0 -81.5 5.5t-54.5 16t-48 24.5q-10 7 -19 11t-15 4
q-13 0 -21 -11.5t-22 -42.5h-20q14 32 30 84t38 156h20q-4 -16 -7 -38t-2 -41q3 -72 45.5 -109t117.5 -37q69 0 96 27.5t27 71.5q0 51 -21 92t-51.5 78.5t-61 74t-52 77.5t-21.5 92q0 52 23.5 89.5t62 62.5t83 37t86.5 12q65 0 104.5 -16t62.5 -29q9 -5 18.5 -10t14.5 -5
q14 0 33 53h20zM390 784q49 41 80 73t55.5 56t52.5 38q23 13 53.5 11.5t46.5 -30.5q13 -26 -1 -48t-42 -37q-38 -21 -94.5 -32.5t-143.5 -42.5z" />
    <glyph glyph-name="sacute" unicode="&#x15b;" horiz-adv-x="433" 
d="M79 14q8 -4 16.5 -5.5t20.5 -1.5q34 0 56 21.5t22 59.5q0 34 -15 69.5t-42 76.5q-24 37 -42.5 71.5t-18.5 77.5q0 64 49 106.5t141 42.5q40 0 77 -9.5t61 -32.5t24 -67q0 -28 -16 -55t-50 -27q-27 0 -43 21t-16 55q0 29 10 52t21 36q-10 6 -30 6q-35 0 -54 -21t-20 -61
q-1 -34 18 -65t41 -68q32 -53 46 -88.5t14 -70.5q0 -42 -22.5 -76t-66 -54.5t-105.5 -20.5q-45 0 -85 11t-65 38t-25 73q0 33 16.5 56.5t45.5 23.5q28 0 44.5 -23t16.5 -60q0 -28 -9 -52.5t-15 -38.5zM245 609q36 53 56.5 92.5t37 69t39.5 51.5q19 20 48.5 26.5t51.5 -16.5
q21 -19 14.5 -44t-30.5 -49q-20 -21 -49 -39t-68.5 -41.5t-89.5 -59.5z" />
    <glyph glyph-name="Scircumflex" unicode="&#x15c;" horiz-adv-x="598" 
d="M634 715q-10 -26 -26.5 -75.5t-32.5 -128.5h-20q6 29 6 55q0 60 -37 95.5t-106 35.5q-47 0 -81 -24t-34 -79q0 -42 23.5 -81t57.5 -76.5t68 -76t57 -81.5t23 -92q0 -55 -27.5 -93t-71 -62t-92.5 -35t-92 -11q-50 0 -81.5 5.5t-54.5 16t-48 24.5q-10 7 -19 11t-15 4
q-13 0 -21 -11.5t-22 -42.5h-20q14 32 30 84t38 156h20q-4 -16 -7 -38t-2 -41q3 -72 45.5 -109t117.5 -37q69 0 96 27.5t27 71.5q0 51 -21 92t-51.5 78.5t-61 74t-52 77.5t-21.5 92q0 52 23.5 89.5t62 62.5t83 37t86.5 12q65 0 104.5 -16t62.5 -29q9 -5 18.5 -10t14.5 -5
q14 0 33 53h20zM409 827q-44 -16 -101.5 -30.5t-119.5 -26.5l-5 14q88 28 163 72t120 92h18q21 -55 51.5 -94.5t87.5 -69.5l-4 -14q-73 13 -120 27t-90 30z" />
    <glyph glyph-name="scircumflex" unicode="&#x15d;" horiz-adv-x="433" 
d="M79 14q8 -4 16.5 -5.5t20.5 -1.5q34 0 56 21.5t22 59.5q0 34 -15 69.5t-42 76.5q-24 37 -42.5 71.5t-18.5 77.5q0 64 49 106.5t141 42.5q40 0 77 -9.5t61 -32.5t24 -67q0 -28 -16 -55t-50 -27q-27 0 -43 21t-16 55q0 29 10 52t21 36q-10 6 -30 6q-35 0 -54 -21t-20 -61
q-1 -34 18 -65t41 -68q32 -53 46 -88.5t14 -70.5q0 -42 -22.5 -76t-66 -54.5t-105.5 -20.5q-45 0 -85 11t-65 38t-25 73q0 33 16.5 56.5t45.5 23.5q28 0 44.5 -23t16.5 -60q0 -28 -9 -52.5t-15 -38.5zM290 672q-37 -18 -84.5 -34.5t-98.5 -29.5l-5 14q76 34 141.5 89
t105.5 115h18q15 -71 41.5 -119.5t77.5 -84.5l-4 -14q-66 13 -110 28.5t-82 35.5z" />
    <glyph glyph-name="Scedilla" unicode="&#x15e;" horiz-adv-x="598" 
d="M634 715q-10 -26 -26.5 -75.5t-32.5 -128.5h-20q6 29 6 55q0 60 -37 95.5t-106 35.5q-47 0 -81 -24t-34 -79q0 -42 23.5 -81t57.5 -76.5t68 -76t57 -81.5t23 -92q0 -55 -27.5 -93t-71 -62t-92.5 -35t-92 -11q-50 0 -81.5 5.5t-54.5 16t-48 24.5q-10 7 -19 11t-15 4
q-13 0 -21 -11.5t-22 -42.5h-20q14 32 30 84t38 156h20q-4 -16 -7 -38t-2 -41q3 -72 45.5 -109t117.5 -37q69 0 96 27.5t27 71.5q0 51 -21 92t-51.5 78.5t-61 74t-52 77.5t-21.5 92q0 52 23.5 89.5t62 62.5t83 37t86.5 12q65 0 104.5 -16t62.5 -29q9 -5 18.5 -10t14.5 -5
q14 0 33 53h20zM249 6l-29 -66q29 11 59 11q33 0 53 -12t20 -38q0 -33 -27 -52t-67 -28t-82 -9q-37 0 -67.5 6.5t-45.5 12.5l7 16q8 -3 32 -7t48 -4q16 0 36 3.5t35 12.5t15 28q0 23 -30 23q-5 0 -14.5 -1.5t-18.5 -5.5l49 110h27z" />
    <glyph glyph-name="scedilla" unicode="&#x15f;" horiz-adv-x="433" 
d="M79 14q8 -4 16.5 -5.5t20.5 -1.5q34 0 56 21.5t22 59.5q0 34 -15 69.5t-42 76.5q-24 37 -42.5 71.5t-18.5 77.5q0 64 49 106.5t141 42.5q40 0 77 -9.5t61 -32.5t24 -67q0 -28 -16 -55t-50 -27q-27 0 -43 21t-16 55q0 29 10 52t21 36q-10 6 -30 6q-35 0 -54 -21t-20 -61
q-1 -34 18 -65t41 -68q32 -53 46 -88.5t14 -70.5q0 -42 -22.5 -76t-66 -54.5t-105.5 -20.5q-45 0 -85 11t-65 38t-25 73q0 33 16.5 56.5t45.5 23.5q28 0 44.5 -23t16.5 -60q0 -28 -9 -52.5t-15 -38.5zM152 0l-46 -68q12 5 27.5 8t29.5 3q28 0 47.5 -10t19.5 -32
q0 -33 -27 -52t-68 -28t-83 -9q-32 0 -56.5 6.5t-36.5 12.5l7 16q7 -3 23 -7t37 -4q12 0 31 3.5t34 12.5t15 28q0 23 -28 23q-5 0 -14 -1.5t-17 -5.5l77 104h28z" />
    <glyph glyph-name="Scaron" unicode="&#x160;" horiz-adv-x="598" 
d="M634 715q-10 -26 -26.5 -75.5t-32.5 -128.5h-20q6 29 6 55q0 60 -37 95.5t-106 35.5q-47 0 -81 -24t-34 -79q0 -42 23.5 -81t57.5 -76.5t68 -76t57 -81.5t23 -92q0 -55 -27.5 -93t-71 -62t-92.5 -35t-92 -11q-50 0 -81.5 5.5t-54.5 16t-48 24.5q-10 7 -19 11t-15 4
q-13 0 -21 -11.5t-22 -42.5h-20q14 32 30 84t38 156h20q-4 -16 -7 -38t-2 -41q3 -72 45.5 -109t117.5 -37q69 0 96 27.5t27 71.5q0 51 -21 92t-51.5 78.5t-61 74t-52 77.5t-21.5 92q0 52 23.5 89.5t62 62.5t83 37t86.5 12q65 0 104.5 -16t62.5 -29q9 -5 18.5 -10t14.5 -5
q14 0 33 53h20zM479 885q45 16 102 31t119 26l5 -14q-87 -27 -162.5 -71.5t-120.5 -92.5h-18q-20 56 -51 95t-88 69l4 14q74 -13 120.5 -26.5t89.5 -30.5z" />
    <glyph glyph-name="scaron" unicode="&#x161;" horiz-adv-x="433" 
d="M79 14q8 -4 16.5 -5.5t20.5 -1.5q34 0 56 21.5t22 59.5q0 34 -15 69.5t-42 76.5q-24 37 -42.5 71.5t-18.5 77.5q0 64 49 106.5t141 42.5q40 0 77 -9.5t61 -32.5t24 -67q0 -28 -16 -55t-50 -27q-27 0 -43 21t-16 55q0 29 10 52t21 36q-10 6 -30 6q-35 0 -54 -21t-20 -61
q-1 -34 18 -65t41 -68q32 -53 46 -88.5t14 -70.5q0 -42 -22.5 -76t-66 -54.5t-105.5 -20.5q-45 0 -85 11t-65 38t-25 73q0 33 16.5 56.5t45.5 23.5q28 0 44.5 -23t16.5 -60q0 -28 -9 -52.5t-15 -38.5zM365 762q37 18 84 35t99 29l5 -14q-77 -33 -142.5 -88.5t-104.5 -115.5
h-18q-15 72 -41.5 120t-77.5 84l4 14q66 -13 109.5 -28.5t82.5 -35.5z" />
    <glyph glyph-name="uni0162" unicode="&#x162;" horiz-adv-x="688" 
d="M786 872q40 0 63.5 -24t23.5 -54q0 -34 -20 -60t-57 -42q-31 -13 -73.5 -20.5t-96.5 -7.5q-45 0 -105 5.5t-121 11t-111 5.5q-35 0 -65 -4t-48 -13q32 -6 53.5 -29.5t21.5 -59.5q0 -39 -25 -65.5t-63 -26.5q-39 0 -60 26.5t-21 61.5q0 25 14.5 54.5t54.5 49.5
q24 12 49.5 17t48.5 6t36 1q63 0 124 -5t118.5 -10t108.5 -5q37 0 62 3.5t45 9.5l-2 -9q-17 14 -30.5 37.5t-13.5 55.5q0 41 24.5 66t64.5 25zM408 688l18 -1.5t44.5 -3.5t52.5 -4t44 -3.5l18 -1.5l-148 -558q-14 -53 1 -72.5t74 -23.5l-4 -20q-33 2 -86 2.5t-111 0.5
q-55 0 -105 -0.5t-81 -2.5l4 20q42 2 66.5 10.5t38 29t22.5 56.5zM328 6l-29 -66q29 11 59 11q33 0 53 -12t20 -38q0 -33 -27 -52t-67 -28t-82 -9q-37 0 -67.5 6.5t-45.5 12.5l7 16q8 -3 32 -7t48 -4q16 0 36 3.5t35 12.5t15 28q0 23 -30 23q-5 0 -14.5 -1.5t-18.5 -5.5
l49 110h27z" />
    <glyph glyph-name="uni0163" unicode="&#x163;" horiz-adv-x="359" 
d="M411 518l-3 -20h-359l5 20h357zM179 85q-7 -23 0 -34.5t22 -11.5q20 0 40.5 21.5t34.5 59.5l16 42h19l-19 -57q-20 -58 -59.5 -88.5t-95.5 -30.5q-73 0 -94.5 48.5t-2.5 117.5l148 514q49 1 88 4t76 10zM128 0l-46 -68q12 5 27.5 8t29.5 3q28 0 47.5 -10t19.5 -32
q0 -33 -27 -52t-68 -28t-83 -9q-32 0 -56.5 6.5t-36.5 12.5l7 16q7 -3 23 -7t37 -4q12 0 31 3.5t34 12.5t15 28q0 23 -28 23q-5 0 -14 -1.5t-17 -5.5l77 104h28z" />
    <glyph glyph-name="Tcaron" unicode="&#x164;" horiz-adv-x="688" 
d="M786 872q40 0 63.5 -24t23.5 -54q0 -34 -20 -60t-57 -42q-31 -13 -73.5 -20.5t-96.5 -7.5q-45 0 -105 5.5t-121 11t-111 5.5q-35 0 -65 -4t-48 -13q32 -6 53.5 -29.5t21.5 -59.5q0 -39 -25 -65.5t-63 -26.5q-39 0 -60 26.5t-21 61.5q0 25 14.5 54.5t54.5 49.5
q24 12 49.5 17t48.5 6t36 1q63 0 124 -5t118.5 -10t108.5 -5q37 0 62 3.5t45 9.5l-2 -9q-17 14 -30.5 37.5t-13.5 55.5q0 41 24.5 66t64.5 25zM408 688l18 -1.5t44.5 -3.5t52.5 -4t44 -3.5l18 -1.5l-148 -558q-14 -53 1 -72.5t74 -23.5l-4 -20q-33 2 -86 2.5t-111 0.5
q-55 0 -105 -0.5t-81 -2.5l4 20q42 2 66.5 10.5t38 29t22.5 56.5zM559 885q45 16 102 31t119 26l5 -14q-87 -27 -162.5 -71.5t-120.5 -92.5h-18q-20 56 -51 95t-88 69l4 14q74 -13 120.5 -26.5t89.5 -30.5z" />
    <glyph glyph-name="tcaron" unicode="&#x165;" horiz-adv-x="359" 
d="M411 518l-3 -20h-359l5 20h357zM179 85q-7 -23 0 -34.5t22 -11.5q20 0 40.5 21.5t34.5 59.5l16 42h19l-19 -57q-20 -58 -59.5 -88.5t-95.5 -30.5q-73 0 -94.5 48.5t-2.5 117.5l148 514q49 1 88 4t76 10zM370 560q34 74 47.5 124t13.5 69t-13 19l3 21q9 0 16 -0.5t14 -0.5
q36 0 60.5 4t43.5 8q1 -2 1 -11q0 -38 -46 -101t-126 -136z" />
    <glyph glyph-name="Tbar" unicode="&#x166;" horiz-adv-x="688" 
d="M786 872q40 0 63.5 -24t23.5 -54q0 -34 -20 -60t-57 -42q-31 -13 -73.5 -20.5t-96.5 -7.5q-45 0 -105 5.5t-121 11t-111 5.5q-35 0 -65 -4t-48 -13q32 -6 53.5 -29.5t21.5 -59.5q0 -39 -25 -65.5t-63 -26.5q-39 0 -60 26.5t-21 61.5q0 25 14.5 54.5t54.5 49.5
q24 12 49.5 17t48.5 6t36 1q63 0 124 -5t118.5 -10t108.5 -5q37 0 62 3.5t45 9.5l-2 -9q-17 14 -30.5 37.5t-13.5 55.5q0 41 24.5 66t64.5 25zM408 688l18 -1.5t44.5 -3.5t52.5 -4t44 -3.5l18 -1.5l-148 -558q-14 -53 1 -72.5t74 -23.5l-4 -20q-33 2 -86 2.5t-111 0.5
q-55 0 -105 -0.5t-81 -2.5l4 20q42 2 66.5 10.5t38 29t22.5 56.5zM617 366l-6 -25h-428l6 25h428z" />
    <glyph glyph-name="tbar" unicode="&#x167;" horiz-adv-x="359" 
d="M389 421l-3 -20h-358l5 20h356zM411 518l-3 -20h-359l5 20h357zM179 85q-7 -23 0 -34.5t22 -11.5q20 0 40.5 21.5t34.5 59.5l16 42h19l-19 -57q-20 -58 -59.5 -88.5t-95.5 -30.5q-73 0 -94.5 48.5t-2.5 117.5l148 514q49 1 88 4t76 10z" />
    <glyph glyph-name="Utilde" unicode="&#x168;" horiz-adv-x="698" 
d="M647 528q16 61 18 93.5t-15.5 47t-60.5 19.5l6 20q19 -1 50 -2t59 -1q23 0 46 1t40 2l-6 -20q-33 -5 -52 -19t-32 -43t-27 -82l-65 -253q-36 -138 -98 -212q-36 -42 -89.5 -67.5t-115.5 -25.5q-83 0 -134 24t-75 63q-23 38 -23 89.5t20 125.5l83 314q14 55 2.5 69.5
t-61.5 16.5l6 20q27 -1 75 -2t102 -1q47 0 89.5 1t75.5 2l-6 -20q-34 -1 -53 -7.5t-29.5 -24t-20.5 -54.5l-88 -331q-23 -86 -24 -141.5t19 -82t61 -26.5q75 0 125 33.5t82 92.5t51 133zM465 937q38 0 63.5 -11t44.5 -25.5t39 -25.5t49 -11q22 0 41.5 13.5t37.5 44.5l18 -5
q-30 -80 -79 -115.5t-99 -35.5q-38 0 -63 11t-44.5 25.5t-39.5 25.5t-48 11q-22 0 -41 -13t-39 -45l-18 5q31 81 80 116t98 35z" />
    <glyph glyph-name="utilde" unicode="&#x169;" horiz-adv-x="607" 
d="M392 352q-38 -113 -72 -185t-66.5 -111t-66.5 -54.5t-74 -15.5q-62 0 -82.5 39t4.5 112l97 296q10 29 3 37.5t-16 8.5q-11 0 -26 -12.5t-32 -58.5l-19 -52h-19l25 73q22 63 61 83t77 20q45 0 69.5 -19t28.5 -55.5t-14 -91.5l-88 -264q-20 -60 6 -60q22 0 52 40t62.5 107
t63 150t53.5 169zM458 85q-7 -24 -5.5 -35t15.5 -11q16 0 30.5 15.5t29.5 55.5l21 56h19l-28 -77q-20 -57 -58 -80t-80 -23q-32 0 -52 10t-30 27q-11 19 -10 45.5t9 57.5l102 392q46 1 87 4t76 10zM341 792q30 0 49.5 -11t34.5 -25.5t30.5 -25.5t36.5 -11q20 0 37.5 13.5
t34.5 44.5l18 -5q-28 -81 -73 -116t-89 -35q-30 0 -49.5 11t-34.5 25.5t-30.5 25.5t-37.5 11q-19 0 -36.5 -13t-34.5 -45l-18 5q27 81 72 116t90 35z" />
    <glyph glyph-name="Umacron" unicode="&#x16a;" horiz-adv-x="698" 
d="M647 528q16 61 18 93.5t-15.5 47t-60.5 19.5l6 20q19 -1 50 -2t59 -1q23 0 46 1t40 2l-6 -20q-33 -5 -52 -19t-32 -43t-27 -82l-65 -253q-36 -138 -98 -212q-36 -42 -89.5 -67.5t-115.5 -25.5q-83 0 -134 24t-75 63q-23 38 -23 89.5t20 125.5l83 314q14 55 2.5 69.5
t-61.5 16.5l6 20q27 -1 75 -2t102 -1q47 0 89.5 1t75.5 2l-6 -20q-34 -1 -53 -7.5t-29.5 -24t-20.5 -54.5l-88 -331q-23 -86 -24 -141.5t19 -82t61 -26.5q75 0 125 33.5t82 92.5t51 133zM708 844l-6 -25h-416l6 25h416z" />
    <glyph glyph-name="umacron" unicode="&#x16b;" horiz-adv-x="607" 
d="M392 352q-38 -113 -72 -185t-66.5 -111t-66.5 -54.5t-74 -15.5q-62 0 -82.5 39t4.5 112l97 296q10 29 3 37.5t-16 8.5q-11 0 -26 -12.5t-32 -58.5l-19 -52h-19l25 73q22 63 61 83t77 20q45 0 69.5 -19t28.5 -55.5t-14 -91.5l-88 -264q-20 -60 6 -60q22 0 52 40t62.5 107
t63 150t53.5 169zM458 85q-7 -24 -5.5 -35t15.5 -11q16 0 30.5 15.5t29.5 55.5l21 56h19l-28 -77q-20 -57 -58 -80t-80 -23q-32 0 -52 10t-30 27q-11 19 -10 45.5t9 57.5l102 392q46 1 87 4t76 10zM554 712l-6 -25h-344l6 25h344z" />
    <glyph glyph-name="Ubreve" unicode="&#x16c;" horiz-adv-x="698" 
d="M647 528q16 61 18 93.5t-15.5 47t-60.5 19.5l6 20q19 -1 50 -2t59 -1q23 0 46 1t40 2l-6 -20q-33 -5 -52 -19t-32 -43t-27 -82l-65 -253q-36 -138 -98 -212q-36 -42 -89.5 -67.5t-115.5 -25.5q-83 0 -134 24t-75 63q-23 38 -23 89.5t20 125.5l83 314q14 55 2.5 69.5
t-61.5 16.5l6 20q27 -1 75 -2t102 -1q47 0 89.5 1t75.5 2l-6 -20q-34 -1 -53 -7.5t-29.5 -24t-20.5 -54.5l-88 -331q-23 -86 -24 -141.5t19 -82t61 -26.5q75 0 125 33.5t82 92.5t51 133zM514 875q69 0 126 14.5t105 42.5l12 -10q-26 -39 -68 -75t-92 -58t-103 -22
q-71 0 -110 45t-51 108l15 8q30 -27 68.5 -40t97.5 -13z" />
    <glyph glyph-name="ubreve" unicode="&#x16d;" horiz-adv-x="607" 
d="M392 352q-38 -113 -72 -185t-66.5 -111t-66.5 -54.5t-74 -15.5q-62 0 -82.5 39t4.5 112l97 296q10 29 3 37.5t-16 8.5q-11 0 -26 -12.5t-32 -58.5l-19 -52h-19l25 73q22 63 61 83t77 20q45 0 69.5 -19t28.5 -55.5t-14 -91.5l-88 -264q-20 -60 6 -60q22 0 52 40t62.5 107
t63 150t53.5 169zM458 85q-7 -24 -5.5 -35t15.5 -11q16 0 30.5 15.5t29.5 55.5l21 56h19l-28 -77q-20 -57 -58 -80t-80 -23q-32 0 -52 10t-30 27q-11 19 -10 45.5t9 57.5l102 392q46 1 87 4t76 10zM380 726q55 0 106.5 15.5t94.5 46.5l12 -9q-23 -41 -60.5 -78.5t-83 -60.5
t-92.5 -23q-55 0 -85 47t-39 113l15 7q23 -30 52 -44t80 -14z" />
    <glyph glyph-name="Uring" unicode="&#x16e;" horiz-adv-x="698" 
d="M647 528q16 61 18 93.5t-15.5 47t-60.5 19.5l6 20q19 -1 50 -2t59 -1q23 0 46 1t40 2l-6 -20q-33 -5 -52 -19t-32 -43t-27 -82l-65 -253q-36 -138 -98 -212q-36 -42 -89.5 -67.5t-115.5 -25.5q-83 0 -134 24t-75 63q-23 38 -23 89.5t20 125.5l83 314q14 55 2.5 69.5
t-61.5 16.5l6 20q27 -1 75 -2t102 -1q47 0 89.5 1t75.5 2l-6 -20q-34 -1 -53 -7.5t-29.5 -24t-20.5 -54.5l-88 -331q-23 -86 -24 -141.5t19 -82t61 -26.5q75 0 125 33.5t82 92.5t51 133zM523 941q43 0 72.5 -23.5t29.5 -63.5q0 -31 -18 -56.5t-47.5 -40.5t-63.5 -15
q-42 0 -70 23.5t-28 64.5q0 47 36 79t89 32zM501 763q37 0 67.5 26t30.5 63q0 35 -26 51.5t-54 16.5q-38 0 -66.5 -27t-28.5 -63q0 -33 24 -50t53 -17z" />
    <glyph glyph-name="uring" unicode="&#x16f;" horiz-adv-x="607" 
d="M392 352q-38 -113 -72 -185t-66.5 -111t-66.5 -54.5t-74 -15.5q-62 0 -82.5 39t4.5 112l97 296q10 29 3 37.5t-16 8.5q-11 0 -26 -12.5t-32 -58.5l-19 -52h-19l25 73q22 63 61 83t77 20q45 0 69.5 -19t28.5 -55.5t-14 -91.5l-88 -264q-20 -60 6 -60q22 0 52 40t62.5 107
t63 150t53.5 169zM458 85q-7 -24 -5.5 -35t15.5 -11q16 0 30.5 15.5t29.5 55.5l21 56h19l-28 -77q-20 -57 -58 -80t-80 -23q-32 0 -52 10t-30 27q-11 19 -10 45.5t9 57.5l102 392q46 1 87 4t76 10zM398 799q43 0 72.5 -23.5t29.5 -63.5q0 -31 -18 -56.5t-47.5 -40.5
t-63.5 -15q-41 0 -69.5 23.5t-28.5 64.5q0 47 36.5 79t88.5 32zM376 621q38 0 68 26t30 63q0 35 -25.5 51.5t-53.5 16.5q-38 0 -66.5 -27.5t-28.5 -62.5q0 -33 24 -50t52 -17z" />
    <glyph glyph-name="Uhungarumlaut" unicode="&#x170;" horiz-adv-x="698" 
d="M647 528q16 61 18 93.5t-15.5 47t-60.5 19.5l6 20q19 -1 50 -2t59 -1q23 0 46 1t40 2l-6 -20q-33 -5 -52 -19t-32 -43t-27 -82l-65 -253q-36 -138 -98 -212q-36 -42 -89.5 -67.5t-115.5 -25.5q-83 0 -134 24t-75 63q-23 38 -23 89.5t20 125.5l83 314q14 55 2.5 69.5
t-61.5 16.5l6 20q27 -1 75 -2t102 -1q47 0 89.5 1t75.5 2l-6 -20q-34 -1 -53 -7.5t-29.5 -24t-20.5 -54.5l-88 -331q-23 -86 -24 -141.5t19 -82t61 -26.5q75 0 125 33.5t82 92.5t51 133zM545 782q33 39 53.5 69t36.5 52t35 36t46 11t43 -27q15 -21 7 -44t-31 -38
q-27 -19 -71 -30.5t-110 -38.5zM326 782q33 39 53.5 69t36.5 52t35 36q20 14 46.5 11t42.5 -27q13 -21 6 -44t-30 -38q-27 -19 -71 -30.5t-110 -38.5z" />
    <glyph glyph-name="uhungarumlaut" unicode="&#x171;" horiz-adv-x="607" 
d="M392 352q-38 -113 -72 -185t-66.5 -111t-66.5 -54.5t-74 -15.5q-62 0 -82.5 39t4.5 112l97 296q10 29 3 37.5t-16 8.5q-11 0 -26 -12.5t-32 -58.5l-19 -52h-19l25 73q22 63 61 83t77 20q45 0 69.5 -19t28.5 -55.5t-14 -91.5l-88 -264q-20 -60 6 -60q22 0 52 40t62.5 107
t63 150t53.5 169zM458 85q-7 -24 -5.5 -35t15.5 -11q16 0 30.5 15.5t29.5 55.5l21 56h19l-28 -77q-20 -57 -58 -80t-80 -23q-32 0 -52 10t-30 27q-11 19 -10 45.5t9 57.5l102 392q46 1 87 4t76 10zM230 606q23 49 33.5 84.5t19 61t20.5 42.5q17 22 43 25t48 -14
q19 -16 20.5 -40t-16.5 -45q-20 -26 -58 -49t-98 -73zM409 606q22 49 33 84.5t19.5 61t20.5 42.5q17 22 43 25t48 -14q19 -16 20.5 -40t-16.5 -45q-20 -26 -58 -49t-98 -73z" />
    <glyph glyph-name="Uogonek" unicode="&#x172;" horiz-adv-x="698" 
d="M647 528q16 61 18 93.5t-15.5 47t-60.5 19.5l6 20q19 -1 50 -2t59 -1q23 0 46 1t40 2l-6 -20q-33 -5 -52 -19t-32 -43t-27 -82l-65 -253q-36 -138 -98 -212q-36 -42 -89.5 -67.5t-115.5 -25.5q-83 0 -134 24t-75 63q-23 38 -23 89.5t20 125.5l83 314q14 55 2.5 69.5
t-61.5 16.5l6 20q27 -1 75 -2t102 -1q47 0 89.5 1t75.5 2l-6 -20q-34 -1 -53 -7.5t-29.5 -24t-20.5 -54.5l-88 -331q-23 -86 -24 -141.5t19 -82t61 -26.5q75 0 125 33.5t82 92.5t51 133zM399 3q-31 -12 -54 -30.5t-35 -40t-12 -41.5q0 -29 31 -29q15 0 34.5 5.5t37.5 15.5
l11 -17q-38 -29 -75 -41.5t-76 -12.5q-40 0 -64 16t-24 44q0 32 29.5 57t76.5 43.5t98 30.5h22z" />
    <glyph glyph-name="uogonek" unicode="&#x173;" horiz-adv-x="607" 
d="M392 352q-38 -113 -72 -185t-66.5 -111t-66.5 -54.5t-74 -15.5q-62 0 -82.5 39t4.5 112l97 296q10 29 3 37.5t-16 8.5q-11 0 -26 -12.5t-32 -58.5l-19 -52h-19l25 73q22 63 61 83t77 20q45 0 69.5 -19t28.5 -55.5t-14 -91.5l-88 -264q-20 -60 6 -60q22 0 52 40t62.5 107
t63 150t53.5 169zM458 85q-7 -24 -5.5 -35t15.5 -11q16 0 30.5 15.5t29.5 55.5l21 56h19l-28 -77q-20 -57 -58 -80t-80 -23q-32 0 -52 10t-30 27q-11 19 -10 45.5t9 57.5l102 392q46 1 87 4t76 10zM469 3q-31 -12 -53.5 -30.5t-35 -40t-12.5 -43.5q0 -27 26 -27q15 0 31.5 9
t29.5 22l14 -13q-29 -35 -64.5 -51.5t-74.5 -16.5t-63 16t-24 45q0 31 29.5 56t76.5 43.5t98 30.5h22z" />
    <glyph glyph-name="Wcircumflex" unicode="&#x174;" horiz-adv-x="1008" 
d="M591 506l-310 -511h-63l-79 629q-5 37 -22 50t-31 14l5 20q27 -1 69.5 -2t84.5 -1q43 0 78 1t59 2l-5 -20q-31 -2 -43 -17t-8 -67l48 -437l-37 -39l248 404zM969 571q25 45 23.5 69.5t-24 34.5t-62.5 13l5 20q12 -1 37 -1.5t53.5 -1t46.5 -0.5q22 0 40.5 1t34.5 2l-5 -20
q-22 -6 -41.5 -16.5t-40 -32.5t-43.5 -64l-321 -580h-63l-83 629q-5 36 -18 49.5t-25 14.5l5 20q25 -1 65 -2t79 -1q51 0 94 1t71 2l-5 -20q-49 -2 -67 -17t-12 -67l51 -433l-38 -36zM647 825q-44 -16 -101.5 -30.5t-119.5 -26.5l-5 14q88 28 163 72t120 92h18
q21 -55 51.5 -94.5t87.5 -69.5l-4 -14q-73 13 -120 27t-90 30z" />
    <glyph glyph-name="wcircumflex" unicode="&#x175;" horiz-adv-x="678" 
d="M299 50q-29 -28 -69 -46t-94 -18q-68 0 -102.5 36t-34.5 89q0 47 26 91.5t73.5 90.5t111 95.5t136.5 104.5l1 -3q-33 -1 -58 -14.5t-45 -30.5t-38.5 -29.5t-39.5 -12.5q-19 0 -30.5 8.5t-25.5 8.5t-21.5 -10t-15.5 -33l-8 -24h-19l23 73q19 62 44 82t51 20q20 0 36 -6.5
t35.5 -13t50.5 -6.5q13 0 32.5 3.5t42.5 14.5l11 19l21 -10q-63 -68 -113.5 -144.5t-80 -149.5t-29.5 -132q0 -33 11 -51t38 -18q37 0 72 30zM468 58q30 0 53 16t40.5 43t28 61.5t15.5 71.5t4 73q-31 14 -64 32.5t-56 47t-23 67.5q0 22 15.5 42t48.5 20q29 0 48 -20t30 -50
t16 -63t6 -59q2 -49 -6 -99t-25.5 -95.5t-45.5 -81.5t-65.5 -57t-84.5 -21q-34 0 -66 12t-52 42t-20 83q0 46 16.5 88.5t42 76t54 52.5t52.5 19q19 0 27 -11t10.5 -26.5t2.5 -26.5q0 -63 -28 -122.5t-82 -106.5l-7 17q43 40 68.5 96t25.5 111q0 21 -4 34t-12 13
q-13 0 -26 -23.5t-21.5 -60t-8.5 -78.5q0 -33 10 -59.5t31 -42t52 -15.5zM394 672q-37 -18 -84.5 -34.5t-98.5 -29.5l-5 14q76 34 141.5 89t105.5 115h18q15 -71 41.5 -119.5t77.5 -84.5l-4 -14q-66 13 -110 28.5t-82 35.5z" />
    <glyph glyph-name="Ycircumflex" unicode="&#x176;" horiz-adv-x="755" 
d="M407 106q-13 -55 5.5 -69.5t69.5 -16.5l-5 -20q-20 1 -51.5 1.5t-68 1t-68.5 0.5q-51 0 -97.5 -0.5t-73.5 -2.5l5 20q34 2 53 8t30 24t20 54l69 274l75 -63l81 19l34 80zM723 704q-16 0 -30 -5t-32 -18q-27 -20 -65.5 -73t-78 -138.5t-71.5 -199.5l-162 -5
q-4 47 -11 98.5t-17 101t-23.5 90t-30 64t-37.5 23.5q-19 0 -29.5 -14.5t-16.5 -32.5l-19 -57h-11h-11l23 71q22 64 63.5 88.5t91.5 24.5q73 0 111 -41.5t56.5 -121t31.5 -192.5q32 95 72.5 169.5t83.5 124.5q23 26 53 43.5t66 17.5q49 0 77 -28.5t27 -68.5q0 -43 -29 -70
t-72 -27q-37 0 -58 18t-21 50q0 39 26 66.5t64 35.5q-4 3 -9 4.5t-12 1.5zM488 827q-44 -16 -101.5 -30.5t-119.5 -26.5l-5 14q88 28 163 72t120 92h18q21 -55 51.5 -94.5t87.5 -69.5l-4 -14q-73 13 -120 27t-90 30z" />
    <glyph glyph-name="ycircumflex" unicode="&#x177;" horiz-adv-x="483" 
d="M315 68l-120 -137l-82 501q-4 26 -9 35.5t-14 9.5q-11 0 -19.5 -12.5t-24.5 -56.5l-20 -52h-19l25 73q21 61 53.5 82t73.5 21q43 0 71 -23.5t37 -90.5zM70 -138q47 22 97.5 61.5t103.5 106.5q54 68 94.5 144t60.5 143q-41 23 -70 59.5t-28 80.5q0 35 19.5 55t52.5 20
q38 0 55 -25t17 -69q0 -46 -16 -101.5t-43.5 -114.5t-63 -115t-74.5 -103q-37 -45 -78.5 -80.5t-86 -61t-89.5 -39.5q-19 -6 -35.5 -8.5t-29.5 -2.5q-36 0 -56 16t-20 45q0 28 20.5 47.5t54.5 19.5t62.5 -20t52.5 -58zM307 672q-37 -18 -84.5 -34.5t-98.5 -29.5l-5 14
q76 34 141.5 89t105.5 115h18q15 -71 41.5 -119.5t77.5 -84.5l-4 -14q-66 13 -110 28.5t-82 35.5z" />
    <glyph glyph-name="Ydieresis" unicode="&#x178;" horiz-adv-x="755" 
d="M407 106q-13 -55 5.5 -69.5t69.5 -16.5l-5 -20q-20 1 -51.5 1.5t-68 1t-68.5 0.5q-51 0 -97.5 -0.5t-73.5 -2.5l5 20q34 2 53 8t30 24t20 54l69 274l75 -63l81 19l34 80zM723 704q-16 0 -30 -5t-32 -18q-27 -20 -65.5 -73t-78 -138.5t-71.5 -199.5l-162 -5
q-4 47 -11 98.5t-17 101t-23.5 90t-30 64t-37.5 23.5q-19 0 -29.5 -14.5t-16.5 -32.5l-19 -57h-11h-11l23 71q22 64 63.5 88.5t91.5 24.5q73 0 111 -41.5t56.5 -121t31.5 -192.5q32 95 72.5 169.5t83.5 124.5q23 26 53 43.5t66 17.5q49 0 77 -28.5t27 -68.5q0 -43 -29 -70
t-72 -27q-37 0 -58 18t-21 50q0 39 26 66.5t64 35.5q-4 3 -9 4.5t-12 1.5zM296 835q0 46 28.5 68.5t64.5 22.5t53 -20t17 -52q0 -47 -29.5 -68.5t-64.5 -21.5q-36 0 -52.5 19.5t-16.5 51.5zM545 835q0 46 28.5 68.5t63.5 22.5q37 0 53.5 -20t16.5 -52q0 -47 -29 -68.5
t-64 -21.5q-36 0 -52.5 19.5t-16.5 51.5z" />
    <glyph glyph-name="Zacute" unicode="&#x179;" horiz-adv-x="660" 
d="M163 346l7 20h353l-8 -20h-352zM451 214l2 9.5l2 9.5q34 -5 65.5 -18.5t52 -37t20.5 -60.5q0 -57 -41.5 -94t-111.5 -37q-45 0 -79 12.5t-64.5 29t-64 29t-77.5 12.5q-25 0 -46.5 -5.5t-45.5 -15.5q-22 -32 -48 -49t-40 -4q-12 11 2 33t67 42l580 570q-49 -47 -103 -74.5
t-110 -27.5q-49 0 -85 10t-64 20t-56 10q-17 0 -27 -7.5t-10 -24.5t16.5 -30.5t56.5 -21.5l-2.5 -9.5l-2.5 -9.5q-33 6 -65 19t-52.5 37t-20.5 60q0 57 41.5 94t111.5 37q45 0 79 -12.5t64.5 -29t64 -29t77.5 -12.5q25 0 46.5 5.5t45.5 15.5q23 32 48 49t40 4
q12 -10 -2 -32.5t-67 -42.5l-580 -570q49 47 103.5 74.5t110.5 27.5q50 0 85 -10t63 -20t57 -10q17 0 27 7.5t10 24.5t-16.5 30.5t-56.5 21.5zM419 784q49 41 80 73t55.5 56t52.5 38q23 13 53.5 11.5t46.5 -30.5q13 -26 -1 -48t-42 -37q-38 -21 -94.5 -32.5t-143.5 -42.5z
" />
    <glyph glyph-name="zacute" unicode="&#x17a;" horiz-adv-x="470" 
d="M36 61q33 14 63.5 36t59 40t53.5 18q24 0 38.5 -8t27.5 -16t31 -8q16 0 23.5 9.5t7.5 20.5q0 22 -16 34.5t-35 17.5l6 15q56 -12 82 -39t26 -71q0 -50 -32 -86t-98 -36q-32 0 -57 8.5t-47 20t-47 20t-58 8.5q-26 0 -47.5 -9t-42.5 -36h-31l498 464q-28 -12 -55.5 -30
t-52.5 -36.5t-49 -31t-45 -12.5q-24 0 -39 8t-27 16t-29 8q-16 0 -24 -8.5t-8 -21.5q0 -19 13 -30.5t38 -21.5l-6 -15q-52 12 -80 38t-28 68q0 33 16.5 63t50.5 49t85 19q33 0 57 -8t45 -19t44.5 -19t54.5 -8q30 0 51 10t41 35h30zM259 609q36 53 56.5 92.5t37 69t39.5 51.5
q19 20 48.5 26.5t51.5 -16.5q21 -19 14.5 -44t-30.5 -49q-20 -21 -49 -39t-68.5 -41.5t-89.5 -59.5z" />
    <glyph glyph-name="Zdotaccent" unicode="&#x17b;" horiz-adv-x="660" 
d="M163 346l7 20h353l-8 -20h-352zM451 214l2 9.5l2 9.5q34 -5 65.5 -18.5t52 -37t20.5 -60.5q0 -57 -41.5 -94t-111.5 -37q-45 0 -79 12.5t-64.5 29t-64 29t-77.5 12.5q-25 0 -46.5 -5.5t-45.5 -15.5q-22 -32 -48 -49t-40 -4q-12 11 2 33t67 42l580 570q-49 -47 -103 -74.5
t-110 -27.5q-49 0 -85 10t-64 20t-56 10q-17 0 -27 -7.5t-10 -24.5t16.5 -30.5t56.5 -21.5l-2.5 -9.5l-2.5 -9.5q-33 6 -65 19t-52.5 37t-20.5 60q0 57 41.5 94t111.5 37q45 0 79 -12.5t64.5 -29t64 -29t77.5 -12.5q25 0 46.5 5.5t45.5 15.5q23 32 48 49t40 4
q12 -10 -2 -32.5t-67 -42.5l-580 -570q49 47 103.5 74.5t110.5 27.5q50 0 85 -10t63 -20t57 -10q17 0 27 7.5t10 24.5t-16.5 30.5t-56.5 21.5zM357 826q0 48 32 74t80 26q40 0 61 -17t21 -48q0 -43 -33 -71t-81 -28q-39 0 -59.5 17t-20.5 47z" />
    <glyph glyph-name="zdotaccent" unicode="&#x17c;" horiz-adv-x="470" 
d="M36 61q33 14 63.5 36t59 40t53.5 18q24 0 38.5 -8t27.5 -16t31 -8q16 0 23.5 9.5t7.5 20.5q0 22 -16 34.5t-35 17.5l6 15q56 -12 82 -39t26 -71q0 -50 -32 -86t-98 -36q-32 0 -57 8.5t-47 20t-47 20t-58 8.5q-26 0 -47.5 -9t-42.5 -36h-31l498 464q-28 -12 -55.5 -30
t-52.5 -36.5t-49 -31t-45 -12.5q-24 0 -39 8t-27 16t-29 8q-16 0 -24 -8.5t-8 -21.5q0 -19 13 -30.5t38 -21.5l-6 -15q-52 12 -80 38t-28 68q0 33 16.5 63t50.5 49t85 19q33 0 57 -8t45 -19t44.5 -19t54.5 -8q30 0 51 10t41 35h30zM241 678q0 49 32.5 75t80.5 26
q39 0 60 -16.5t21 -48.5q0 -43 -32.5 -71t-80.5 -28q-39 0 -60 16.5t-21 46.5z" />
    <glyph glyph-name="Zcaron" unicode="&#x17d;" horiz-adv-x="660" 
d="M163 346l7 20h353l-8 -20h-352zM451 214l2 9.5l2 9.5q34 -5 65.5 -18.5t52 -37t20.5 -60.5q0 -57 -41.5 -94t-111.5 -37q-45 0 -79 12.5t-64.5 29t-64 29t-77.5 12.5q-25 0 -46.5 -5.5t-45.5 -15.5q-22 -32 -48 -49t-40 -4q-12 11 2 33t67 42l580 570q-49 -47 -103 -74.5
t-110 -27.5q-49 0 -85 10t-64 20t-56 10q-17 0 -27 -7.5t-10 -24.5t16.5 -30.5t56.5 -21.5l-2.5 -9.5l-2.5 -9.5q-33 6 -65 19t-52.5 37t-20.5 60q0 57 41.5 94t111.5 37q45 0 79 -12.5t64.5 -29t64 -29t77.5 -12.5q25 0 46.5 5.5t45.5 15.5q23 32 48 49t40 4
q12 -10 -2 -32.5t-67 -42.5l-580 -570q49 47 103.5 74.5t110.5 27.5q50 0 85 -10t63 -20t57 -10q17 0 27 7.5t10 24.5t-16.5 30.5t-56.5 21.5zM508 885q45 16 102 31t119 26l5 -14q-87 -27 -162.5 -71.5t-120.5 -92.5h-18q-20 56 -51 95t-88 69l4 14q74 -13 120.5 -26.5
t89.5 -30.5z" />
    <glyph glyph-name="zcaron" unicode="&#x17e;" horiz-adv-x="470" 
d="M36 61q33 14 63.5 36t59 40t53.5 18q24 0 38.5 -8t27.5 -16t31 -8q16 0 23.5 9.5t7.5 20.5q0 22 -16 34.5t-35 17.5l6 15q56 -12 82 -39t26 -71q0 -50 -32 -86t-98 -36q-32 0 -57 8.5t-47 20t-47 20t-58 8.5q-26 0 -47.5 -9t-42.5 -36h-31l498 464q-28 -12 -55.5 -30
t-52.5 -36.5t-49 -31t-45 -12.5q-24 0 -39 8t-27 16t-29 8q-16 0 -24 -8.5t-8 -21.5q0 -19 13 -30.5t38 -21.5l-6 -15q-52 12 -80 38t-28 68q0 33 16.5 63t50.5 49t85 19q33 0 57 -8t45 -19t44.5 -19t54.5 -8q30 0 51 10t41 35h30zM379 762q37 18 84 35t99 29l5 -14
q-77 -33 -142.5 -88.5t-104.5 -115.5h-18q-15 72 -41.5 120t-77.5 84l4 14q66 -13 109.5 -28.5t82.5 -35.5z" />
    <glyph glyph-name="longs" unicode="&#x17f;" horiz-adv-x="348" 
d="M51 498l6 20h159l-6 -20h-159zM430 763q-15 0 -27.5 -4.5t-23.5 -13.5q-17 -15 -29.5 -46.5t-25.5 -77.5l-213 -795q-48 -1 -86.5 -4t-75.5 -10l186 694q23 87 52.5 143t71.5 88q30 23 66.5 34t78.5 11q69 0 107 -28t38 -76q0 -33 -27.5 -63.5t-72.5 -30.5
q-33 0 -52.5 16t-19.5 46q0 35 22 64t61 43q-6 5 -13.5 7.5t-16.5 2.5z" />
    <glyph glyph-name="uni018F" unicode="&#x18f;" horiz-adv-x="766" 
d="M289 -14q-72 0 -131 23.5t-94 71.5t-35 121q0 45 14 100h547l-2 -19h-360q-25 -74 -25 -135t27 -100.5t80 -39.5q62 0 115.5 64t97.5 218v7q13 45 20.5 97t7.5 95q0 75 -20.5 118.5t-56 62.5t-82.5 19q-33 0 -64 -8.5t-60 -26.5q-50 -27 -77 -71.5t-53 -114.5h-23
q18 57 29 101t17.5 78.5t9.5 60.5h23q-3 -22 -3 -35q0 -24 12 -24q9 0 23 8q19 10 50 25.5t78 28t114 12.5q84 0 148.5 -26.5t101.5 -84t37 -152.5q0 -91 -35 -176.5t-98.5 -152.5t-148 -106t-184.5 -39z" />
    <glyph glyph-name="florin" unicode="&#x192;" horiz-adv-x="548" 
d="M558 514l-5 -20h-465l5 20h465zM-45 -188q-53 0 -79.5 18.5t-25.5 49.5q1 32 24.5 53t57.5 21q32 0 50 -19t17 -43q0 -16 -10 -34t-31 -31q40 5 64 28.5t39 79.5l155 580q19 70 50 124.5t67 82.5q38 29 80 44.5t95 15.5q65 0 95 -32t28 -75q-1 -26 -12.5 -50.5
t-31.5 -40.5t-48 -16q-30 0 -47.5 17t-16.5 48q1 38 23.5 70.5t59.5 49.5q-4 6 -12.5 9.5t-20.5 3.5q-18 0 -32 -10.5t-26 -25.5q-11 -16 -22 -41t-23.5 -66t-30.5 -108l-107 -400q-22 -84 -59.5 -144t-93.5 -102q-41 -31 -88 -44t-88 -13z" />
    <glyph glyph-name="Ohorn" unicode="&#x1a0;" horiz-adv-x="793" 
d="M596 686l-6 20q91 -11 147.5 -5.5t101.5 23.5l-3 -8q-23 11 -42.5 32.5t-19.5 52.5q0 33 21 53t52 20t53 -20.5t22 -56.5q0 -27 -15.5 -50t-46.5 -37q-34 -17 -101.5 -28t-162.5 4zM494 704q-51 0 -97.5 -42t-83.5 -113t-59 -158.5t-22 -177.5q0 -98 27.5 -153.5
t70.5 -55.5q51 0 97.5 42t83.5 113t59 158.5t22 177.5q0 98 -27.5 153.5t-70.5 55.5zM38 226q0 66 21.5 136t61.5 134t97 115t129 81t156 30q133 0 208.5 -62.5t75.5 -178.5q0 -66 -21.5 -135.5t-62 -133.5t-98 -115t-129 -81t-155.5 -30q-133 0 -208 62.5t-75 177.5z" />
    <glyph glyph-name="ohorn" unicode="&#x1a1;" horiz-adv-x="543" 
d="M414 481l-5 20q41 1 69.5 5.5t51.5 12.5l-3 -9q-19 11 -35.5 31t-16.5 48q0 29 20.5 48.5t52.5 19.5q29 0 50 -16.5t21 -49.5q0 -27 -15.5 -47.5t-44.5 -34.5q-26 -11 -63 -18t-82 -10zM340 512q-20 0 -44.5 -28t-48.5 -75t-44 -105t-32 -119t-12 -117q0 -34 6.5 -48
t20.5 -14q19 0 43 26.5t47.5 72t43.5 103t32.5 119.5t12.5 121q0 40 -7 52t-18 12zM9 153q0 59 20 124.5t62 123.5t105 94.5t149 36.5q82 0 126 -43t44 -124q0 -59 -20 -124.5t-62 -123.5t-105 -94.5t-149 -36.5q-82 0 -126 43t-44 124z" />
    <glyph glyph-name="Uhorn" unicode="&#x1af;" horiz-adv-x="698" 
d="M294 -14q-70 0 -121.5 23.5t-76.5 63.5q-25 39 -23 93t20 122l83 314q14 54 2.5 69t-61.5 17l6 20q27 -1 75 -2t98 -1t93 1t76 2l-6 -20q-34 -1 -53 -7.5t-29.5 -24t-20.5 -54.5l-88 -331q-24 -91 -25 -146t23 -79.5t73 -24.5q65 0 112.5 34.5t80 93.5t50.5 131l106 411
l3 -7q-26 0 -52 0.5t-51 3.5l5 20q21 -1 36.5 -2.5t36.5 -1.5q36 0 64 4t54 20l-3 -8q-23 11 -43 33t-20 53q0 32 21.5 52t52.5 20t53 -20.5t22 -55.5q0 -30 -18 -51.5t-45 -36.5q-26 -14 -51.5 -20.5t-49.5 -8.5l8 6l-104 -400q-16 -62 -39 -116.5t-58 -95.5
q-36 -42 -88.5 -67.5t-127.5 -25.5z" />
    <glyph glyph-name="uhorn" unicode="&#x1b0;" horiz-adv-x="607" 
d="M503 501l-5 19q41 4 68 9.5t49 12.5l-3 -9q-19 11 -35.5 31t-16.5 48q0 29 20.5 48.5t52.5 19.5q29 0 50 -16t21 -50q0 -27 -15.5 -47.5t-44.5 -34.5q-25 -10 -61.5 -18t-79.5 -13zM392 352q-38 -113 -72 -185t-66.5 -111t-66.5 -54.5t-74 -15.5q-62 0 -82.5 39t4.5 112
l97 296q10 29 3 37.5t-16 8.5q-11 0 -26 -12.5t-32 -58.5l-19 -52h-19l25 73q22 63 61 83t77 20q45 0 69.5 -19t28.5 -55.5t-14 -91.5l-88 -264q-20 -60 6 -60q22 0 52 40t62.5 107t63 150t53.5 169zM458 85q-7 -24 -5.5 -35t15.5 -11q16 0 30.5 15.5t29.5 55.5l21 56h19
l-28 -77q-20 -57 -58 -80t-80 -23q-32 0 -52 10t-30 27q-11 19 -10 45.5t9 57.5l102 392q46 1 87 4t76 10z" />
    <glyph glyph-name="uni01B7" unicode="&#x1b7;" horiz-adv-x="612" 
d="M673 708l-5 -20l-250 -341l-11 50q76 -32 116 -74t40 -108q0 -67 -43 -118.5t-116 -81t-164 -29.5q-68 0 -109.5 12.5t-63.5 23.5q-12 7 -22 11t-18 4q-10 0 -18 -11t-16 -33h-23q9 25 18.5 58.5t23 86.5t32.5 135h23q-18 -73 -9.5 -132t48 -93t111.5 -34q52 0 92 31
t63.5 78t23.5 97q0 69 -34.5 108t-103.5 54l5 20l209 283h-82q-45 0 -94.5 -19t-94 -64.5t-76.5 -127.5h-23q17 46 31 112t24 122q48 -2 108 -2.5t108 -0.5q71 0 150.5 0.5t149.5 2.5z" />
    <glyph glyph-name="uni01CD" unicode="&#x1cd;" horiz-adv-x="661" 
d="M54 137q-29 -41 -28.5 -66t25 -36.5t62.5 -14.5l-4 -20q-47 2 -78 2.5t-58 0.5q-22 0 -36.5 -0.5t-30.5 -2.5l4 20q27 7 52 31t66 82l412 580q15 -2 32.5 -2t30.5 2l40 -629q3 -36 18.5 -49.5t30.5 -14.5l-4 -20q-27 2 -72 2.5t-85 0.5q-48 0 -91 -0.5t-69 -2.5l4 20
q48 2 68.5 17.5t17.5 66.5l-24 449l44 47zM151 288h292l-8 -20h-302zM545 885q45 16 102 31t119 26l5 -14q-87 -27 -162.5 -71.5t-120.5 -92.5h-18q-20 56 -51 95t-88 69l4 14q74 -13 120.5 -26.5t89.5 -30.5z" />
    <glyph glyph-name="uni01CE" unicode="&#x1ce;" horiz-adv-x="570" 
d="M190 47q12 0 27 12.5t31 38.5t33 67t33 99l-25 -108q-31 -96 -75.5 -133t-99.5 -37q-60 0 -89 33t-29 91q0 56 19 115.5t51.5 114t73 98t85 69t87.5 25.5q33 0 50.5 -23t11.5 -76l-11 -6q5 31 -1.5 46.5t-22.5 15.5q-24 0 -54 -34t-57 -90.5t-45.5 -124.5t-18.5 -135
q0 -31 6 -44.5t20 -13.5zM388 517q49 1 87.5 4.5t75.5 10.5l-133 -447q-4 -14 -4.5 -24.5t4 -16t13.5 -5.5q11 0 26 13t32 58l19 52h19l-25 -73q-22 -62 -61 -82.5t-77 -20.5q-56 0 -80 33q-15 22 -15 55t13 78zM441 762q37 18 84 35t99 29l5 -14q-77 -33 -142.5 -88.5
t-104.5 -115.5h-18q-15 72 -41.5 120t-77.5 84l4 14q66 -13 109.5 -28.5t82.5 -35.5z" />
    <glyph glyph-name="uni01D3" unicode="&#x1d3;" horiz-adv-x="698" 
d="M647 528q16 61 18 93.5t-15.5 47t-60.5 19.5l6 20q19 -1 50 -2t59 -1q23 0 46 1t40 2l-6 -20q-33 -5 -52 -19t-32 -43t-27 -82l-65 -253q-36 -138 -98 -212q-36 -42 -89.5 -67.5t-115.5 -25.5q-83 0 -134 24t-75 63q-23 38 -23 89.5t20 125.5l83 314q14 55 2.5 69.5
t-61.5 16.5l6 20q27 -1 75 -2t102 -1q47 0 89.5 1t75.5 2l-6 -20q-34 -1 -53 -7.5t-29.5 -24t-20.5 -54.5l-88 -331q-23 -86 -24 -141.5t19 -82t61 -26.5q75 0 125 33.5t82 92.5t51 133zM567 885q45 16 102 31t119 26l5 -14q-87 -27 -162.5 -71.5t-120.5 -92.5h-18
q-20 56 -51 95t-88 69l4 14q74 -13 120.5 -26.5t89.5 -30.5z" />
    <glyph glyph-name="uni01D4" unicode="&#x1d4;" horiz-adv-x="607" 
d="M392 352q-38 -113 -72 -185t-66.5 -111t-66.5 -54.5t-74 -15.5q-62 0 -82.5 39t4.5 112l97 296q10 29 3 37.5t-16 8.5q-11 0 -26 -12.5t-32 -58.5l-19 -52h-19l25 73q22 63 61 83t77 20q45 0 69.5 -19t28.5 -55.5t-14 -91.5l-88 -264q-20 -60 6 -60q22 0 52 40t62.5 107
t63 150t53.5 169zM458 85q-7 -24 -5.5 -35t15.5 -11q16 0 30.5 15.5t29.5 55.5l21 56h19l-28 -77q-20 -57 -58 -80t-80 -23q-32 0 -52 10t-30 27q-11 19 -10 45.5t9 57.5l102 392q46 1 87 4t76 10zM421 762q37 18 84 35t99 29l5 -14q-77 -33 -142.5 -88.5t-104.5 -115.5h-18
q-15 72 -41.5 120t-77.5 84l4 14q66 -13 109.5 -28.5t82.5 -35.5z" />
    <glyph glyph-name="uni01E4" unicode="&#x1e4;" horiz-adv-x="750" 
d="M316 -14q-132 0 -207 60t-75 169q0 68 23 139t66 137t104 118t137 82.5t164 30.5q65 0 100.5 -19t63.5 -46q15 -15 28 -5t29 56h22q-15 -39 -31 -94.5t-33 -135.5h-22q2 20 3.5 38.5t1.5 36.5q0 21 -2.5 38t-11.5 35q-19 38 -58.5 58t-95.5 20q-60 0 -108.5 -35.5
t-86 -94t-62 -128t-37.5 -139t-13 -125.5q0 -90 33.5 -133t99.5 -43q18 0 35 4.5t29 12.5q17 12 24.5 29.5t15.5 47.5l30 114q11 40 8.5 60t-22 27.5t-61.5 8.5l5 20q32 -1 84.5 -2t95.5 -1q47 0 87.5 1t65.5 2l-5 -20q-22 -1 -34.5 -7.5t-21 -24t-18.5 -54.5l-60 -224h-20
q2 29 -6.5 43t-27.5 14q-23 0 -49 -13t-50 -24q-38 -19 -70.5 -26.5t-66.5 -7.5zM376 176l4 20h353l-4 -20h-353z" />
    <glyph glyph-name="uni01E5" unicode="&#x1e5;" horiz-adv-x="479" 
d="M461 -79l-4 -20h-634l4 20h634zM226 227l53 6q-62 -24 -94.5 -42t-32.5 -33q0 -8 10 -14.5t30 -12.5l87 -31q28 -10 54 -24t43 -36t17 -55q0 -41 -26.5 -73.5t-71.5 -55t-99.5 -34t-111.5 -11.5q-50 0 -93 9.5t-69.5 26.5t-26.5 40q0 20 19.5 35t50 25t64 15t63.5 6
l2 -15q-33 -18 -46.5 -37t-13.5 -37q0 -25 19 -38t53 -13q35 0 72.5 12.5t64 35t26.5 50.5q0 20 -15 27.5t-40 14.5l-139 42q-25 8 -43.5 24.5t-18.5 42.5q0 30 26.5 53.5t75 47t111.5 49.5zM266 513q-18 0 -33.5 -19.5t-26.5 -52t-17 -71.5t-6 -78q0 -33 6.5 -45.5
t19.5 -12.5q20 0 35.5 19.5t26.5 51.5t16 71t5 78q0 23 -4.5 41t-21.5 18zM288 531q68 0 112.5 -26.5t44.5 -86.5q0 -48 -31 -95t-88.5 -77t-135.5 -30q-67 0 -112.5 27t-45.5 86q0 34 17 69.5t49.5 66t80 48.5t109.5 18zM369 478l-20 7q15 41 49 66.5t73 25.5q33 0 50 -18
t17 -47t-15 -44t-33 -15q-16 0 -30.5 12.5t-18.5 37.5t12 65l6 -7q-36 -13 -56 -32t-34 -51z" />
    <glyph glyph-name="Gcaron" unicode="&#x1e6;" horiz-adv-x="750" 
d="M348 6q18 0 35 4.5t29 12.5q17 12 24.5 29t15.5 48l23 88q11 41 8.5 61t-22 27t-61.5 8l5 20q32 -1 84.5 -2t95.5 -1q47 0 87.5 1t65.5 2l-5 -20q-22 -1 -34.5 -7t-21 -24t-18.5 -55l-53 -198h-20q2 29 -6.5 43t-27.5 14q-23 0 -49 -13t-50 -24q-38 -19 -70.5 -26.5
t-66.5 -7.5q-132 0 -207 60t-75 169q0 68 23 139t66 137t104 118t137 82.5t164 30.5q65 0 100.5 -19t63.5 -46q15 -15 28 -5t29 56h22q-15 -39 -31 -94.5t-33 -135.5h-22q2 20 3.5 38.5t1.5 36.5q0 21 -2.5 38t-11.5 35q-19 38 -58.5 58t-95.5 20q-60 0 -108.5 -35.5
t-86 -94t-62 -128t-37.5 -139t-13 -125.5q0 -90 33.5 -133t99.5 -43zM597 885q45 16 102 31t119 26l5 -14q-87 -27 -162.5 -71.5t-120.5 -92.5h-18q-20 56 -51 95t-88 69l4 14q74 -13 120.5 -26.5t89.5 -30.5z" />
    <glyph glyph-name="gcaron" unicode="&#x1e7;" horiz-adv-x="479" 
d="M226 227l53 6q-62 -24 -94.5 -42t-32.5 -33q0 -8 10 -14.5t30 -12.5l87 -31q28 -10 54 -24t43 -36t17 -55q0 -41 -26.5 -73.5t-71.5 -55t-99.5 -34t-111.5 -11.5q-50 0 -93 9.5t-69.5 26.5t-26.5 40q0 20 19.5 35t50 25t64 15t63.5 6l2 -15q-33 -18 -46.5 -37t-13.5 -37
q0 -25 19 -38t53 -13q35 0 72.5 12.5t64 35t26.5 50.5q0 20 -15 27.5t-40 14.5l-139 42q-25 8 -43.5 24.5t-18.5 42.5q0 30 26.5 53.5t75 47t111.5 49.5zM266 513q-18 0 -33.5 -19.5t-26.5 -52t-17 -71.5t-6 -78q0 -33 6.5 -45.5t19.5 -12.5q20 0 35.5 19.5t26.5 51.5t16 71
t5 78q0 23 -4.5 41t-21.5 18zM288 531q68 0 112.5 -26.5t44.5 -86.5q0 -48 -31 -95t-88.5 -77t-135.5 -30q-67 0 -112.5 27t-45.5 86q0 34 17 69.5t49.5 66t80 48.5t109.5 18zM369 478l-20 7q15 41 49 66.5t73 25.5q33 0 50 -18t17 -47t-15 -44t-33 -15q-16 0 -30.5 12.5
t-18.5 37.5t12 65l6 -7q-36 -13 -56 -32t-34 -51zM383 762q37 18 84 35t99 29l5 -14q-77 -33 -142.5 -88.5t-104.5 -115.5h-18q-15 72 -41.5 120t-77.5 84l4 14q66 -13 109.5 -28.5t82.5 -35.5z" />
    <glyph glyph-name="uni01E8" unicode="&#x1e8;" horiz-adv-x="761" 
d="M243 106q-14 -55 -3 -69.5t62 -16.5l-4 -20q-30 2 -75 2.5t-92 0.5q-54 0 -100 -0.5t-75 -2.5l5 20q33 2 51.5 8t29.5 24t20 54l132 496q14 55 2.5 69.5t-61.5 16.5l5 20q27 -1 74 -2t101 -1q47 0 91 1t77 2l-5 -20q-34 -1 -53 -7.5t-29.5 -24t-20.5 -54.5zM617 65
q17 0 28.5 14t20.5 40l17 51h20l-26 -77q-19 -56 -56.5 -81.5t-81.5 -25.5q-70 0 -101.5 36t-22.5 94l24 149q4 30 3 49t-9 31t-23 20l2 10q85 -2 129.5 -21t58.5 -57t7 -98l-14 -102q-2 -14 4.5 -23t19.5 -9zM424 360q-54 -14 -73.5 -11.5t-15.5 20.5q3 16 21 19.5
t68 -10.5v-18zM632 679q-22 -24 -35 -63t-25 -82t-30.5 -81t-49 -62t-81.5 -23l2 10q47 5 74.5 30.5t43.5 63t26.5 79.5t23.5 79t36 61q17 19 36.5 25t38.5 6q48 0 77.5 -28t28.5 -73q0 -38 -26 -73.5t-76 -35.5q-30 0 -53 19t-23 56q1 34 24.5 65.5t64.5 47.5q-3 2 -8.5 3
t-12.5 1q-20 0 -33 -6.5t-23 -18.5zM535 885q45 16 102 31t119 26l5 -14q-87 -27 -162.5 -71.5t-120.5 -92.5h-18q-20 56 -51 95t-88 69l4 14q74 -13 120.5 -26.5t89.5 -30.5z" />
    <glyph glyph-name="uni01E9" unicode="&#x1e9;" horiz-adv-x="565" 
d="M138 0h-159l198 667q10 34 -2 50t-61 16l7 21q76 1 135.5 11.5t114.5 29.5zM413 81q-5 -25 -1 -33.5t14 -8.5q12 0 26.5 13t31.5 58l19 52h19l-25 -73q-15 -42 -39.5 -64t-54 -30.5t-58.5 -8.5q-55 0 -76.5 31.5t-9.5 90.5l18 74q13 53 -4 75.5t-73 28.5v4
q46 3 90.5 -0.5t79 -18t51 -44.5t5.5 -80zM446 513q-14 0 -24.5 -4t-20.5 -12q-17 -14 -27.5 -40t-21 -55.5t-26.5 -55.5t-43 -43t-71 -16l-10 -1l2 11q43 3 68 20.5t40 43t24.5 53.5t20 53.5t29.5 41.5q16 13 33.5 18t30.5 5q53 0 78.5 -30.5t24.5 -72.5q0 -43 -26 -68.5
t-66 -25.5q-36 0 -54.5 19.5t-18.5 44.5q1 36 24.5 62.5t53.5 40.5q-3 5 -9 8t-11 3zM505 1015q37 18 84 35t99 29l5 -14q-77 -33 -142.5 -88.5t-104.5 -115.5h-18q-15 72 -41.5 120t-77.5 84l4 14q66 -13 109.5 -28.5t82.5 -35.5z" />
    </font>
</defs>
</svg>
