<?xml version="1.0" standalone="no"?>
<!DOCTYPE svg PUBLIC "-//W3C//DTD SVG 1.1//EN" "http://www.w3.org/Graphics/SVG/1.1/DTD/svg11.dtd" >
<svg xmlns="http://www.w3.org/2000/svg" xmlns:xlink="http://www.w3.org/1999/xlink" version="1.1">
<metadata>
Created by FontForge 20170731 at Tue Mar 19 18:39:57 2019
 By Aleksey,,,
Copyright 2017 The Playfair Display Project Authors (https://github.com/clauseggers/Playfair-Display), with Reserved Font Name "Playfair Display".
</metadata>
<defs>
<font id="PlayfairDisplay-ExtraBold" horiz-adv-x="0" >
  <font-face 
    font-family="Playfair Display ExtraBold"
    font-weight="800"
    font-stretch="normal"
    units-per-em="1000"
    panose-1="0 0 0 0 0 0 0 0 0 0"
    ascent="800"
    descent="-200"
    x-height="518"
    cap-height="708"
    bbox="-271 -243 1284 1164"
    underline-thickness="20"
    underline-position="-130"
    unicode-range="U+000D-FB02"
  />
<missing-glyph horiz-adv-x="562" 
d="M502 772v-772h-442v772h442zM466 742h-370v-712h370v712z" />
    <glyph glyph-name="IJ" unicode="IJ" horiz-adv-x="768" 
d="M358 708v-20q-31 -1 -47 -7.5t-21 -24t-5 -54.5v-496q0 -36 5.5 -54t21 -24t46.5 -8v-20q-28 2 -71.5 2.5t-87.5 0.5q-51 0 -96 -0.5t-72 -2.5v20q31 2 46.5 8t21 24t5.5 54v496q0 37 -5.5 54.5t-21 24t-46.5 7.5v20q27 -1 72 -2t96 -1q44 0 87.5 1t71.5 2zM367 -188v21
q38 4 65.5 23t42.5 66t15 132v548q0 37 -5.5 54.5t-21.5 24t-46 7.5v20q25 -1 68 -2t90 -1q48 0 93.5 1t75.5 2v-20q-31 -1 -47 -7.5t-21 -24t-5 -54.5v-366v-88.5t-3.5 -92.5t-13.5 -80q-21 -69 -92 -116t-195 -47z" />
    <glyph glyph-name="ij" unicode="ij" horiz-adv-x="600" 
d="M535 529v-440q0 -89 -23 -151.5t-78 -94t-152 -31.5q-60 0 -100.5 17.5t-40.5 59.5q0 26 23.5 45.5t69.5 19.5q40 0 66.5 -15.5t26.5 -45.5q0 -23 -17 -39t-44 -23q8 -1 13 -1h9q48 0 66.5 30t18.5 95v116q-23 -43 -63.5 -64t-96.5 -21q-44 0 -70.5 11t-40.5 29
q-16 18 -23 48.5t-7 80.5v254q0 45 -13 66.5t-47 21.5v21q32 -3 62 -3q46 0 86 3.5t74 10.5v-422q0 -23 5 -39t17 -25t32 -9q35 0 60 27t25 67v281q0 45 -13 66.5t-47 21.5v21q32 -3 62 -3q46 0 86 3.5t74 10.5zM145 779q47 0 73.5 -21t26.5 -61t-26.5 -61t-73.5 -21
q-46 0 -73 21t-27 61t27 61t73 21zM448 779q47 0 73.5 -21t26.5 -61t-26.5 -61t-73.5 -21t-73.5 21t-26.5 61t26.5 61t73.5 21z" />
    <glyph glyph-name="fi" unicode="fi" horiz-adv-x="661" 
d="M380 782q69 0 105.5 -11t63.5 -27q16 -10 29 -29.5t13 -42.5q0 -38 -25.5 -59.5t-78.5 -21.5q-50 0 -77 21t-27 58q0 62 77 81q-8 5 -25 8.5t-36 3.5q-45 0 -75.5 -20t-48.5 -53q-14 -25 -20.5 -62.5t-6.5 -110.5h105q56 0 95.5 1t71 3.5t63.5 7.5v-436q0 -42 15.5 -57
t52.5 -15v-21q-21 1 -62 2.5t-83 1.5q-41 0 -82.5 -1.5t-62.5 -2.5v21q33 0 46.5 15t13.5 57v316q0 45 -14.5 66.5t-53.5 21.5h-105v-404q0 -43 20.5 -57.5t57.5 -14.5v-21q-24 1 -67 2.5t-88 1.5q-47 0 -89 -1.5t-64 -2.5v21q37 0 52.5 15t15.5 57v404h-72v20h72
q0 63 21 111.5t61 85.5q37 36 95 52t117 16z" />
    <glyph glyph-name="fl" unicode="fl" horiz-adv-x="665" 
d="M583 784v-691q0 -42 15.5 -57t52.5 -15v-21q-21 1 -62 2.5t-83 1.5q-41 0 -82.5 -1.5t-62.5 -2.5v21q33 0 46.5 15t13.5 57v592q0 24 -4 37.5t-13 21.5q-7 8 -20 13.5t-28 5.5q-29 0 -46.5 -8.5t-32.5 -26.5q-19 -23 -24 -61t-5 -108v-42h98v-20h-98v-404
q0 -43 20.5 -57.5t57.5 -14.5v-21q-24 1 -67 2.5t-88 1.5q-47 0 -89 -1.5t-64 -2.5v21q37 0 52.5 15t15.5 57v404h-72v20h72q0 76 19 126t56 82q37 31 83.5 44t91.5 13q33 0 67.5 -3t73.5 -3q22 0 51.5 2.5t54.5 5.5z" />
    <glyph glyph-name="f_f" unicode="ff" horiz-adv-x="688" 
d="M323 742q55 0 99 -25t59 -73l-20 -10q-11 37 -42.5 60.5t-75.5 23.5q-49 0 -72 -29t-23 -93v-79h127v-20h-127v-404q0 -42 13.5 -57t46.5 -15v-21q-21 1 -58.5 2.5t-77.5 1.5q-44 0 -88 -1.5t-66 -2.5v21q37 0 52.5 15t15.5 57v404h-72v20h72q0 53 18 98t53 74
q28 24 70.5 38.5t95.5 14.5zM622 782q37 0 64.5 -9.5t48.5 -25.5q14 -11 25 -31.5t11 -47.5q0 -29 -21.5 -52t-55.5 -23q-37 0 -60 20.5t-23 56.5q0 27 16 49.5t48 31.5q-3 5 -11 8.5t-21 3.5q-18 0 -30 -6t-20 -17q-10 -13 -14.5 -37t-4.5 -73v-113h107v-20h-107v-394
q0 -49 24 -65.5t66 -16.5v-21q-27 1 -75.5 2.5t-102.5 1.5q-39 0 -77 -1.5t-57 -2.5v21q33 0 46.5 15t13.5 57v404h-64v20h64q0 89 15 135t52 80q22 21 60.5 35.5t82.5 14.5z" />
    <glyph glyph-name="f_f_i" unicode="ffi" horiz-adv-x="1003" 
d="M733 782q58 0 95 -11t64 -28q17 -10 29 -28.5t12 -42.5q0 -38 -25.5 -59.5t-78.5 -21.5q-50 0 -77 21t-27 58q0 62 77 81q-8 5 -25 8.5t-37 3.5q-36 0 -61.5 -13.5t-40.5 -29.5q-21 -21 -31.5 -47.5t-13.5 -63t-3 -92.5h105q56 0 95.5 1t71 3.5t63.5 7.5v-436
q0 -42 15.5 -57t52.5 -15v-21q-21 1 -62 2.5t-83 1.5q-41 0 -82.5 -1.5t-62.5 -2.5v21q33 0 46.5 15t13.5 57v316q0 45 -14.5 66.5t-53.5 21.5h-105v-404q0 -43 20.5 -57.5t57.5 -14.5v-21q-24 1 -67 2.5t-88 1.5q-47 0 -89 -1.5t-64 -2.5v21q37 0 52.5 15t15.5 57v404h-72
v20h72q0 63 20.5 112t60.5 85q39 34 97.5 51t126.5 17zM341 750q63 0 103 -19.5t70 -50.5l-14 -16q-19 23 -54 43t-88 20q-55 0 -82.5 -32t-27.5 -107v-71h127v-20h-127v-404q0 -42 13.5 -57t46.5 -15v-21q-21 1 -58.5 2.5t-77.5 1.5q-44 0 -88 -1.5t-66 -2.5v21
q37 0 52.5 15t15.5 57v404h-72v20h72q0 53 18.5 97.5t52.5 74.5q33 31 80.5 46t103.5 15z" />
    <glyph glyph-name="f_f_l" unicode="ffl" horiz-adv-x="1007" 
d="M925 784v-691q0 -42 15.5 -57t52.5 -15v-21q-21 1 -62 2.5t-83 1.5q-41 0 -82.5 -1.5t-62.5 -2.5v21q33 0 46.5 15t13.5 57v592q0 24 -4.5 37.5t-12.5 21.5q-7 8 -20 13.5t-29 5.5q-28 0 -46 -8.5t-32 -26.5q-19 -23 -24 -60t-5 -105v-46h98v-20h-98v-404
q0 -43 20.5 -57.5t57.5 -14.5v-21q-24 1 -67 2.5t-88 1.5q-47 0 -89 -1.5t-64 -2.5v21q37 0 52.5 15t15.5 57v404h-72v20h72q0 76 19 126t56 82q37 31 83.5 44t91.5 13q33 0 67 -3t73 -3q23 0 52.5 2.5t54.5 5.5zM341 750q63 0 103 -19.5t70 -50.5l-14 -16q-19 23 -54 43
t-88 20q-55 0 -82.5 -32t-27.5 -107v-71h127v-20h-127v-404q0 -42 13.5 -57t46.5 -15v-21q-19 1 -57.5 2.5t-78.5 1.5q-44 0 -88 -1.5t-66 -2.5v21q37 0 52.5 15t15.5 57v404h-72v20h72q0 53 18.5 97.5t52.5 74.5q33 31 80.5 46t103.5 15z" />
    <glyph glyph-name="f_b.liga" unicode="fb" horiz-adv-x="944" 
d="M579 784v-775q-29 9 -59.5 7.5t-55.5 -10t-39 -22.5l-15 9q5 14 6 28t1 28v636q0 24 -4.5 37.5t-12.5 21.5q-6 8 -18.5 13.5t-28.5 5.5q-27 0 -44.5 -8.5t-31.5 -25.5q-20 -24 -24.5 -62t-4.5 -106v-44h98v-20h-98v-404q0 -43 20.5 -57.5t57.5 -14.5v-21q-24 1 -67 2.5
t-88 1.5q-47 0 -89 -1.5t-64 -2.5v21q37 0 52.5 15t15.5 57v404h-72v20h72q0 76 19 126t56 82q37 31 83 44t91 13q32 0 65.5 -3t73.5 -3q22 0 51 2.5t54 5.5zM732 532q75 0 126 -62.5t51 -192.5q0 -108 -31.5 -172.5t-84.5 -91.5t-115 -27q-37 0 -69 9t-57 33l13 10
q15 -16 35.5 -23.5t39.5 -7.5q51 0 75.5 62.5t24.5 189.5q0 87 -10 136t-27 69.5t-41 20.5q-32 0 -57.5 -24.5t-26.5 -66.5l-3 42q21 48 62 72t95 24z" />
    <glyph glyph-name="f_f_b.liga" unicode="ffb" horiz-adv-x="1286" 
d="M921 784v-775q-29 9 -59.5 7.5t-55.5 -10t-40 -22.5l-14 9q5 14 6 28t1 28v636q0 24 -4.5 37.5t-12.5 21.5q-7 8 -19.5 13.5t-27.5 5.5q-27 0 -44.5 -8.5t-31.5 -25.5q-20 -24 -24.5 -63.5t-4.5 -111.5v-37h98v-20h-98v-404q0 -43 20.5 -57.5t57.5 -14.5v-21
q-24 1 -67 2.5t-88 1.5q-47 0 -89 -1.5t-64 -2.5v21q37 0 52.5 15t15.5 57v404h-72v20h72q0 76 19 126t56 82q36 31 82.5 44t90.5 13q33 0 66.5 -3t73.5 -3q22 0 51 2.5t54 5.5zM341 750q63 0 103 -19.5t70 -50.5l-14 -16q-19 23 -54 43t-88 20q-51 0 -76.5 -32t-25.5 -107
v-71h119v-20h-119v-404q0 -42 13.5 -57t46.5 -15v-21q-21 1 -61.5 2.5t-82.5 1.5q-44 0 -88 -1.5t-66 -2.5v21q37 0 52.5 15t15.5 57v404h-72v20h72q0 53 18.5 97.5t52.5 74.5q33 31 80.5 46t103.5 15zM1074 532q75 0 126 -62.5t51 -192.5q0 -108 -32 -172.5t-84.5 -91.5
t-114.5 -27q-37 0 -69 9t-57 33l13 10q15 -16 35 -23.5t39 -7.5q51 0 76 62.5t25 189.5q0 87 -10 136t-27.5 69.5t-40.5 20.5q-32 0 -57.5 -24.5t-27.5 -66.5l-2 42q21 48 61.5 72t95.5 24z" />
    <glyph glyph-name="f_f_h.liga" unicode="ffh" horiz-adv-x="1296" 
d="M921 784v-336q24 46 66 65t95 19q44 0 70.5 -11t41.5 -28q15 -19 22.5 -49t7.5 -81v-270q0 -42 13.5 -57t46.5 -15v-21q-20 1 -59 2.5t-77 1.5q-40 0 -78.5 -1.5t-57.5 -2.5v21q28 0 39 15t11 57v318q0 23 -5 39.5t-17 25t-34 8.5q-34 0 -59.5 -26t-25.5 -68v-297
q0 -42 11.5 -57t38.5 -15v-21q-19 1 -54.5 2.5t-73.5 1.5q-40 0 -81.5 -1.5t-62.5 -2.5v21q33 0 46.5 15t13.5 57v592q0 24 -4.5 37.5t-12.5 21.5q-7 8 -19.5 13.5t-27.5 5.5q-27 0 -44.5 -8.5t-31.5 -25.5q-19 -23 -24 -59.5t-5 -102.5v-50h98v-20h-98v-404
q0 -43 20.5 -57.5t57.5 -14.5v-21q-24 1 -67 2.5t-88 1.5q-47 0 -89 -1.5t-64 -2.5v21q37 0 52.5 15t15.5 57v404h-72v20h72q0 76 19 126t56 82q36 31 82.5 44t90.5 13q33 0 66.5 -3t73.5 -3q22 0 51 2.5t54 5.5zM341 750q63 0 103 -19.5t70 -50.5l-14 -16q-19 23 -54 43
t-88 20q-55 0 -82.5 -32t-27.5 -107v-71h127v-20h-127v-404q0 -42 13.5 -57t46.5 -15v-21q-21 1 -58.5 2.5t-77.5 1.5q-44 0 -88 -1.5t-66 -2.5v21q37 0 52.5 15t15.5 57v404h-72v20h72q0 53 18.5 97.5t52.5 74.5q33 31 80.5 46t103.5 15z" />
    <glyph glyph-name="f_f_j.liga" unicode="ffj" horiz-adv-x="988" 
d="M722 782q69 0 105.5 -11t62.5 -27q17 -10 30 -29.5t13 -42.5q0 -38 -25.5 -59.5t-78.5 -21.5q-50 0 -77 21t-27 58q0 62 77 81q-8 5 -25 8.5t-37 3.5q-44 0 -74.5 -20t-48.5 -53q-14 -25 -20.5 -62.5t-6.5 -110.5h105q56 0 95.5 1t71 3.5t63.5 7.5v-442q0 -84 -15 -135
t-53 -88q-22 -23 -62 -37.5t-115 -14.5q-30 0 -54 4t-40 9q-25 9 -39 24.5t-14 35.5q0 25 23 46.5t69 21.5q39 0 65.5 -16t26.5 -45q0 -22 -15.5 -36.5t-40.5 -22.5q10 0 18.5 0.5t13.5 1.5q23 1 37 13.5t22 31.5q6 15 8.5 44.5t2.5 64v62.5v358q0 45 -14.5 66.5t-53.5 21.5
h-105v-402q0 -44 21.5 -59t60.5 -15v-21q-25 1 -69 2.5t-91 1.5q-46 0 -88 -1.5t-64 -2.5v21q37 0 52.5 15t15.5 57v404h-72v20h72q0 63 21 111.5t60 85.5q38 36 95.5 52t117.5 16zM341 750q63 0 103 -19.5t70 -50.5l-14 -16q-19 23 -54 43t-88 20q-51 0 -76.5 -32
t-25.5 -107v-71h119v-20h-119v-404q0 -42 13.5 -57t46.5 -15v-21q-21 1 -61.5 2.5t-82.5 1.5q-44 0 -88 -1.5t-66 -2.5v21q37 0 52.5 15t15.5 57v404h-72v20h72q0 53 19 97t52 75q34 31 81 46t103 15z" />
    <glyph glyph-name="f_f_k.liga" unicode="ffk" horiz-adv-x="1277" 
d="M921 784v-691q0 -42 15 -57t51 -15v-21q-21 1 -61.5 2.5t-81.5 1.5t-82.5 -1.5t-62.5 -2.5v21q33 0 46.5 15t13.5 57v592q0 24 -4.5 37.5t-12.5 21.5q-7 8 -19.5 13.5t-27.5 5.5q-27 0 -44.5 -8.5t-31.5 -25.5q-20 -24 -24.5 -62t-4.5 -106v-44h98v-20h-98v-404
q0 -43 20.5 -57.5t57.5 -14.5v-21q-24 1 -67 2.5t-88 1.5q-47 0 -89 -1.5t-64 -2.5v21q37 0 52.5 15t15.5 57v404h-72v20h72q0 76 19 126t56 82q36 31 82.5 44t90.5 13q33 0 66.5 -3t73.5 -3q22 0 51 2.5t54 5.5zM341 750q63 0 103 -19.5t70 -50.5l-14 -16q-19 23 -54 43
t-88 20q-51 0 -76.5 -32t-25.5 -107v-71h119v-20h-119v-404q0 -42 13.5 -57t46.5 -15v-21q-21 1 -61.5 2.5t-82.5 1.5q-44 0 -88 -1.5t-66 -2.5v21q37 0 52.5 15t15.5 57v404h-72v20h72q0 53 18.5 97.5t52.5 74.5q33 31 80.5 46t103.5 15zM1250 518v-20q-34 -8 -68 -30.5
t-68 -57.5l-57 -57l9 16l166 -296q10 -17 20 -31t26 -21v-21q-16 1 -48.5 2.5t-64.5 1.5q-38 0 -77 -1.5t-58 -2.5v21q20 0 26.5 9t-1.5 25l-94 182q-9 17 -19.5 22t-25.5 5v19q18 1 31.5 5t24.5 15l77 73q34 33 34.5 59.5t-21.5 43.5t-58 19v20q29 -1 62 -2t57 -1
q20 0 45 0.5t47.5 1t34.5 1.5z" />
    <glyph glyph-name="f_h.liga" unicode="fh" horiz-adv-x="954" 
d="M579 784v-336q24 46 66 65t95 19q45 0 71 -11t41 -28q16 -19 23 -49t7 -81v-270q0 -42 13.5 -57t46.5 -15v-21q-19 1 -58.5 2.5t-77.5 1.5q-40 0 -78.5 -1.5t-57.5 -2.5v21q28 0 39 15t11 57v318q0 23 -5 39.5t-17 25t-33 8.5q-35 0 -60.5 -26t-25.5 -68v-297
q0 -42 11.5 -57t38.5 -15v-21q-18 1 -54 2.5t-74 1.5q-40 0 -81.5 -1.5t-62.5 -2.5v21q33 0 46.5 15t13.5 57v592q0 24 -4.5 37.5t-12.5 21.5q-6 8 -18.5 13.5t-28.5 5.5q-27 0 -44.5 -8.5t-31.5 -25.5q-20 -24 -24.5 -63t-4.5 -112v-37h98v-20h-98v-404q0 -43 20.5 -57.5
t57.5 -14.5v-21q-24 1 -67 2.5t-88 1.5q-47 0 -89 -1.5t-64 -2.5v21q37 0 52.5 15t15.5 57v404h-72v20h72q0 76 19 126t56 82q37 31 83 44t91 13q32 0 65.5 -3t73.5 -3q22 0 51 2.5t54 5.5z" />
    <glyph glyph-name="f_idieresis.liga" unicode="f&#xef;" horiz-adv-x="661" 
d="M317 782q61 0 93.5 -14.5t45 -37t12.5 -45.5l-32 6q-4 38 -33.5 55.5t-72.5 17.5q-49 0 -64.5 -28t-16.5 -101q0 -16 -0.5 -36.5t-0.5 -41v-40.5h105q56 0 95.5 1t71 3.5t63.5 7.5v-436q0 -42 15.5 -57t52.5 -15v-21q-21 1 -62 2.5t-83 1.5q-41 0 -82.5 -1.5t-62.5 -2.5
v21q33 0 46.5 15t13.5 57v316q0 45 -14.5 66.5t-53.5 21.5h-105v-404q0 -43 20.5 -57.5t57.5 -14.5v-21q-24 1 -67 2.5t-88 1.5q-47 0 -89.5 -1.5t-63.5 -2.5v21q37 0 52.5 15t15.5 57v404h-72v20h72q0 68 13.5 118t47.5 83q34 34 77.5 49t92.5 15zM620 766q32 0 56.5 -24.5
t24.5 -56.5q0 -34 -24.5 -57.5t-57.5 -23.5t-57 24t-24 57t24 57t58 24zM387 766q32 0 56.5 -24.5t24.5 -56.5q0 -34 -24.5 -57.5t-56.5 -23.5q-34 0 -58 24t-24 57t24 57t58 24z" />
    <glyph glyph-name="f_igrave.liga" unicode="f&#xec;" horiz-adv-x="661" 
d="M294 753q43 0 75 -13.5t57 -31.5l-2 -19q-28 19 -49.5 29.5t-48.5 10.5q-40 0 -60 -34q-8 -14 -13 -36.5t-5 -55.5v-86h105q56 0 95.5 1t71 3.5t63.5 7.5v-436q0 -42 15.5 -57t52.5 -15v-21q-21 1 -62 2.5t-83 1.5q-41 0 -82.5 -1.5t-62.5 -2.5v21q33 0 46.5 15t13.5 57
v316q0 45 -14.5 66.5t-53.5 21.5h-105v-404q0 -43 20.5 -57.5t57.5 -14.5v-21q-24 1 -67 2.5t-88 1.5q-47 0 -89 -1.5t-64 -2.5v21q37 0 52.5 15t15.5 57v404h-72v20h72q0 60 13.5 107t47.5 79q31 31 69.5 40.5t77.5 9.5zM372 819q21 18 48 13.5t43 -23.5q17 -20 26 -46
t22 -63t42 -92l-11 -9q-46 40 -78.5 62t-55 37.5t-39.5 34.5q-16 21 -15.5 45.5t18.5 40.5z" />
    <glyph glyph-name="f_j.liga" unicode="fj" horiz-adv-x="646" 
d="M380 782q69 0 105.5 -11t63.5 -27q16 -10 29 -29.5t13 -42.5q0 -38 -25.5 -59.5t-78.5 -21.5q-50 0 -77 21t-27 58q0 62 77 81q-8 5 -25 8.5t-36 3.5q-45 0 -75.5 -20t-48.5 -53q-14 -25 -20.5 -62.5t-6.5 -110.5h105q56 0 95.5 1t71 3.5t63.5 7.5v-442q0 -84 -15 -135
t-52 -88q-23 -23 -63 -37.5t-115 -14.5q-30 0 -54 4t-40 9q-25 9 -39 24.5t-14 35.5q0 25 23 46.5t69 21.5q40 0 66.5 -16t26.5 -45q0 -22 -16 -36.5t-41 -22.5h18t14 1q22 1 36.5 13.5t22.5 32.5q6 15 8.5 44.5t2.5 64v62.5v358q0 45 -14.5 66.5t-53.5 21.5h-105v-402
q0 -44 21.5 -59t60.5 -15v-21q-25 1 -69 2.5t-91 1.5q-46 0 -88 -1.5t-64 -2.5v21q37 0 52.5 15t15.5 57v404h-72v20h72q0 63 21 111.5t61 85.5q37 36 95 52t117 16z" />
    <glyph glyph-name="f_k.liga" unicode="fk" horiz-adv-x="935" 
d="M579 784v-691q0 -42 15 -57t51 -15v-21q-21 1 -61 2.5t-82 1.5q-41 0 -82.5 -1.5t-62.5 -2.5v21q33 0 46.5 15t13.5 57v592q0 24 -4.5 37.5t-12.5 21.5q-6 8 -18.5 13.5t-28.5 5.5q-27 0 -44.5 -8.5t-31.5 -25.5q-20 -24 -24.5 -62t-4.5 -109v-41h98v-20h-98v-404
q0 -43 20.5 -57.5t57.5 -14.5v-21q-24 1 -67 2.5t-88 1.5q-47 0 -89 -1.5t-64 -2.5v21q37 0 52.5 15t15.5 57v404h-72v20h72q0 76 19 126t56 82q37 31 83 44t91 13q32 0 65.5 -3t73.5 -3q22 0 51 2.5t54 5.5zM908 518v-20q-34 -8 -68 -30.5t-68 -57.5l-56 -57l8 16l166 -296
q10 -17 20 -31t26 -21v-21q-16 1 -48 2.5t-65 1.5q-38 0 -77 -1.5t-58 -2.5v21q20 0 27 9t-2 25l-93 182q-10 17 -20 22t-26 5v19q18 1 31.5 5t25.5 15l76 73q34 33 34.5 59.5t-21.5 43.5t-57 19v20q28 -1 61.5 -2t56.5 -1q20 0 45 0.5t47.5 1t34.5 1.5z" />
    <glyph glyph-name=".notdef" horiz-adv-x="562" 
d="M502 772v-772h-442v772h442zM466 742h-370v-712h370v712z" />
    <glyph glyph-name=".null" 
 />
    <glyph glyph-name="nonmarkingreturn" horiz-adv-x="333" 
 />
    <glyph glyph-name="CR" unicode="&#xd;" 
 />
    <glyph glyph-name="space" unicode=" " horiz-adv-x="228" 
 />
    <glyph glyph-name="exclam" unicode="!" horiz-adv-x="297" 
d="M149 782q36 0 65 -30t29 -82q0 -45 -12 -97t-28 -112.5t-29 -126.5t-16 -138v0h-18q-4 72 -17 138t-29 126.5t-27.5 112.5t-11.5 97q0 52 26.5 82t67.5 30zM149 149q42 0 67 -21t25 -60q0 -40 -25 -61t-67 -21q-44 0 -68 21t-24 61q0 39 24 60t68 21z" />
    <glyph glyph-name="quotedbl" unicode="&#x22;" horiz-adv-x="393" 
d="M108 730q31 0 51.5 -19.5t20.5 -53.5q0 -29 -9.5 -54t-24.5 -55.5t-31 -79.5h-14q-15 46 -30.5 77t-25 56.5t-9.5 54.5q0 34 21 54t51 20zM286 730q31 0 51.5 -19.5t20.5 -53.5q0 -29 -9.5 -54t-24.5 -55.5t-31 -79.5h-14q-15 46 -30.5 77t-25 56.5t-9.5 54.5q0 34 21 54
t51 20z" />
    <glyph glyph-name="numbersign" unicode="#" horiz-adv-x="615" 
d="M460 602l-97 -501h-20l97 501h20zM542 267l-4 -20h-501l4 20h501zM273 602l-97 -501h-20l97 501h20zM578 454l-3 -20h-501l3 20h501z" />
    <glyph glyph-name="dollar" unicode="$" horiz-adv-x="591" 
d="M289 721q62 0 96 -12.5t58 -26.5q12 -7 19.5 -10.5t14.5 -3.5q16 0 22 44h23q-1 -20 -2.5 -47t-2 -71.5t-0.5 -117.5h-23q-8 67 -28 117t-57.5 77.5t-100.5 27.5q-62 0 -90.5 -24.5t-28.5 -61.5q0 -19 5.5 -36.5t25 -39t60.5 -52.5t111 -76q47 -29 84.5 -60.5t59 -71
t21.5 -94.5q0 -66 -35.5 -109.5t-95 -65t-129.5 -21.5q-65 0 -101 13.5t-56 22.5q-14 7 -25 11t-21 4q-16 0 -22 -44h-23q2 25 2.5 58.5t1 86.5t0.5 135h23q9 -101 33 -158.5t69 -81.5t117 -24q76 0 106.5 26.5t30.5 66.5q0 18 -6 34.5t-25.5 37t-59.5 51t-109 78.5
q-47 31 -88 63.5t-65.5 73t-24.5 96.5q0 64 33.5 105t87.5 60.5t115 19.5zM264 840v-972h-20v972h20zM366 840v-972h-20v972h20z" />
    <glyph glyph-name="percent" unicode="%" horiz-adv-x="724" 
d="M200 761q74 0 120.5 -43t46.5 -120q0 -76 -47.5 -122t-119.5 -46q-74 0 -120.5 43t-46.5 120q0 75 48 121.5t119 46.5zM522 299q-61 0 -61 -149q0 -73 17.5 -109.5t47.5 -36.5q60 0 60 148q0 74 -16.5 110.5t-47.5 36.5zM524 317q74 0 120.5 -43t46.5 -120
q0 -76 -47.5 -122t-119.5 -46q-74 0 -120.5 43t-46.5 120q0 75 48 121.5t119 46.5zM198 743q-61 0 -61 -149q0 -73 17.5 -109.5t47.5 -36.5q60 0 60 148q0 74 -16.5 110.5t-47.5 36.5zM649 824l19 -13l-585 -866l-19 13z" />
    <glyph glyph-name="ampersand" unicode="&#x26;" horiz-adv-x="918" 
d="M338 712q39 0 62.5 -4.5t41.5 -12.5q24 -9 46 -29.5t22 -55.5q0 -32 -24.5 -51.5t-59.5 -19.5q-32 0 -55.5 16t-23.5 50q0 27 18.5 48.5t49.5 28.5q-9 6 -26.5 9.5t-36.5 3.5q-52 0 -90 -33.5t-38 -101.5q0 -21 7 -46.5t28 -51.5q17 5 30.5 6.5t23.5 1.5q36 0 36 -27
q0 -10 -8 -16t-20 -6q-16 0 -33 10t-28 17q-43 -26 -70.5 -63t-27.5 -98q0 -65 35.5 -106t103 -61t160.5 -20q49 0 98.5 10.5t90.5 32t66 53.5t25 75q0 15 -3.5 37.5t-18 46t-48.5 39.5l5 8q47 -14 74.5 -60.5t27.5 -108.5q0 -73 -45.5 -128.5t-126.5 -87t-186 -31.5
q-118 0 -204 30t-132.5 86t-46.5 133q0 56 24 96t59 65.5t70 40t56 19.5q-47 18 -82 47t-35 78q0 35 18.5 60t49.5 40.5t68 23t73 7.5zM741 722q73 0 118 -37.5t45 -105.5q0 -85 -64 -128t-175 -63q-12 -3 -27 -7t-30.5 -7.5t-30 -7.5t-26.5 -7q-91 -18 -139 -39.5
t-48 -60.5q0 -24 17 -42.5t43.5 -28.5t53.5 -10q9 0 18.5 1.5t15.5 4.5q-28 10 -40 29t-12 41q0 35 25.5 53t62.5 18q40 0 62.5 -20t22.5 -53q0 -32 -19 -52.5t-52.5 -30t-77.5 -9.5q-43 0 -79 15t-57 44t-21 73q0 87 68.5 132t183.5 65q18 3 37.5 7.5t40.5 9.5t40 10
q79 15 125.5 37t46.5 63q0 39 -35.5 63t-76.5 24q-8 0 -15.5 -1t-12.5 -2q28 -11 41.5 -30t13.5 -40q0 -33 -24.5 -51t-62.5 -18q-39 0 -62.5 19.5t-23.5 52.5q0 27 14.5 47t43.5 31t72 11z" />
    <glyph glyph-name="quotesingle" unicode="'" horiz-adv-x="215" 
d="M108 730q31 0 51.5 -19.5t20.5 -53.5q0 -29 -9.5 -54t-24.5 -55.5t-31 -79.5h-14q-15 46 -30.5 77t-25 56.5t-9.5 54.5q0 34 21 54t51 20z" />
    <glyph glyph-name="parenleft" unicode="(" horiz-adv-x="326" 
d="M292 806q-125 -86 -192.5 -206.5t-67.5 -287.5t67.5 -287.5t192.5 -206.5l15 12q-62 109 -90.5 223.5t-28.5 258.5t29 260t90 222z" />
    <glyph glyph-name="parenright" unicode=")" horiz-adv-x="326" 
d="M34 806q125 -86 192.5 -206.5t67.5 -287.5t-67.5 -287.5t-192.5 -206.5l-15 12q62 109 90.5 223.5t28.5 258.5t-29 260t-90 222z" />
    <glyph glyph-name="asterisk" unicode="*" horiz-adv-x="477" 
d="M348 643q26 15 45 6.5t28 -25.5q10 -18 8 -38t-28 -35q-25 -14 -64 -18.5t-97 -15.5l-2 3q37 43 61.5 76t48.5 47zM240 520q55 -10 96 -15t65 -19q26 -15 28.5 -35.5t-7.5 -37.5q-10 -18 -28.5 -26t-44.5 7q-25 14 -48.5 46t-61.5 77zM241 518q18 -53 34.5 -90.5
t16.5 -66.5q0 -30 -17 -42t-36 -12q-20 0 -36 12t-16 42q0 29 15.5 65t35.5 91zM238 518l2 -2q-37 -43 -61.5 -76t-48.5 -47q-26 -15 -45 -6.5t-28 25.5q-11 18 -8.5 37.5t28.5 35.5q25 14 64 18.5t97 14.5zM129 642q25 -14 48.5 -45.5t61.5 -77.5l-1 -3q-55 10 -96 15.5
t-65 18.5q-26 15 -28 35.5t7 37.5q10 18 28.5 26t44.5 -7zM239 729q19 0 35.5 -12t16.5 -42q0 -28 -16 -64.5t-35 -92.5h-3q-19 53 -35 91t-16 66q0 30 16.5 42t36.5 12z" />
    <glyph glyph-name="plus" unicode="+" horiz-adv-x="569" 
d="M303 606v-236h232v-30h-232v-235h-36v235h-233v30h233v236h36z" />
    <glyph glyph-name="comma" unicode="," horiz-adv-x="275" 
d="M133 149q25 0 44.5 -9.5t30.5 -26.5q11 -14 17.5 -38t6.5 -51q0 -50 -26 -93.5t-80 -68.5l-9 18q27 12 48.5 35.5t26.5 49.5q8 25 2 48q-24 -27 -66 -27q-37 0 -60 21.5t-23 60.5q0 36 24.5 58.5t63.5 22.5z" />
    <glyph glyph-name="hyphen" unicode="-" horiz-adv-x="475" 
d="M418 316v-90h-361v90h361z" />
    <glyph glyph-name="period" unicode="." horiz-adv-x="276" 
d="M138 149q43 0 67.5 -21t24.5 -60q0 -40 -24.5 -61t-67.5 -21q-44 0 -68 21t-24 61q0 39 24 60t68 21z" />
    <glyph glyph-name="slash" unicode="/" horiz-adv-x="367" 
d="M337 722l-272 -736h-33l272 736h33z" />
    <glyph glyph-name="zero" unicode="0" horiz-adv-x="660" 
d="M335 532q83 0 146.5 -32.5t99.5 -92t36 -139.5t-36.5 -144t-102.5 -101t-154 -37q-80 0 -144 33t-101 92.5t-37 140.5q0 79 36.5 142t102.5 100.5t154 37.5zM327 514q-51 0 -83.5 -68.5t-32.5 -190.5q0 -90 17 -145.5t45 -80.5t60 -25q51 0 83 69.5t32 191.5
q0 90 -17 144.5t-44 79.5t-60 25z" />
    <glyph glyph-name="one" unicode="1" horiz-adv-x="388" 
d="M292 529v-434q0 -43 14.5 -58.5t49.5 -15.5v-21q-20 1 -58.5 2.5t-79.5 1.5q-53 0 -102 -1.5t-76 -2.5v21q43 0 66.5 16.5t23.5 65.5v245q0 48 -8 71t-28 30t-56 7v22q91 2 150 13t104 38z" />
    <glyph glyph-name="two" unicode="2" horiz-adv-x="538" 
d="M285 532q80 0 126.5 -33t46.5 -94q0 -48 -30.5 -85.5t-75.5 -68.5t-91 -59.5t-77 -58.5h221q41 0 52 9.5t15 33.5h22q0 -71 1 -111t3 -70q-13 3 -58.5 4t-90.5 1h-310v20q28 28 68.5 63.5t80 79.5t66.5 95t27 110q0 52 -23 76t-68 24q-43 0 -75.5 -18.5t-58.5 -53.5
l-17 11q33 52 90 88.5t156 36.5z" />
    <glyph glyph-name="three" unicode="3" horiz-adv-x="500" 
d="M253 532q77 0 128.5 -30.5t51.5 -84.5q0 -38 -26 -71t-75.5 -58t-119.5 -36q75 3 133 -13.5t91 -52t33 -87.5q0 -58 -39.5 -104t-104.5 -78.5t-143 -50t-155 -17.5v20q45 2 93 17t89.5 44t67 71t25.5 97q0 59 -28 96.5t-77 41.5l-27.5 -11t-25.5 -5q-19 0 -19 15
q0 12 10 17t24 5q8 0 16.5 -1t18.5 -2q43 30 60 63.5t17 67.5q0 44 -24 65.5t-66 21.5q-38 0 -72.5 -18.5t-57.5 -55.5l-17 9q19 33 46.5 61.5t69.5 46t103 17.5z" />
    <glyph glyph-name="four" unicode="4" horiz-adv-x="539" 
d="M394 532l4 -26l-322 -401l18 40h323q41 0 52 9.5t15 33.5h22q0 -64 1 -99.5t3 -63.5q-9 2 -41 3t-71 1.5t-69 0.5h-324v21zM410 532v-673h-128v520l112 153h16z" />
    <glyph glyph-name="five" unicode="5" horiz-adv-x="474" 
d="M402 552q0 -69 1 -107.5t3 -67.5q-13 3 -55 4t-84 1h-170l-18 -164q26 18 66.5 30.5t96.5 12.5q104 0 152.5 -46.5t48.5 -112.5q0 -58 -36.5 -104t-97.5 -79t-135 -50t-149 -17v18q63 1 120 27t94 77t37 123q0 62 -28 95.5t-83 33.5q-30 0 -51.5 -9t-41.5 -24l-15 10
l36 318q11 -2 25.5 -3t28.5 -1h182q26 0 37 8t14 27h22z" />
    <glyph glyph-name="six" unicode="6" horiz-adv-x="576" 
d="M464 723l4 -20q-47 -15 -92 -39.5t-81.5 -70.5t-58.5 -125.5t-22 -204.5q0 -97 13 -153.5t33 -80t40 -23.5q31 0 55.5 48.5t24.5 161.5q0 107 -23 151.5t-55 44.5q-15 0 -34.5 -10t-36 -32t-23.5 -60l-10 7q7 46 29 73t53.5 39t66.5 12q56 0 101.5 -26t73 -74.5
t27.5 -115.5q0 -77 -36 -130.5t-95 -81t-129 -27.5q-114 0 -179 74.5t-65 210.5q0 90 27 160t72 121.5t100 86.5t112.5 55.5t107.5 28.5z" />
    <glyph glyph-name="seven" unicode="7" horiz-adv-x="472" 
d="M22 522q14 -3 59 -4t90 -1h302v-21q-19 -43 -48.5 -94t-59.5 -111t-49.5 -129t-19.5 -148q0 -3 1.5 -19.5t2.5 -34.5t1 -27q0 -30 -20 -55.5t-62 -25.5t-62 27.5t-20 70.5q0 52 20.5 103t54.5 101t72 98t74.5 91.5t61.5 80.5l-20 -41h-285q-41 0 -52 -9.5t-15 -33.5h-22
q0 71 -1 111.5t-3 70.5z" />
    <glyph glyph-name="eight" unicode="8" horiz-adv-x="574" 
d="M294 722q92 0 149.5 -39.5t57.5 -101.5q0 -51 -39.5 -88t-111.5 -71l-8 14q18 28 24.5 69.5t6.5 68.5q0 62 -23 96t-63 34q-31 0 -47.5 -21t-16.5 -54q0 -41 23 -78.5t58.5 -72.5t75.5 -69.5t75.5 -71t58.5 -76.5t23 -87q0 -55 -33 -97t-90.5 -66.5t-131.5 -24.5
q-64 0 -119.5 19.5t-89 58t-33.5 94.5q0 70 50.5 116.5t123.5 75.5l8 -14q-26 -32 -36 -74.5t-10 -84.5q0 -47 10.5 -86.5t34.5 -63t66 -23.5q47 0 70 28.5t23 71.5q0 46 -22.5 83.5t-57 71.5t-74 67t-74 67.5t-57 74.5t-22.5 89q0 57 31.5 93.5t82 54t107.5 17.5z" />
    <glyph glyph-name="nine" unicode="9" horiz-adv-x="567" 
d="M285 532q114 0 179.5 -73.5t65.5 -207.5q0 -79 -26.5 -142t-71 -109t-98.5 -78t-110 -50.5t-105 -24.5l-4 20q45 13 88.5 35t79 63.5t57 112t21.5 181.5q0 96 -13.5 151t-33 78.5t-40.5 23.5q-30 0 -54.5 -48t-24.5 -162q0 -107 22.5 -151.5t54.5 -44.5q16 0 35 10
t36 32.5t24 59.5l9 -7q-5 -45 -27.5 -72.5t-54.5 -39.5t-67 -12q-54 0 -100 26.5t-73.5 75t-27.5 114.5q0 78 36 131t94.5 80.5t128.5 27.5z" />
    <glyph glyph-name="colon" unicode=":" horiz-adv-x="298" 
d="M149 532q43 0 67.5 -21t24.5 -60q0 -40 -24.5 -61t-67.5 -21q-44 0 -68 21t-24 61q0 39 24 60t68 21zM149 149q43 0 67.5 -21t24.5 -60q0 -40 -24.5 -61t-67.5 -21q-44 0 -68 21t-24 61q0 39 24 60t68 21z" />
    <glyph glyph-name="semicolon" unicode=";" horiz-adv-x="300" 
d="M145 149q25 0 44.5 -9.5t30.5 -26.5q11 -14 17.5 -38t6.5 -51q0 -50 -26 -93.5t-80 -68.5l-9 18q27 12 48.5 35.5t26.5 49.5q8 25 2 48q-24 -27 -66 -27q-37 0 -60 21.5t-23 60.5q0 36 24.5 58.5t63.5 22.5zM150 532q43 0 67.5 -21t24.5 -60q0 -40 -24.5 -61t-67.5 -21
q-44 0 -68 21t-24 61q0 39 24 60t68 21z" />
    <glyph glyph-name="less" unicode="&#x3c;" horiz-adv-x="600" 
d="M515 582l17 -36l-409 -191l409 -191l-17 -36l-487 227z" />
    <glyph glyph-name="equal" unicode="=" horiz-adv-x="631" 
d="M566 440v-30h-501v30h501zM566 300v-30h-501v30h501z" />
    <glyph glyph-name="greater" unicode="&#x3e;" horiz-adv-x="600" 
d="M85 582l-17 -36l409 -191l-409 -191l17 -36l487 227z" />
    <glyph glyph-name="question" unicode="?" horiz-adv-x="524" 
d="M244 782q111 0 180.5 -48t69.5 -132q0 -85 -73.5 -140.5t-191.5 -81.5v-146h-20v155q53 25 79.5 55t35.5 65t9 74q0 95 -32.5 137t-84.5 42q-28 0 -50 -6t-33 -16q30 -11 45.5 -30.5t15.5 -50.5q0 -33 -24 -55.5t-64 -22.5q-34 0 -55 22.5t-21 52.5q0 33 17 54.5t43 36.5
q25 14 64 24.5t90 10.5zM221 149q42 0 67 -21t25 -60q0 -40 -25 -61t-67 -21q-44 0 -68 21t-24 61q0 39 24 60t68 21z" />
    <glyph glyph-name="at" unicode="@" horiz-adv-x="886" 
d="M534 668q90 0 162.5 -28t115 -88.5t42.5 -158.5q0 -84 -27.5 -152t-72.5 -116t-97 -73.5t-101 -25.5q-38 0 -56.5 14t-22.5 35.5t0.5 45.5t10.5 46l60 297q35 0 71.5 3t67.5 11l-77 -359q-7 -31 -4.5 -48.5t27.5 -7.5q32 12 66.5 39.5t65 69t50 97.5t19.5 125
q0 93 -41 149t-109 81.5t-149 25.5q-93 0 -178 -40.5t-151 -110.5t-104.5 -161t-38.5 -193q0 -103 40.5 -166.5t110 -92.5t157.5 -29q54 0 105.5 12.5t100.5 41.5l7 -13q-37 -26 -92 -42.5t-122 -16.5q-95 0 -168.5 32t-116 99t-42.5 173q0 101 38 195t105.5 168.5
t156.5 118t191 43.5zM460 478q33 0 52 -16.5t26 -41.5t2 -51l-11 -8q3 15 0.5 33t-12 31.5t-26.5 13.5q-22 0 -44.5 -24t-41.5 -64.5t-30.5 -90t-11.5 -101.5q0 -45 9.5 -62t27.5 -17q31 0 56 39.5t47 111.5l5 -16q-19 -72 -44.5 -113.5t-57 -58.5t-66.5 -17q-51 0 -85.5 32
t-34.5 101q0 52 19 108t52.5 103.5t76.5 77.5t92 30z" />
    <glyph glyph-name="A" unicode="A" horiz-adv-x="680" 
d="M383 709l242 -625q15 -35 31.5 -49t29.5 -15v-20q-32 2 -76.5 2.5t-90.5 0.5q-48 0 -91 -0.5t-69 -2.5v20q51 2 65 17.5t-6 66.5l-166 454l20 30l-146 -377q-30 -80 -29.5 -120.5t25 -54.5t64.5 -16v-20q-35 2 -64.5 2.5t-63.5 0.5q-20 0 -40.5 -0.5t-35.5 -2.5v20
q22 4 44.5 28t44.5 83l225 578q20 -2 43.5 -2t43.5 2zM435 288v-20h-298l10 20h288z" />
    <glyph glyph-name="B" unicode="B" horiz-adv-x="688" 
d="M31 708q27 -1 72 -2t90 -1q49 0 94.5 1t64.5 1q130 0 194.5 -44t64.5 -113q0 -35 -23 -71.5t-70.5 -65t-121.5 -39.5v-2q98 -6 156.5 -33.5t84.5 -65.5t26 -79q0 -97 -77 -145.5t-211 -48.5q-24 0 -70 1.5t-110 1.5q-47 0 -92 -0.5t-72 -2.5v20q31 2 46.5 8t21 24t5.5 54
v496q0 37 -5.5 54.5t-21 24t-46.5 7.5v20zM343 688q-37 0 -47.5 -17t-10.5 -69v-496q0 -52 13 -67.5t54 -15.5q64 0 93.5 45.5t29.5 129.5q0 77 -37.5 119t-124.5 42h-79v8.5v8.5h86q43 0 66 22.5t32 60t9 80.5q0 74 -19.5 111.5t-64.5 37.5z" />
    <glyph glyph-name="C" unicode="C" horiz-adv-x="711" 
d="M405 722q66 0 108.5 -19.5t75.5 -45.5q20 -15 30.5 -3.5t14.5 54.5h23q-2 -39 -3 -96t-1 -150h-23q-4 47 -12.5 82t-24.5 62t-46 48q-23 19 -51.5 29.5t-58.5 10.5q-55 0 -92.5 -30.5t-60 -80t-32 -110t-9.5 -121.5q0 -62 10 -122.5t32.5 -109.5t60.5 -78.5t93 -29.5
q29 0 57.5 10t51.5 29q44 30 59.5 78.5t22.5 126.5h23q0 -97 1 -156.5t3 -99.5h-23q-4 43 -13.5 54t-31.5 -3q-37 -26 -78.5 -45.5t-106.5 -19.5q-109 0 -191.5 43t-128 124t-45.5 195q0 112 47 196t129.5 131t189.5 47z" />
    <glyph glyph-name="D" unicode="D" horiz-adv-x="793" 
d="M352 708q204 0 302.5 -89.5t98.5 -256.5q0 -109 -48.5 -190.5t-140.5 -126.5t-221 -45q-24 0 -69 1.5t-79 1.5q-47 0 -92 -0.5t-72 -2.5v20q31 2 46.5 8t21 24t5.5 54v496q0 37 -5.5 54.5t-21 24t-46.5 7.5v20q27 -1 72 -2.5t90 -0.5q36 1 82 2t77 1zM359 690
q-46 0 -60 -17t-14 -69v-500q0 -52 14.5 -69t60.5 -17q76 0 121 39.5t64.5 115.5t19.5 185q0 168 -48.5 250t-157.5 82z" />
    <glyph glyph-name="E" unicode="E" horiz-adv-x="642" 
d="M578 708q-4 -47 -5.5 -91t-1.5 -67q0 -20 1 -38.5t2 -31.5h-23q-11 78 -35.5 123t-60 63.5t-78.5 18.5h-27q-28 0 -42 -4.5t-18.5 -18.5t-4.5 -44v-528q0 -29 4.5 -43.5t18.5 -19t42 -4.5h41q39 0 74.5 20.5t63.5 70t42 134.5h23q-3 -34 -3 -88q0 -24 1 -68t6 -92
q-51 2 -115 2.5t-114 0.5h-93.5t-123.5 -0.5t-121 -2.5v20q31 2 46.5 8t21 24t5.5 54v496q0 37 -5.5 54.5t-21 24t-46.5 7.5v20q56 -1 121 -2t123.5 -1h93.5q46 0 104.5 0.5t104.5 2.5zM427 366v-10v-10h-172v10v10h172zM456 498q-4 -57 -3.5 -87t0.5 -55t1 -55t5 -87h-23
q-5 36 -21 66t-43 48t-66 18v20q39 0 65 21.5t41.5 52t20.5 58.5h23z" />
    <glyph glyph-name="F" unicode="F" horiz-adv-x="600" 
d="M578 708q-4 -48 -5.5 -92t-1.5 -68q0 -22 1 -41t2 -33h-23q-15 80 -41.5 126.5t-61 65.5t-75.5 19h-23q-27 0 -41.5 -4.5t-19 -18.5t-4.5 -44v-504q0 -40 8 -59.5t32 -25.5t69 -7v-22q-33 1 -85 2t-109 1q-45 0 -88.5 -1t-80.5 -2v20q31 2 46.5 8t21 24t5.5 54v496
q0 37 -5.5 54.5t-21 24t-46.5 7.5v20q56 -1 121 -2t123.5 -1h93.5q46 0 104.5 0.5t104.5 2.5zM431 364v-10v-10h-176v10v10h176zM458 496q-4 -57 -3.5 -87t0.5 -55t1 -55t5 -87h-23q-6 36 -22 66t-42.5 48t-66.5 18v20q40 0 65.5 21.5t41 52t21.5 58.5h23z" />
    <glyph glyph-name="G" unicode="G" horiz-adv-x="745" 
d="M414 722q69 0 113 -19t79 -46q11 -9 20 -9q19 0 25 60h23q-2 -39 -3 -96t-1 -150h-23q-7 66 -23 112.5t-61 79.5q-23 19 -54.5 29.5t-62.5 10.5q-56 0 -94.5 -30.5t-62.5 -80t-34.5 -110t-10.5 -121.5q0 -180 46.5 -263t129.5 -83q20 0 35 4.5t25 11.5q13 9 18 21t5 30
v99q0 47 -8 70.5t-29.5 32t-63.5 9.5v20q22 -1 53 -1.5t65 -1t63 -0.5q45 0 82.5 1t61.5 2v-20q-27 -2 -35 -16t-8 -70v-198h-20q-1 17 -8 37t-23 20q-7 0 -20 -4t-41 -18q-37 -20 -79.5 -34.5t-86.5 -14.5q-181 0 -273.5 95.5t-92.5 265.5q0 113 48 197t132.5 131t193.5 47
z" />
    <glyph glyph-name="H" unicode="H" horiz-adv-x="815" 
d="M457 0v20q31 2 46.5 8t21 24t5.5 54v496q0 37 -5.5 54.5t-21 24t-46.5 7.5v20q29 -1 75 -2t92 -1q49 0 91.5 1t68.5 2v-20q-31 -1 -47 -7.5t-21 -24t-5 -54.5v-496q0 -36 5.5 -54t21 -24t46.5 -8v-20q-26 2 -68.5 2.5t-91.5 0.5q-46 0 -92 -0.5t-75 -2.5zM31 0v20
q31 2 46.5 8t21 24t5.5 54v496q0 37 -5.5 54.5t-21 24t-46.5 7.5v20q27 -1 72 -2t96 -1q44 0 87.5 1t71.5 2v-20q-31 -1 -47 -7.5t-21 -24t-5 -54.5v-496q0 -36 5.5 -54t21 -24t46.5 -8v-20q-28 2 -71.5 2.5t-87.5 0.5q-51 0 -96 -0.5t-72 -2.5zM210 346v20h395v-20h-395z
" />
    <glyph glyph-name="I" unicode="I" horiz-adv-x="389" 
d="M358 708v-20q-31 -1 -47 -7.5t-21 -24t-5 -54.5v-496q0 -36 5.5 -54t21 -24t46.5 -8v-20q-28 2 -71.5 2.5t-87.5 0.5q-51 0 -96 -0.5t-72 -2.5v20q31 2 46.5 8t21 24t5.5 54v496q0 37 -5.5 54.5t-21 24t-46.5 7.5v20q27 -1 72 -2t96 -1q44 0 87.5 1t71.5 2z" />
    <glyph glyph-name="J" unicode="J" horiz-adv-x="377" 
d="M-24 -188v21q38 4 65.5 23t42.5 66t15 132v548q0 37 -5.5 54.5t-21.5 24t-46 7.5v20q25 -1 68 -2t90 -1q48 0 93.5 1t75.5 2v-20q-31 -1 -47 -7.5t-21 -24t-5 -54.5v-366v-88.5t-3.5 -92.5t-13.5 -80q-21 -69 -92 -116t-195 -47z" />
    <glyph glyph-name="K" unicode="K" horiz-adv-x="734" 
d="M714 708v-19q-33 -8 -72 -30.5t-83 -72.5l-185 -216l69 94l237 -383q14 -22 28.5 -36t38.5 -25v-20q-39 2 -84 2.5t-84 0.5q-22 0 -54 -0.5t-81 -2.5v20q44 2 52 11t-7 34l-146 240q-12 21 -21.5 31t-18.5 14.5t-24 5.5v20q44 2 81 27t84 80l47 55q40 46 44.5 79t-17 52
t-60.5 20v19q40 -1 74 -2t84 -1q60 0 98 3zM358 708v-20q-31 -1 -47 -7.5t-21 -24t-5 -54.5v-496q0 -36 5.5 -54t21 -24t46.5 -8v-20q-28 2 -71.5 2.5t-87.5 0.5q-51 0 -96 -0.5t-72 -2.5v20q31 2 46.5 8t21 24t5.5 54v496q0 37 -5.5 54.5t-21 24t-46.5 7.5v20q27 -1 72 -2
t96 -1q44 0 87.5 1t71.5 2z" />
    <glyph glyph-name="L" unicode="L" horiz-adv-x="618" 
d="M366 708v-20q-34 -1 -51.5 -7.5t-23.5 -24t-6 -54.5v-512q0 -29 4.5 -43.5t16.5 -19t36 -4.5h41q40 0 79.5 31.5t69 85t39.5 118.5h23q-3 -35 -3 -90q0 -25 1 -71.5t6 -96.5q-51 2 -115 2.5t-114 0.5h-93.5t-123.5 -0.5t-121 -2.5v20q31 2 46.5 8t21 24t5.5 54v496
q0 37 -5.5 54.5t-21 24t-46.5 7.5v20q27 -1 72 -2t96 -1q47 0 92 1t75 2z" />
    <glyph glyph-name="M" unicode="M" horiz-adv-x="946" 
d="M915 708v-20q-30 -1 -46 -7.5t-21.5 -24t-5.5 -54.5v-496q0 -36 6 -54t21.5 -24t45.5 -8v-20q-29 2 -74.5 2.5t-92.5 0.5q-51 0 -95.5 -0.5t-72.5 -2.5v20q34 2 51.5 8t23.5 24t6 54v538l9 1l-250 -645h-16l-276 643v-463q0 -61 6 -93.5t27 -46.5t66 -20v-20
q-19 2 -50.5 2.5t-59.5 0.5q-22 0 -45.5 -0.5t-39.5 -2.5v20q32 6 47.5 19.5t20.5 43t5 81.5v438q0 37 -5 54.5t-21 24t-47 7.5v20q16 -1 39.5 -2t45.5 -1q51 0 98 1t85 2l204 -476l-28 -28l193 501h39.5h39.5q47 0 92.5 1t74.5 2z" />
    <glyph glyph-name="N" unicode="N" horiz-adv-x="727" 
d="M700 708v-20q-30 -5 -46 -19t-21.5 -43t-5.5 -82v-545q-13 2 -28 2t-32 -2l-439 517v-336q0 -61 6 -93.5t27 -46.5t66 -20v-20q-19 2 -50.5 2.5t-59.5 0.5q-22 0 -45.5 -0.5t-39.5 -2.5v20q32 6 47.5 19.5t20.5 43t5 81.5v438q0 37 -5 54.5t-21 24t-47 7.5v20
q16 -1 39.5 -2t45.5 -1q25 0 48 1t42 2l397 -454v274q0 61 -5.5 93.5t-26 47t-67.5 19.5v20q20 -1 51.5 -2t58.5 -1q24 0 47 1t38 2z" />
    <glyph glyph-name="O" unicode="O" horiz-adv-x="810" 
d="M405 722q110 0 192 -43t127.5 -123.5t45.5 -195.5q0 -112 -46.5 -196t-129.5 -131t-190 -47q-109 0 -191.5 43t-128 124t-45.5 195q0 112 47.5 196t129.5 131t189 47zM401 704q-53 0 -92 -45t-60.5 -124t-21.5 -183q0 -106 24.5 -184.5t65.5 -121t91 -42.5q53 0 92.5 45
t60.5 124.5t21 182.5q0 107 -24 185t-65.5 120.5t-91.5 42.5z" />
    <glyph glyph-name="P" unicode="P" horiz-adv-x="659" 
d="M31 708q27 -1 72 -2t90 -1q49 0 94.5 1t64.5 1q146 0 217.5 -55t71.5 -142q0 -36 -14.5 -75.5t-49 -73t-95 -54.5t-152.5 -21h-104v20h94q55 0 83.5 27t39 71t10.5 95q0 95 -25 142t-85 47q-37 0 -47.5 -17t-10.5 -69v-488q0 -40 8 -59.5t32 -25.5t69 -7v-22q-33 1 -85 2
t-109 1q-45 0 -88.5 -1t-80.5 -2v20q31 2 46.5 8t21 24t5.5 54v496q0 37 -5.5 54.5t-21 24t-46.5 7.5v20z" />
    <glyph glyph-name="Q" unicode="Q" horiz-adv-x="810" 
d="M770 24l18 -5q-7 -59 -24.5 -103t-46.5 -67q-22 -17 -55.5 -27t-71.5 -10q-56 0 -109.5 16.5t-107.5 41.5t-113 48q-6 2 -13 4.5t-11 2.5q-19 -10 -41.5 -16.5t-42.5 -6.5t-33.5 6.5t-13.5 21.5q0 29 55 29q35 0 76 -16q37 10 64.5 22.5t56 23.5t69.5 14l1 -16
q-32 -3 -55 -11.5t-46.5 -18.5t-54.5 -19q79 -4 140.5 -7t112 -2.5t94.5 7.5q59 10 93 29.5t59 58.5zM405 722q110 0 192 -43t127.5 -123.5t45.5 -195.5q0 -112 -46.5 -196t-129.5 -131t-190 -47q-109 0 -191.5 43t-128 124t-45.5 195q0 112 47.5 196t129.5 131t189 47z
M401 704q-53 0 -92 -45t-60.5 -124t-21.5 -183q0 -106 24.5 -184.5t65.5 -121t91 -42.5q53 0 92.5 45t60.5 124.5t21 182.5q0 107 -24 185t-65.5 120.5t-91.5 42.5z" />
    <glyph glyph-name="R" unicode="R" horiz-adv-x="706" 
d="M31 708q27 -1 72 -2t90 -1q49 0 94.5 1t64.5 1q146 0 217.5 -44t71.5 -130q0 -36 -14.5 -70.5t-49 -63.5t-95 -46t-152.5 -17h-96v20h86q55 0 83.5 22.5t39 60t10.5 83.5q0 79 -25 122.5t-85 43.5q-37 0 -47.5 -17t-10.5 -69v-496q0 -36 5.5 -54t21 -24t46.5 -8v-20
q-28 2 -71.5 2.5t-87.5 0.5q-51 0 -96 -0.5t-72 -2.5v20q31 2 46.5 8t21 24t5.5 54v496q0 37 -5.5 54.5t-21 24t-46.5 7.5v20zM230 353q39 -1 71 -4t57.5 -5.5t44.5 -3.5q99 -6 147.5 -37.5t61.5 -93.5l21 -104q9 -38 19 -53.5t28 -14.5q11 0 19 4.5t16 13.5l14 -13
q-29 -31 -63 -43.5t-79 -12.5q-59 0 -96.5 23t-47.5 85l-17 100q-6 41 -15.5 73t-25.5 50.5t-45 18.5h-108z" />
    <glyph glyph-name="S" unicode="S" horiz-adv-x="598" 
d="M293 721q62 0 96 -12.5t58 -26.5q12 -7 19.5 -10.5t14.5 -3.5q16 0 22 44h23q-1 -20 -2.5 -47t-2 -71.5t-0.5 -117.5h-23q-4 54 -25 104t-57.5 83t-89.5 33q-46 0 -76 -25.5t-30 -72.5q0 -38 19 -65.5t57.5 -55.5t97.5 -69q47 -31 84 -62t59.5 -70t22.5 -94
q0 -66 -36 -109.5t-95 -65t-129 -21.5q-65 0 -103.5 12t-65.5 25q-22 14 -34 14q-16 0 -22 -44h-23q2 25 2.5 58.5t1 86.5t0.5 135h23q4 -68 22.5 -127t57 -95.5t102.5 -36.5q54 0 88 27t34 78q0 62 -41.5 103t-106.5 84q-47 31 -88 63t-65.5 71.5t-24.5 95.5q0 64 33 105
t87.5 60.5t115.5 19.5z" />
    <glyph glyph-name="T" unicode="T" horiz-adv-x="683" 
d="M659 708q-4 -55 -5.5 -106t-1.5 -78q0 -22 1 -41t2 -33h-23q-20 89 -48 140.5t-63.5 73t-76.5 21.5h-12v-571q0 -41 8.5 -61t32 -26.5t68.5 -6.5v-20q-33 1 -88.5 2t-115.5 1q-59 0 -111 -1t-84 -2v20q45 0 69 6.5t32 26.5t8 61v571h-11q-42 0 -77 -21.5t-63 -72.5
t-49 -141h-23q2 14 2.5 33t0.5 41q0 27 -1.5 78t-5.5 106q47 -1 103.5 -2t112.5 -1h102h102.5t112.5 1t102 2z" />
    <glyph glyph-name="U" unicode="U" horiz-adv-x="691" 
d="M676 708v-20q-31 -5 -47 -19t-21 -43t-5 -82v-253q0 -64 -8.5 -118t-32.5 -94q-26 -43 -77 -68t-132 -25q-46 0 -95.5 10.5t-88.5 38.5q-33 26 -50.5 61t-23.5 82.5t-6 109.5v314q0 37 -5.5 54.5t-21 24t-46.5 7.5v20q27 -1 72 -2t94 -1t94 1t75 2v-20q-34 -1 -51.5 -7.5
t-23.5 -24t-6 -54.5v-393q0 -66 13 -107.5t42 -61t76 -19.5q69 0 108 32.5t55 91.5t16 135v248q0 61 -6 93.5t-27 47t-66 19.5v20q19 -1 50.5 -2t59.5 -1q23 0 46.5 1t38.5 2z" />
    <glyph glyph-name="V" unicode="V" horiz-adv-x="680" 
d="M691 708v-20q-22 -10 -48 -39.5t-47 -89.5l-203 -560q-10 1 -21.5 1.5t-22.5 0.5t-22.5 -0.5t-21.5 -1.5l-258 625q-14 36 -30.5 49.5t-30.5 14.5v20q33 -1 77.5 -2t89.5 -1q49 0 91.5 1t68.5 2v-20q-48 -2 -64 -16.5t6 -67.5l181 -453l-22 -28l126 346q29 81 30 128.5
t-21 68.5t-62 22v20q36 -1 65.5 -2t62.5 -1q21 0 41 1t35 2z" />
    <glyph glyph-name="W" unicode="W" horiz-adv-x="989" 
d="M996 708v-20q-22 -10 -47 -39t-43 -90l-173 -560q-10 1 -21 1.5t-23 0.5q-10 0 -21.5 -0.5t-21.5 -1.5l-210 639q-9 28 -22.5 38.5t-30.5 11.5v20q31 -1 73 -2t85 -1q45 0 85 1t65 2v-20q-31 -1 -48 -7t-19.5 -23.5t9.5 -53.5l139 -425l-26 -51l107 341q26 82 25 129.5
t-23.5 68t-63.5 21.5v20q37 -1 66.5 -2t61.5 -1q21 0 41.5 1t35.5 2zM278 708v-20q-19 -3 -26 -16t-4.5 -31.5t8.5 -36.5l151 -435l-27 -39l124 349l14 -28l-155 -452q-10 1 -21.5 1.5t-22.5 0.5t-22 -0.5t-21 -1.5l-228 625q-13 36 -30 49.5t-31 14.5v20q32 -1 77 -2t86 -1
t74 1t54 2z" />
    <glyph glyph-name="X" unicode="X" horiz-adv-x="710" 
d="M318 709v-21q-44 0 -57 -8t1 -28l404 -581q19 -28 31 -38t32 -12v-21q-23 1 -66 2.5t-88 1.5q-48 0 -96 -1.5t-72 -2.5v21q44 0 57.5 7t-0.5 27l-402 583q-20 29 -31.5 39t-31.5 11v21q23 -1 69 -2.5t93 -1.5q45 0 89 1.5t68 2.5zM311 353l4 -13l4 -13l-93 -122
q-41 -53 -47.5 -94t16 -64.5t67.5 -26.5v-20q-19 1 -52 1.5t-65 1t-49 0.5q-62 0 -94 -3v20q36 14 75 47t80 85zM676 708v-20q-34 -11 -68.5 -42t-62.5 -67l-163 -208l-3.5 12.5l-3.5 12.5l99 129q58 70 48 114.5t-70 48.5v20q29 -1 67 -2t62 -1q62 0 95 3z" />
    <glyph glyph-name="Y" unicode="Y" horiz-adv-x="633" 
d="M626 709v-20q-22 -10 -46.5 -38.5t-53.5 -85.5l-185 -366h-57l-234 433q-17 33 -32 44.5t-26 11.5v21q29 -3 60 -4.5t68 -1.5q48 0 103 2t101 4v-21q-25 0 -45.5 -3t-29 -12t1.5 -30l155 -297l-39 -51l94 188q39 77 42.5 121.5t-19 64t-62.5 20.5v20q36 -1 65.5 -2
t62.5 -1q21 0 41 1t35 2zM420 375v-269q0 -36 5.5 -54t21 -24t46.5 -8v-20q-28 2 -73.5 2.5t-89.5 0.5q-49 0 -93.5 -0.5t-70.5 -2.5v20q31 2 46.5 8t21 24t5.5 54v205l98 -62z" />
    <glyph glyph-name="Z" unicode="Z" horiz-adv-x="604" 
d="M559 708v-20l-322 -665h72q31 0 66.5 11.5t69.5 37.5t59 69.5t32 108.5h23q-3 -35 -3 -90q0 -24 1 -68t6 -92q-55 2 -124.5 2.5t-124.5 0.5q-66 0 -139 -0.5t-137 -2.5v20l323 665h-79q-45 0 -90 -19t-78 -64.5t-44 -127.5h-23q2 14 2.5 33t0.5 41q0 24 -1.5 68t-5.5 92
q49 -2 109 -2.5t108 -0.5q71 0 150 0.5t149 2.5z" />
    <glyph glyph-name="bracketleft" unicode="[" horiz-adv-x="331" 
d="M292 772v-19h-49v-915h49v-19h-211v953h211z" />
    <glyph glyph-name="backslash" unicode="\" horiz-adv-x="367" 
d="M30 722l272 -736h33l-272 736h-33z" />
    <glyph glyph-name="bracketright" unicode="]" horiz-adv-x="331" 
d="M39 772v-19h49v-915h-49v-19h211v953h-211z" />
    <glyph glyph-name="asciicircum" unicode="^" horiz-adv-x="526" 
d="M272 528q32 -58 86 -114.5t117 -93.5l-8 -14q-65 13 -125.5 33t-98.5 39q-30 -19 -80.5 -39t-103.5 -33l-8 14q63 36 117 92.5t86 115.5h18z" />
    <glyph glyph-name="underscore" unicode="_" horiz-adv-x="613" 
d="M558 -24v-120h-503v120h503z" />
    <glyph glyph-name="grave" unicode="`" horiz-adv-x="300" 
d="M70 819q21 18 47.5 13.5t42.5 -23.5q18 -20 27 -46t21.5 -63t41.5 -92l-11 -9q-45 40 -77.5 62t-55.5 37.5t-39 34.5q-17 21 -16.5 45.5t19.5 40.5z" />
    <glyph glyph-name="a" unicode="a" horiz-adv-x="524" 
d="M153 -7q-67 0 -97.5 35.5t-30.5 85.5q0 42 19.5 69.5t50.5 44.5t65 28.5t65 23t50 26t19 37.5v83q0 22 -6.5 41.5t-23 32t-45.5 12.5q-18 0 -35 -5t-30 -16q32 -11 47.5 -33t15.5 -49q0 -37 -25.5 -58.5t-60.5 -21.5q-38 0 -58.5 24t-20.5 58q0 30 15 50.5t44 37.5t70 25
t87 8q47 0 86.5 -9.5t67.5 -37.5q22 -23 28 -56t6 -84v-270q0 -25 4.5 -34.5t14.5 -9.5t18 5t15 11l11 -17q-22 -18 -52 -27.5t-65 -9.5q-62 0 -83 24t-22 55q-23 -37 -58 -58t-86 -21zM242 65q15 0 27.5 6.5t24.5 22.5v208q-11 -19 -29 -32.5t-36.5 -29t-31 -38.5
t-12.5 -61q0 -41 16.5 -58.5t40.5 -17.5z" />
    <glyph glyph-name="b" unicode="b" horiz-adv-x="593" 
d="M381 532q76 0 126.5 -62.5t50.5 -192.5q0 -108 -31.5 -172.5t-84 -91.5t-115.5 -27q-37 0 -68.5 9t-57.5 33l13 10q16 -16 36 -23.5t39 -7.5q51 0 75.5 62.5t24.5 189.5q0 87 -9.5 136t-27 69.5t-41.5 20.5q-31 0 -56.5 -24.5t-27.5 -66.5l-2 42q20 48 61 72t95 24z
M228 782v-773q-29 9 -59 7.5t-55 -10t-40 -22.5l-15 9q5 14 6 28t1 28v613q0 45 -12.5 66.5t-47.5 21.5v21q32 -3 62 -3q46 0 86 3.5t74 10.5z" />
    <glyph glyph-name="c" unicode="c" horiz-adv-x="500" 
d="M285 532q42 0 75 -8.5t54 -21.5q26 -16 42 -41t16 -58q0 -38 -25 -63.5t-63 -25.5q-39 0 -61.5 23t-22.5 59q0 35 22 59t52 32q-8 8 -20.5 13t-29.5 5q-34 0 -57 -19.5t-37.5 -53t-21 -75t-6.5 -85.5q0 -74 19.5 -115.5t49 -58t60.5 -16.5q24 0 59 13t67 61l17 -6
q-11 -39 -37 -77t-67 -62.5t-100 -24.5q-66 0 -119.5 27t-85.5 87t-32 157q0 94 33 154.5t90.5 90.5t128.5 30z" />
    <glyph glyph-name="d" unicode="d" horiz-adv-x="603" 
d="M526 782v-672q0 -45 13.5 -66.5t46.5 -21.5v-21q-31 3 -62 3q-45 0 -85 -3t-75 -11v672q0 45 -12.5 66.5t-47.5 21.5v21q32 -3 62 -3q46 0 86 3.5t74 10.5zM257 532q44 0 76 -12.5t53 -41.5l-12 -10q-13 17 -31.5 25t-38.5 8q-48 0 -74.5 -59.5t-26.5 -182.5
q0 -86 10.5 -135.5t29 -69.5t41.5 -20q31 0 55.5 23.5t25.5 62.5l3 -42q-18 -46 -49.5 -69t-80.5 -23q-58 0 -104.5 29t-73 89.5t-26.5 157.5q0 91 28.5 150.5t79 89.5t115.5 30z" />
    <glyph glyph-name="e" unicode="e" horiz-adv-x="504" 
d="M285 532q88 0 138 -52t50 -171h-321l-1 19h186q2 49 -4 90.5t-19.5 66.5t-35.5 25q-30 0 -51 -43t-26 -146l4 -7q-2 -11 -2 -22.5v-24.5q0 -69 18.5 -110t46.5 -58t58 -17q25 0 59.5 12.5t66.5 60.5l17 -6q-11 -39 -37.5 -76.5t-67.5 -62t-99 -24.5q-66 0 -118 27.5
t-82.5 87t-30.5 155.5q0 95 33 156t90 90.5t128 29.5z" />
    <glyph glyph-name="f" unicode="f" horiz-adv-x="358" 
d="M292 782q38 0 65.5 -9.5t47.5 -25.5q15 -11 25.5 -31.5t10.5 -47.5q0 -29 -21.5 -52t-55.5 -23q-37 0 -60 20.5t-23 56.5q0 27 16 49.5t48 31.5q-3 5 -11 8.5t-21 3.5q-18 0 -30 -6t-20 -17q-10 -13 -14.5 -37t-4.5 -73v-113h107v-20h-107v-394q0 -49 24 -65.5t66 -16.5
v-21q-27 1 -75.5 2.5t-102.5 1.5q-39 0 -77 -1.5t-57 -2.5v21q33 0 46.5 15t13.5 57v404h-64v20h64q0 89 15 135t52 80q22 21 60.5 35.5t82.5 14.5z" />
    <glyph glyph-name="g" unicode="g" horiz-adv-x="562" 
d="M219 -188q-65 0 -114 10.5t-76 31t-27 49.5q0 30 28 54.5t86 38.5l9 -16q-17 -17 -24 -33.5t-7 -32.5q0 -41 37 -63t102 -22q45 0 78 12.5t51 35.5t18 54q0 29 -21.5 49t-86.5 20h-58q-43 0 -74 11t-47.5 31t-16.5 50q0 45 35 76.5t97 58.5l9 -8q-15 -9 -28.5 -21
t-13.5 -32q0 -32 38 -32h103q90 0 147.5 -31.5t57.5 -105.5q0 -50 -32 -92t-98.5 -67.5t-171.5 -25.5zM232 213q-90 0 -148.5 39t-58.5 121q0 83 58.5 121t148.5 38q89 0 148 -38t59 -121q0 -82 -59 -121t-148 -39zM232 231q22 0 35.5 31t13.5 111t-13.5 110.5t-35.5 30.5
q-23 0 -36 -30.5t-13 -110.5t13 -111t36 -31zM391 445l-21 7q16 41 49.5 66.5t73.5 25.5q33 0 49.5 -18t16.5 -47t-15.5 -44.5t-36.5 -15.5q-18 0 -33 12.5t-17 38t18 64.5l6 -6q-37 -13 -56.5 -32t-33.5 -51z" />
    <glyph glyph-name="h" unicode="h" horiz-adv-x="615" 
d="M240 782v-334q25 46 66.5 65t95.5 19q44 0 70.5 -11t40.5 -28q16 -19 23 -49t7 -81v-270q0 -42 13.5 -57t46.5 -15v-21q-19 1 -58.5 2.5t-77.5 1.5q-40 0 -78 -1.5t-58 -2.5v21q28 0 39 15t11 57v318q0 23 -5 39.5t-16.5 25t-33.5 8.5q-35 0 -60.5 -26t-25.5 -68v-297
q0 -42 11.5 -57t38.5 -15v-21q-18 1 -54 2.5t-74 1.5q-40 0 -81.5 -1.5t-62.5 -2.5v21q33 0 46.5 15t13.5 57v569q0 45 -12.5 66.5t-47.5 21.5v21q32 -3 62 -3q46 0 86 3.5t74 10.5z" />
    <glyph glyph-name="i" unicode="i" horiz-adv-x="323" 
d="M157 779q47 0 73.5 -21t26.5 -61t-26.5 -61t-73.5 -21t-73.5 21t-26.5 61t26.5 61t73.5 21zM245 529v-436q0 -42 13.5 -57t46.5 -15v-21q-20 1 -59 2.5t-79 1.5t-81.5 -1.5t-62.5 -2.5v21q33 0 46.5 15t13.5 57v316q0 45 -13 66.5t-47 21.5v21q32 -3 62 -3q45 0 85.5 3.5
t74.5 10.5z" />
    <glyph glyph-name="j" unicode="j" horiz-adv-x="307" 
d="M-22 -188v19q44 1 72.5 33.5t28.5 105.5v439q0 45 -13 66.5t-47 21.5v21q32 -3 62 -3q46 0 86 3.5t74 10.5v-442q0 -85 -16 -136t-55 -87q-25 -23 -71 -37.5t-121 -14.5zM149 779q47 0 73.5 -21t26.5 -61t-26.5 -61t-73.5 -21t-73.5 21t-26.5 61t26.5 61t73.5 21z" />
    <glyph glyph-name="k" unicode="k" horiz-adv-x="597" 
d="M240 782v-689q0 -42 13 -57t45 -15v-21q-19 1 -57 2.5t-78 1.5q-41 0 -82.5 -1.5t-62.5 -2.5v21q33 0 46.5 15t13.5 57v569q0 45 -12.5 66.5t-47.5 21.5v21q32 -3 62 -3q46 0 86 3.5t74 10.5zM570 518v-20q-34 -8 -68 -30.5t-69 -57.5l-56 -57l8 16l166 -296
q10 -17 20.5 -31t25.5 -21v-21q-15 1 -47.5 2.5t-65.5 1.5q-38 0 -76.5 -1.5t-58.5 -2.5v21q20 0 27 9t-2 25l-93 182q-9 17 -19.5 22t-25.5 5v19q17 1 30.5 5t25.5 15l76 73q35 33 35.5 59.5t-22 43.5t-57.5 19v20q28 -1 61.5 -2t57.5 -1q20 0 44.5 0.5t47 1t35.5 1.5z" />
    <glyph glyph-name="l" unicode="l" horiz-adv-x="320" 
d="M241 782v-689q0 -42 13.5 -57t46.5 -15v-21q-19 1 -58 2.5t-80 1.5q-40 0 -81.5 -1.5t-62.5 -2.5v21q33 0 46.5 15t13.5 57v570q0 44 -12.5 65.5t-47.5 21.5v21q32 -3 62 -3q46 0 86 3.5t74 10.5z" />
    <glyph glyph-name="m" unicode="m" horiz-adv-x="910" 
d="M397 532q43 0 69.5 -11t41.5 -28q16 -19 23 -49.5t7 -80.5v-270q0 -42 11.5 -57t40.5 -15v-21q-19 1 -56 2.5t-72 1.5q-38 0 -74 -1.5t-54 -2.5v21q23 0 32.5 15t9.5 57v318q0 23 -4 39.5t-14 25t-29 8.5q-22 0 -41.5 -12t-31 -33.5t-11.5 -48.5v-297q0 -42 9 -57t33 -15
v-21q-17 1 -51 2.5t-69 1.5q-41 0 -82 -1.5t-62 -2.5v21q33 0 46.5 15t13.5 57v316q0 45 -13 66.5t-47 21.5v21q32 -3 62 -3q45 0 85.5 3.5t74.5 10.5v-81q23 45 62.5 64.5t89.5 19.5zM698 532q43 0 69.5 -11t41.5 -28q16 -19 23 -49.5t7 -80.5v-270q0 -42 13.5 -57
t46.5 -15v-21q-20 1 -59.5 2.5t-76.5 1.5q-38 0 -74 -1.5t-54 -2.5v21q23 0 32.5 15t9.5 57v318q0 23 -5 39.5t-16.5 25t-33.5 8.5q-33 0 -58.5 -29t-27.5 -69l-6 50q27 56 71 76t97 20z" />
    <glyph glyph-name="n" unicode="n" horiz-adv-x="619" 
d="M406 532q44 0 70.5 -11t40.5 -28q16 -19 23.5 -49t7.5 -81v-270q0 -42 13.5 -57t46.5 -15v-21q-20 1 -59.5 2.5t-76.5 1.5q-41 0 -79 -1.5t-57 -2.5v21q28 0 39 15t11 57v318q0 23 -5 39.5t-17 25t-34 8.5q-35 0 -60 -26.5t-25 -67.5v-297q0 -42 11 -57t39 -15v-21
q-19 1 -55 2.5t-73 1.5q-41 0 -82 -1.5t-62 -2.5v21q33 0 46.5 15t13.5 57v316q0 45 -13 66.5t-47 21.5v21q32 -3 62 -3q45 0 85.5 3.5t74.5 10.5v-81q24 46 65.5 65t95.5 19z" />
    <glyph glyph-name="o" unicode="o" horiz-adv-x="570" 
d="M285 532q75 0 131.5 -26.5t88 -86.5t31.5 -160t-31.5 -160t-88 -86.5t-131.5 -26.5q-74 0 -130.5 26.5t-88.5 86.5t-32 160t32 160t88.5 86.5t130.5 26.5zM285 512q-35 0 -58.5 -59.5t-23.5 -193.5t23.5 -193.5t58.5 -59.5q36 0 59 59.5t23 193.5t-23 193.5t-59 59.5z
" />
    <glyph glyph-name="p" unicode="p" horiz-adv-x="606" 
d="M241 528v-608q0 -48 23.5 -64t64.5 -16v-21q-27 1 -75 2.5t-101 1.5q-38 0 -75.5 -1.5t-56.5 -2.5v21q32 0 45 14.5t13 55.5v498q0 45 -13 66.5t-47 21.5v21q32 -3 62 -3q46 0 86 3.5t74 10.5zM394 532q75 0 126 -62t51 -188q0 -105 -30.5 -170.5t-83 -95.5t-118.5 -30
q-37 0 -68.5 10.5t-49.5 33.5l10 13q9 -14 25 -21t34 -7q41 0 65.5 28.5t35.5 83.5t11 134q0 87 -10 135.5t-27 68.5t-40 20q-32 0 -57.5 -24.5t-28.5 -66.5l-2 42q21 48 62 72t95 24z" />
    <glyph glyph-name="q" unicode="q" horiz-adv-x="593" 
d="M255 532q41 0 73.5 -8t59.5 -33l-13 -11q-14 17 -33.5 24.5t-39.5 7.5q-49 0 -74 -63t-25 -190q0 -86 10.5 -135.5t29 -69.5t41.5 -20q31 0 55.5 24.5t26.5 65.5l2 -42q-17 -48 -49.5 -72t-79.5 -24q-57 0 -104 28.5t-74 89.5t-27 158q0 91 28 150.5t77.5 89.5t115.5 30z
M519 534l14 -9q-4 -13 -5.5 -27.5t-1.5 -28.5v-559q0 -41 13 -55.5t45 -14.5v-21q-19 1 -56 2.5t-76 1.5q-52 0 -100.5 -1.5t-75.5 -2.5v21q42 0 65 16t23 64v585q29 -7 59.5 -5t56 11.5t39.5 22.5z" />
    <glyph glyph-name="r" unicode="r" horiz-adv-x="474" 
d="M377 532q34 0 54 -14.5t29 -37t9 -44.5q0 -41 -23.5 -66t-61.5 -25q-40 0 -61 18.5t-21 49.5t13.5 51t33.5 34q-15 2 -29 -4q-22 -5 -39 -22.5t-26.5 -40t-9.5 -46.5v-282q0 -48 21.5 -65t68.5 -17v-21q-23 1 -68 2.5t-93 1.5q-43 0 -86.5 -1.5t-64.5 -2.5v21
q33 0 46.5 15t13.5 57v316q0 45 -13 66.5t-47 21.5v21q32 -3 62 -3q45 0 85.5 3.5t74.5 10.5v-82q12 26 31.5 45t45 29.5t55.5 10.5z" />
    <glyph glyph-name="s" unicode="s" horiz-adv-x="467" 
d="M226 532q44 0 76 -10t47 -19q35 -22 42 28h21q-2 -29 -3 -69.5t-1 -108.5h-21q-4 37 -17.5 73t-39.5 59.5t-68 23.5q-27 0 -45.5 -16t-18.5 -44q0 -30 18 -53t46.5 -44t57.5 -45q48 -37 81 -74t33 -96q0 -45 -27 -79t-71 -53t-98 -19q-33 0 -57.5 6.5t-40.5 16.5
q-15 7 -26.5 12t-22.5 7q-10 1 -17 -9t-11 -26h-21q2 32 3 78t1 122h21q6 -54 22.5 -95t44.5 -64.5t66 -23.5q25 0 45 15t20 48q0 44 -28 73.5t-69 64.5q-32 27 -59.5 53t-45 57t-17.5 70q0 45 25.5 76.5t66.5 48t88 16.5z" />
    <glyph glyph-name="t" unicode="t" horiz-adv-x="351" 
d="M240 681v-163h108v-20h-108v-409q0 -25 9 -35.5t27 -10.5q15 0 31.5 10t30.5 34l16 -10q-19 -41 -52.5 -66t-87.5 -25q-33 0 -58.5 8.5t-42.5 25.5q-22 22 -28.5 54.5t-6.5 84.5v339h-80v20h80v125q47 0 86.5 9t75.5 29z" />
    <glyph glyph-name="u" unicode="u" horiz-adv-x="614" 
d="M535 529v-420q0 -45 13.5 -66.5t46.5 -21.5v-21q-31 3 -62 3q-46 0 -85.5 -3t-74.5 -11v81q-24 -45 -65.5 -64.5t-94.5 -19.5q-44 0 -70.5 11t-40.5 29q-16 18 -23 48.5t-7 80.5v254q0 45 -13 66.5t-47 21.5v21q32 -3 62 -3q46 0 86 3.5t74 10.5v-422q0 -23 5 -39t17 -25
t32 -9q35 0 60 27t25 67v281q0 45 -13 66.5t-47 21.5v21q32 -3 62 -3q46 0 86 3.5t74 10.5z" />
    <glyph glyph-name="v" unicode="v" horiz-adv-x="514" 
d="M514 518v-21q-19 -6 -36 -25t-34 -66l-141 -407q-20 2 -40 2t-41 -2l-176 442q-15 38 -31 47t-27 9v21q36 -2 75 -3.5t85 -1.5q31 0 65.5 1.5t64.5 3.5v-21q-19 0 -34.5 -2t-22 -11t0.5 -33l114 -311l-11 -17l67 193q31 91 10.5 134.5t-66.5 46.5v21q22 -2 52 -3t49 -1
t42 1t35 3z" />
    <glyph glyph-name="w" unicode="w" horiz-adv-x="792" 
d="M281 518v-21q-22 0 -37 -2.5t-20.5 -12.5t0.5 -32l92 -297l-15 -18l107 383l21 -10l-143 -509q-20 2 -40.5 2t-40.5 -2l-156 442q-14 40 -30.5 48t-27.5 8v21q36 -3 75 -4.5t85 -1.5q31 0 65.5 2t64.5 4zM794 518v-21q-19 -6 -36.5 -24.5t-33.5 -66.5l-129 -407
q-20 2 -40 2t-41 -2l-133 377l28 142q22 -1 45 -1t45 1l130 -401l-12 17l57 182q28 93 6 135t-71 46v21q14 -1 35 -2t41 -1.5t32 -0.5q19 0 42 1t35 3z" />
    <glyph glyph-name="x" unicode="x" horiz-adv-x="541" 
d="M257 518v-21q-20 0 -28.5 -9t1.5 -25l262 -392q11 -15 24 -31t30 -19v-21q-17 1 -51 2.5t-68 1.5q-38 0 -76.5 -1.5t-57.5 -2.5v21q20 0 28.5 9t-1.5 25l-262 392q-15 24 -27 35.5t-27 14.5v21q19 -1 58 -2.5t77 -1.5q34 0 67.5 1.5t50.5 2.5zM217 235l2.5 -11.5
l2.5 -11.5l-25 -33q-32 -41 -35.5 -76t16.5 -57.5t55 -25.5v-20q-19 1 -49 1.5t-58 1t-46 0.5q-41 0 -69 -3v20q25 11 46.5 29.5t46.5 50.5zM514 518v-20q-21 -8 -44.5 -28.5t-48.5 -50.5l-109 -132l-2.5 11.5l-2.5 11.5l41 53q43 53 35 92t-61 43v20q30 -1 64 -2t59 -1
q41 0 69 3z" />
    <glyph glyph-name="y" unicode="y" horiz-adv-x="524" 
d="M519 518v-21q-19 -6 -36.5 -25t-33.5 -66l-133 -384l-44 -93l-229 512q-17 38 -33 47t-27 9v21q37 -3 76 -4.5t74 -1.5q44 0 78 2t64 4v-21q-19 0 -36 -2t-23.5 -11.5t3.5 -33.5l127 -304l-10 -7l61 177q31 91 10.5 134.5t-66.5 46.5v21q22 -2 52 -3t49 -1t42 1t35 3z
M316 22l-40 -114q-18 -51 -44 -72q-14 -11 -35.5 -17.5t-54.5 -6.5q-26 0 -54.5 8.5t-48 27.5t-19.5 51q0 33 24 52.5t65 19.5q37 0 59.5 -17t22.5 -51q0 -21 -14 -41t-44 -30q7 -1 15.5 -1.5t13.5 -0.5q31 0 55 19.5t38 60.5l35 106z" />
    <glyph glyph-name="z" unicode="z" horiz-adv-x="473" 
d="M445 522l-237 -507h34q38 0 74 17t61.5 57t30.5 111h20q0 -76 1 -123.5t3 -80.5q-45 2 -94.5 3t-99.5 1q-51 0 -105.5 -1.5t-104.5 -3.5l237 507h-38q-38 0 -73 -16.5t-58.5 -57t-29.5 -111.5h-21q0 77 -1 124.5t-3 79.5q47 -2 96.5 -3t97.5 -1q53 0 107 1.5t103 3.5z
" />
    <glyph glyph-name="braceleft" unicode="{" horiz-adv-x="343" 
d="M329 782v-19q-29 -1 -44.5 -14.5t-21.5 -58t-6 -139.5q0 -90 -30.5 -141t-79.5 -75.5t-105 -35.5q56 -11 105 -36t79.5 -75.5t30.5 -140.5q0 -74 3 -117t11 -64.5t22.5 -28t35.5 -6.5v-19q-85 0 -136.5 20.5t-74.5 71.5t-23 143q0 94 -6.5 145.5t-22.5 73.5t-47 24h-5v18
h5q31 2 47 23.5t22.5 73.5t6.5 146q0 88 23 138.5t74.5 71.5t136.5 21z" />
    <glyph glyph-name="bar" unicode="|" horiz-adv-x="264" 
d="M184 858v-1053h-104v1053h104z" />
    <glyph glyph-name="braceright" unicode="}" horiz-adv-x="343" 
d="M14 782v-19q29 -1 44.5 -14.5t21.5 -58t6 -139.5q0 -90 30.5 -141t79.5 -75.5t105 -35.5q-56 -11 -105 -36t-79.5 -75.5t-30.5 -140.5q0 -74 -3 -117t-11 -64.5t-22.5 -28t-35.5 -6.5v-19q85 0 136.5 20.5t74.5 71.5t23 143q0 94 6.5 145.5t22.5 73.5t47 24h5v18h-5
q-31 2 -47 23.5t-22.5 73.5t-6.5 146q0 88 -23 138.5t-74.5 71.5t-136.5 21z" />
    <glyph glyph-name="asciitilde" unicode="~" horiz-adv-x="675" 
d="M213 397q41 0 76.5 -14t68.5 -32.5t67.5 -32.5t73.5 -14q34 0 62 16.5t44 57.5l17 -3q-6 -78 -52 -125t-106 -47q-41 0 -76.5 14t-68.5 32.5t-67 32.5t-73 14q-35 0 -62.5 -16.5t-43.5 -57.5l-18 3q7 79 52.5 125.5t105.5 46.5z" />
    <glyph glyph-name="uni00A0" unicode="&#xa0;" horiz-adv-x="228" 
 />
    <glyph glyph-name="exclamdown" unicode="&#xa1;" horiz-adv-x="286" 
d="M151 318q4 -60 17 -117t29 -109t27.5 -96t11.5 -77q0 -53 -26.5 -80t-66.5 -27q-41 0 -68 28t-27 79q0 32 12 75.5t28 96t29 110t16 117.5h18zM143 532q43 0 67.5 -21t24.5 -60q0 -40 -24.5 -61t-67.5 -21t-67.5 21t-24.5 61q0 39 24.5 60t67.5 21z" />
    <glyph glyph-name="cent" unicode="&#xa2;" horiz-adv-x="507" 
d="M256 -181v236h22v-236h-22zM256 519v189h22v-189h-22zM284 532q41 0 74.5 -8.5t54.5 -21.5q26 -16 41.5 -41t15.5 -58q0 -38 -24.5 -63.5t-62.5 -25.5q-40 0 -62.5 23t-22.5 59q0 35 22 59t52 32q-8 8 -20.5 13t-29.5 5q-34 0 -57 -19.5t-37 -53t-20.5 -75t-6.5 -85.5
q0 -74 19 -115.5t48.5 -58t60.5 -16.5q24 0 59.5 13t66.5 61l18 -6q-12 -39 -38 -77t-67 -62.5t-99 -24.5q-66 0 -120 27t-85.5 87t-31.5 157q0 94 33 154.5t90.5 90.5t128.5 30z" />
    <glyph glyph-name="sterling" unicode="&#xa3;" horiz-adv-x="680" 
d="M396 736q40 0 69 -6.5t46 -16.5q25 -14 40.5 -35t15.5 -50q0 -34 -22 -56.5t-58 -22.5t-58.5 20.5t-22.5 52.5q0 61 58 83q-8 6 -23 9.5t-35 3.5q-33 0 -54 -15t-32 -45.5t-16 -78.5t-5 -114v-121q0 -58 -20 -102t-53 -84t-72 -89q56 49 97.5 64t74.5 15q41 0 70.5 -7
t58 -14.5t64.5 -7.5q31 0 48.5 16.5t17.5 40.5q0 29 -19 46.5t-50 23.5l4 16q48 -8 88 -41.5t40 -91.5q0 -65 -40.5 -104t-124.5 -39q-45 0 -84.5 12t-76 26.5t-73.5 23.5q-10 2 -22.5 5t-26.5 3q-28 0 -55 -10q-19 -30 -42.5 -45t-45.5 -15q-10 0 -17.5 3.5t-7.5 14.5
t10 21.5t29 20t47 15.5q10 25 13 50.5t3 60.5v86v181q0 82 24 149.5t80.5 107.5t157.5 40zM412 317v-20h-355v20h355zM412 417v-20h-355v20h355z" />
    <glyph glyph-name="currency" unicode="&#xa4;" horiz-adv-x="642" 
d="M485 567l104 -104l-64 -64q11 -23 17 -47.5t6 -51.5t-6 -52t-18 -47l65 -64l-104 -104l-65 64q-23 -11 -47.5 -17.5t-51.5 -6.5q-53 0 -98 24l-64 -64l-104 104l63 63q-11 23 -17.5 48t-6.5 52q0 52 24 99l-63 64l104 104l63 -64q22 12 47 18.5t52 6.5t52 -7t48 -18z
M322 416q-29 0 -53 -15.5t-38 -42t-14 -58.5q0 -31 14.5 -57.5t38.5 -42t52 -15.5q29 0 52.5 15.5t37.5 42t14 57.5t-14 58t-37.5 42.5t-52.5 15.5z" />
    <glyph glyph-name="yen" unicode="&#xa5;" horiz-adv-x="688" 
d="M572 305v-20h-421v20h421zM572 205v-20h-421v20h421zM659 709v-20q-22 -10 -47 -38.5t-54 -85.5l-184 -366h-57l-234 433q-18 33 -32.5 44.5t-25.5 11.5v21q28 -3 59.5 -4.5t68.5 -1.5q47 0 102 2t102 4v-21q-25 0 -46 -3t-29 -12t2 -30l154 -297l-39 -51l94 188
q39 77 42.5 121.5t-18.5 64t-63 20.5v20q37 -1 66.5 -2t61.5 -1q21 0 41.5 1t35.5 2zM452 375v-269q0 -36 5.5 -54t21 -24t46.5 -8v-20q-28 2 -73 2.5t-90 0.5q-48 0 -93 -0.5t-71 -2.5v20q32 2 47.5 8t20.5 24t5 54v205l98 -62z" />
    <glyph glyph-name="brokenbar" unicode="&#xa6;" horiz-adv-x="267" 
d="M186 326v-521h-104v521h104zM186 858v-474h-104v474h104z" />
    <glyph glyph-name="section" unicode="&#xa7;" horiz-adv-x="606" 
d="M331 782q46 0 78 -8t49 -16q29 -14 46 -36t17 -57q0 -30 -22 -53t-59 -23q-38 0 -60.5 21t-22.5 54q0 26 14 48.5t39 32.5q-5 7 -27 12.5t-44 5.5q-38 0 -60.5 -12.5t-32.5 -33t-10 -43.5q0 -39 18 -65t54 -50t86 -58q57 -38 97 -69.5t61 -65t21 -78.5q0 -53 -37.5 -98
t-131.5 -85l-9 10q26 21 39 41t13 54q0 29 -15.5 52.5t-52.5 52t-100 69.5q-66 43 -108.5 78.5t-63.5 70.5t-21 78q0 53 31 91t86.5 59t127.5 21zM202 489l10 -10q-27 -19 -39.5 -39.5t-12.5 -55.5q0 -28 15.5 -52t52.5 -52.5t100 -69.5q65 -43 108 -78t64 -70.5t21 -78.5
q0 -52 -31 -90.5t-86.5 -59.5t-127.5 -21q-47 0 -78.5 8t-48.5 16q-29 14 -46 36.5t-17 56.5q0 30 22 53t59 23t60 -21t23 -54q0 -26 -14.5 -48.5t-38.5 -32.5q3 -4 14 -8.5t26.5 -7t30.5 -2.5q38 0 60.5 12.5t32.5 33.5t10 43q0 40 -18.5 65.5t-53.5 49.5t-86 58
q-57 39 -97 70t-61 64.5t-21 78.5q0 54 37.5 99t130.5 84z" />
    <glyph glyph-name="dieresis" unicode="&#xa8;" horiz-adv-x="495" 
d="M365 766q32 0 56.5 -24.5t24.5 -56.5q0 -34 -24.5 -57.5t-57.5 -23.5t-57 24t-24 57t24 57t58 24zM132 766q32 0 56.5 -24.5t24.5 -56.5q0 -34 -24.5 -57.5t-56.5 -23.5q-34 0 -58 24t-24 57t24 57t58 24z" />
    <glyph glyph-name="copyright" unicode="&#xa9;" horiz-adv-x="876" 
d="M438 782q83 0 155 -31t126.5 -85.5t85.5 -126.5t31 -155q0 -82 -31 -154.5t-85.5 -127t-126.5 -85.5t-155 -31q-82 0 -154.5 31t-127 85.5t-85.5 127t-31 154.5q0 83 31 155t85.5 126.5t127 85.5t154.5 31zM462 658q42 0 75.5 -9.5t54.5 -21.5q25 -16 40.5 -41t15.5 -57
q0 -39 -24.5 -64t-62.5 -25q-40 0 -62.5 23t-22.5 60q0 34 22 58t52 32q-9 8 -26 14t-37 6q-10 0 -20.5 -2.5t-20.5 -8.5q-20 -8 -35 -32t-23.5 -70t-8.5 -124q0 -82 19 -129t49 -65.5t61 -18.5q16 0 37 7t44.5 28t44.5 63l17 -6q-12 -38 -37.5 -76t-66.5 -63t-100 -25
q-66 0 -119.5 27.5t-85.5 87.5t-32 157q0 93 33 154t90.5 91t128.5 30zM438 750q-74 0 -139 -28.5t-114 -79t-77 -116.5t-28 -142t28 -142t77 -116.5t114 -79t139 -28.5t139 28.5t114 79t77 116.5t28 142t-28 142t-77 116.5t-114 79t-139 28.5z" />
    <glyph glyph-name="ordfeminine" unicode="&#xaa;" horiz-adv-x="489" 
d="M246 722q86 0 124 -30t38 -97v-170q0 -12 4 -17t13 -5q15 0 25 9l11 -15q-21 -16 -52 -26.5t-70 -10.5q-42 0 -57.5 12.5t-17.5 34.5q-25 -25 -57 -36t-64 -11q-43 0 -72 19t-29 60t34.5 63.5t107.5 44.5q29 9 54.5 23t25.5 33v18q0 45 -15.5 63.5t-44.5 18.5
q-12 0 -24.5 -3t-23.5 -10q24 -6 35.5 -24t11.5 -37q0 -30 -23 -46t-52 -16q-33 0 -52.5 17t-19.5 44q0 25 16 43t40 28q28 13 60 18t74 5zM264 574q-3 -8 -11.5 -17t-23.5 -23q-20 -16 -28.5 -35t-8.5 -41q0 -21 9.5 -34t23.5 -13q22 0 39 14v149z" />
    <glyph glyph-name="guillemotleft" unicode="&#xab;" horiz-adv-x="592" 
d="M315 534l14 -5q-12 -46 -33.5 -98.5t-47 -98t-50.5 -73.5q25 -26 50.5 -72.5t47 -98.5t33.5 -99l-14 -5q-64 76 -134.5 143.5t-156.5 123.5v16q86 56 156.5 123.5t134.5 143.5zM523 502l14 -5q-9 -42 -27.5 -87.5t-39 -85.5t-40.5 -65q20 -23 40.5 -63.5t39 -86.5
t27.5 -88l-14 -5q-57 67 -119.5 127t-139.5 108v16q77 49 139.5 108.5t119.5 126.5z" />
    <glyph glyph-name="logicalnot" unicode="&#xac;" horiz-adv-x="637" 
d="M572 370v-205h-36v175h-465v30h501z" />
    <glyph glyph-name="uni00AD" unicode="&#xad;" horiz-adv-x="475" 
 />
    <glyph glyph-name="registered" unicode="&#xae;" horiz-adv-x="660" 
d="M330 782q77 0 140.5 -37.5t101 -101t37.5 -140.5t-37.5 -140.5t-101 -101t-140.5 -37.5t-140.5 37.5t-101 101t-37.5 140.5t37.5 140.5t101 101t140.5 37.5zM265 524q34 0 48.5 -1t22 -2.5t18.5 -3.5q55 -4 75 -17.5t25 -41.5l16 -68q2 -11 5 -15.5t9 -4.5t11 4l7 -10
q-8 -8 -22 -13t-33 -5q-33 0 -51 11.5t-23 33.5l-13 72q-4 19 -10.5 28.5t-24.5 13.5t-58 4zM330 750q-66 0 -119.5 -33.5t-85.5 -89.5t-32 -124q0 -67 32 -123.5t85.5 -90t119.5 -33.5t120 33.5t85.5 90t31.5 123.5q0 68 -31.5 124t-85.5 89.5t-120 33.5zM343 676
q68 0 96 -20.5t28 -58.5q0 -16 -11.5 -34.5t-43 -33t-91.5 -17.5l-61 -3v8v8h53q32 0 47.5 18t15.5 50q0 33 -12 50.5t-37 17.5q-13 0 -17.5 -5.5t-4.5 -21.5v-230q0 -23 4.5 -29t18.5 -8v-15q-13 0 -30.5 0.5t-36.5 0.5q-21 0 -40.5 -0.5t-30.5 -0.5v15q14 2 18.5 8t4.5 29
v219q0 24 -4.5 30.5t-18.5 7.5v15q11 -1 30 -1h37q28 0 52 0.5t34 0.5z" />
    <glyph glyph-name="macron" unicode="&#xaf;" horiz-adv-x="444" 
d="M394 712v-25h-344v25h344z" />
    <glyph glyph-name="degree" unicode="&#xb0;" horiz-adv-x="304" 
d="M152 820q49 0 85.5 -32t36.5 -88t-36.5 -88.5t-85.5 -32.5q-48 0 -84.5 32.5t-36.5 88.5t36.5 88t84.5 32zM152 803q-34 0 -65 -26.5t-31 -77.5q0 -52 31 -77.5t65 -25.5t65.5 25.5t31.5 77.5q0 51 -31.5 77.5t-65.5 26.5z" />
    <glyph glyph-name="plusminus" unicode="&#xb1;" horiz-adv-x="573" 
d="M537 30v-30h-501v30h501zM305 606v-236h232v-30h-232v-235h-36v235h-233v30h233v236h36z" />
    <glyph glyph-name="uni00B2" unicode="&#xb2;" horiz-adv-x="355" 
d="M181 755q49 0 81.5 -18t32.5 -56q0 -26 -15 -47t-39.5 -38.5t-53.5 -35t-58 -38.5h136q24 0 32 8.5t15 25.5l17 -3q-7 -36 -10.5 -64t-4.5 -54q-9 2 -18.5 2.5t-19.5 0.5h-252v20q21 18 49.5 39t55.5 46t45 54.5t18 64.5q0 24 -15 37.5t-44 13.5q-54 0 -85 -46l-15 8
q18 31 53 55.5t95 24.5z" />
    <glyph glyph-name="uni00B3" unicode="&#xb3;" horiz-adv-x="332" 
d="M172 756q50 0 84.5 -18.5t34.5 -53.5t-33.5 -59.5t-91.5 -35.5q56 3 98 -22t42 -70q0 -36 -25.5 -63.5t-67.5 -45t-92 -27.5t-99 -13v17q54 7 95 25.5t64.5 47t23.5 66.5q0 30 -15 51t-42 23q-11 -5 -19.5 -9.5t-17.5 -4.5q-15 0 -15 12q0 11 13 13t31 1q29 14 38.5 36
t9.5 37q0 24 -16.5 39t-45.5 15q-26 0 -48.5 -13t-36.5 -36l-15 8q17 32 51 56t95 24z" />
    <glyph glyph-name="acute" unicode="&#xb4;" horiz-adv-x="300" 
d="M230 819q19 -15 19.5 -40t-16.5 -46q-15 -19 -38.5 -34.5t-55.5 -37.5t-78 -62l-11 9q29 55 41.5 92t21.5 63t27 46q16 19 42.5 23t47.5 -13z" />
    <glyph glyph-name="paragraph" unicode="&#xb6;" horiz-adv-x="761" 
d="M430 709q83 0 153.5 -2.5t137.5 1.5v-19q-44 -2 -56.5 -18.5t-12.5 -49.5v-696q0 -36 5.5 -54t21 -24t46.5 -8v-20q-33 2 -85 2.5t-106 0.5q-50 0 -94 -0.5t-70 -2.5v20q63 2 82 22.5t19 73.5v52q-162 0 -258 49t-138.5 133.5t-42.5 190.5q0 102 47.5 181t136.5 123.5
t214 44.5zM472 656q-5 0 -15.5 -39t-20.5 -102.5t-12 -140.5q-84 0 -152.5 -4.5t-109.5 -10t-41 -8.5t40.5 -8.5t109.5 -9.5t153 -4q2 -79 12 -142.5t20.5 -101t15.5 -37.5v32.5v86.5v118.5v129.5v119v87.5v34.5z" />
    <glyph glyph-name="periodcentered" unicode="&#xb7;" horiz-adv-x="283" 
d="M142 367q43 0 67.5 -21t24.5 -60q0 -40 -24.5 -61t-67.5 -21q-44 0 -68 21t-24 61q0 39 24 60t68 21z" />
    <glyph glyph-name="cedilla" unicode="&#xb8;" horiz-adv-x="338" 
d="M160 1l-18 -63q17 7 35.5 10t39.5 3q36 0 53.5 -15.5t17.5 -40.5q0 -29 -20 -47.5t-53.5 -27t-75.5 -8.5q-27 0 -49.5 3.5t-39.5 9.5l6 18q7 -1 19.5 -3t26.5 -2q23 0 45.5 9t22.5 30q0 26 -31 26q-8 0 -18.5 -1.5t-17.5 -5.5l30 105h27z" />
    <glyph glyph-name="uni00B9" unicode="&#xb9;" horiz-adv-x="290" 
d="M212 753v-246q0 -29 15.5 -39t51.5 -10v-21q-18 1 -51.5 1.5t-69.5 0.5q-37 0 -71 -0.5t-52 -1.5v21q35 0 54.5 10t19.5 39v129q0 44 -17 54.5t-64 10.5v21q65 1 106.5 8t77.5 23z" />
    <glyph glyph-name="ordmasculine" unicode="&#xba;" horiz-adv-x="473" 
d="M237 722q58 0 103.5 -20.5t71.5 -60.5t26 -100q0 -59 -26 -99.5t-71.5 -61t-103.5 -20.5t-103.5 20.5t-71.5 61t-26 99.5q0 60 26 100t71.5 60.5t103.5 20.5zM237 704q-22 0 -36.5 -38t-14.5 -125t14.5 -125t36.5 -38t36 38t14 125t-14 125t-36 38z" />
    <glyph glyph-name="guillemotright" unicode="&#xbb;" horiz-adv-x="591" 
d="M277 534q64 -76 134 -143.5t157 -123.5v-17q-87 -55 -157 -122.5t-134 -143.5l-15 5q13 47 34.5 98.5t47 97.5t49.5 73q-24 27 -49.5 73t-47 98.5t-34.5 99.5zM69 502q57 -67 119.5 -127t139.5 -108v-17q-77 -48 -139.5 -107.5t-119.5 -126.5l-15 5q11 42 28.5 87.5
t38.5 85.5t41 64q-20 24 -41 64.5t-38.5 86.5t-28.5 88z" />
    <glyph glyph-name="onequarter" unicode="&#xbc;" horiz-adv-x="715" 
d="M668 824l19 -13l-585 -866l-19 13zM227 753v-246q0 -29 15.5 -39t51.5 -10v-21q-18 1 -51.5 1.5t-69.5 0.5q-37 0 -71 -0.5t-52 -1.5v21q35 0 54.5 10t19.5 39v129q0 44 -17 54.5t-64 10.5v21q65 1 106.5 8t77.5 23zM544 315l8 -15l-232 -253l25 34h236q24 0 32 9t15 25
l17 -3q-4 -13 -7 -32.5t-4.5 -37.5t-2.5 -27q-9 2 -18.5 2.5t-19.5 0.5h-302v21zM565 315v-414h-78v339l57 75h21z" />
    <glyph glyph-name="onehalf" unicode="&#xbd;" horiz-adv-x="727" 
d="M652 824l19 -13l-585 -866l-19 13zM226 753v-246q0 -29 15.5 -39t51.5 -10v-21q-18 1 -51.5 1.5t-69.5 0.5q-37 0 -71 -0.5t-52 -1.5v21q35 0 54.5 10t19.5 39v129q0 44 -17 54.5t-64 10.5v21q65 1 106.5 8t77.5 23zM546 318q49 0 81.5 -18t32.5 -56q0 -26 -15 -47
t-39.5 -38.5t-53.5 -35t-58 -38.5h136q24 0 32 8.5t15 25.5l17 -3q-7 -36 -10.5 -64t-4.5 -54q-9 2 -18.5 2.5t-19.5 0.5h-252v20q21 18 49.5 39t55.5 46t45 54.5t18 64.5q0 24 -15 37.5t-44 13.5q-54 0 -85 -46l-15 8q18 31 53 55.5t95 24.5z" />
    <glyph glyph-name="threequarters" unicode="&#xbe;" horiz-adv-x="755" 
d="M708 824l19 -13l-585 -866l-19 13zM193 756q50 0 84.5 -18.5t34.5 -53.5t-33.5 -59.5t-91.5 -35.5q56 3 98 -22t42 -70q0 -36 -25.5 -63.5t-67.5 -45t-92 -27.5t-99 -13v17q54 7 95 25.5t64.5 47t23.5 66.5q0 30 -15 51t-42 23q-11 -5 -19.5 -9.5t-17.5 -4.5
q-15 0 -15 12q0 11 13 13t31 1q29 14 38.5 36t9.5 37q0 24 -16.5 39t-45.5 15q-26 0 -48.5 -13t-36.5 -36l-15 8q17 32 51 56t95 24zM590 315l8 -15l-232 -253l25 34h236q24 0 32 9t15 25l17 -3q-4 -13 -7 -32.5t-4.5 -37.5t-2.5 -27q-9 2 -18.5 2.5t-19.5 0.5h-302v21z
M611 315v-414h-78v339l57 75h21z" />
    <glyph glyph-name="questiondown" unicode="&#xbf;" horiz-adv-x="519" 
d="M313 324v-139q-53 -24 -79.5 -54t-35.5 -64.5t-9 -73.5q0 -85 32.5 -123t84.5 -38q28 0 50 5.5t32 14.5q-29 11 -44.5 30t-15.5 51q0 33 24.5 55.5t63.5 22.5q35 0 55.5 -22t20.5 -53q0 -33 -17.5 -54.5t-43.5 -35.5q-24 -14 -62.5 -24t-90.5 -10q-112 0 -181 47.5
t-69 130.5q0 78 73 130t192 74v130h20zM303 533q42 0 67 -21t25 -60q0 -40 -25 -61t-67 -21q-44 0 -68 21t-24 61q0 39 24 60t68 21z" />
    <glyph glyph-name="Agrave" unicode="&#xc0;" horiz-adv-x="680" 
d="M383 709l242 -625q15 -35 31.5 -49t29.5 -15v-20q-32 2 -76.5 2.5t-90.5 0.5q-48 0 -91 -0.5t-69 -2.5v20q51 2 65 17.5t-6 66.5l-166 454l20 30l-146 -377q-30 -80 -29.5 -120.5t25 -54.5t64.5 -16v-20q-35 2 -64.5 2.5t-63.5 0.5q-20 0 -40.5 -0.5t-35.5 -2.5v20
q22 4 44.5 28t44.5 83l225 578q20 -2 43.5 -2t43.5 2zM435 288v-20h-298l10 20h288zM246 936q24 -11 42 -32t44 -50.5t74 -69.5l-7 -12q-57 20 -95.5 28t-65.5 13t-50 18q-23 12 -31.5 34.5t2.5 44.5q12 26 38.5 32t48.5 -6z" />
    <glyph glyph-name="Aacute" unicode="&#xc1;" horiz-adv-x="680" 
d="M383 709l242 -625q15 -35 31.5 -49t29.5 -15v-20q-32 2 -76.5 2.5t-90.5 0.5q-48 0 -91 -0.5t-69 -2.5v20q51 2 65 17.5t-6 66.5l-166 454l20 30l-146 -377q-30 -80 -29.5 -120.5t25 -54.5t64.5 -16v-20q-35 2 -64.5 2.5t-63.5 0.5q-20 0 -40.5 -0.5t-35.5 -2.5v20
q22 4 44.5 28t44.5 83l225 578q20 -2 43.5 -2t43.5 2zM435 288v-20h-298l10 20h288zM422 936q22 12 48.5 6t38.5 -32q11 -22 2.5 -44.5t-31.5 -34.5q-23 -13 -50 -18t-65 -13t-96 -28l-7 12q48 40 74 69.5t44.5 50.5t41.5 32z" />
    <glyph glyph-name="Acircumflex" unicode="&#xc2;" horiz-adv-x="680" 
d="M383 709l242 -625q15 -35 31.5 -49t29.5 -15v-20q-32 2 -76.5 2.5t-90.5 0.5q-48 0 -91 -0.5t-69 -2.5v20q51 2 65 17.5t-6 66.5l-166 454l20 30l-146 -377q-30 -80 -29.5 -120.5t25 -54.5t64.5 -16v-20q-35 2 -64.5 2.5t-63.5 0.5q-20 0 -40.5 -0.5t-35.5 -2.5v20
q22 4 44.5 28t44.5 83l225 578q20 -2 43.5 -2t43.5 2zM435 288v-20h-298l10 20h288zM348 948q33 -45 89 -89.5t122 -74.5l-5 -15q-67 12 -132 29t-103 34q-32 -17 -86 -34t-109 -29l-5 15q65 29 121 73.5t90 90.5h18z" />
    <glyph glyph-name="Atilde" unicode="&#xc3;" horiz-adv-x="680" 
d="M383 709l242 -625q15 -35 31.5 -49t29.5 -15v-20q-32 2 -76.5 2.5t-90.5 0.5q-48 0 -91 -0.5t-69 -2.5v20q51 2 65 17.5t-6 66.5l-166 454l20 30l-146 -377q-30 -80 -29.5 -120.5t25 -54.5t64.5 -16v-20q-35 2 -64.5 2.5t-63.5 0.5q-20 0 -40.5 -0.5t-35.5 -2.5v20
q22 4 44.5 28t44.5 83l225 578q20 -2 43.5 -2t43.5 2zM435 288v-20h-298l10 20h288zM248 931q38 0 65 -10.5t50 -24t46.5 -23.5t54.5 -10q26 0 48.5 12t41.5 41l14 -6q-17 -75 -55.5 -109.5t-84.5 -34.5q-38 0 -65.5 10.5t-50 24.5t-46.5 24t-55 10q-26 0 -48 -12t-42 -42
l-14 6q17 76 56 110t85 34z" />
    <glyph glyph-name="Adieresis" unicode="&#xc4;" horiz-adv-x="680" 
d="M383 709l242 -625q15 -35 31.5 -49t29.5 -15v-20q-32 2 -76.5 2.5t-90.5 0.5q-48 0 -91 -0.5t-69 -2.5v20q51 2 65 17.5t-6 66.5l-166 454l20 30l-146 -377q-30 -80 -29.5 -120.5t25 -54.5t64.5 -16v-20q-35 2 -64.5 2.5t-63.5 0.5q-20 0 -40.5 -0.5t-35.5 -2.5v20
q22 4 44.5 28t44.5 83l225 578q20 -2 43.5 -2t43.5 2zM435 288v-20h-298l10 20h288zM464 926q32 0 56.5 -24.5t24.5 -56.5q0 -33 -24.5 -57t-57.5 -24t-57 24t-24 57t24 57t58 24zM215 926q32 0 56.5 -24.5t24.5 -56.5q0 -33 -24.5 -57t-56.5 -24q-34 0 -58 24t-24 57t24 57
t58 24z" />
    <glyph glyph-name="Aring" unicode="&#xc5;" horiz-adv-x="680" 
d="M383 709l242 -625q15 -35 31.5 -49t29.5 -15v-20q-32 2 -76.5 2.5t-90.5 0.5q-48 0 -91 -0.5t-69 -2.5v20q51 2 65 17.5t-6 66.5l-166 454l20 30l-146 -377q-30 -80 -29.5 -120.5t25 -54.5t64.5 -16v-20q-35 2 -64.5 2.5t-63.5 0.5q-20 0 -40.5 -0.5t-35.5 -2.5v20
q22 4 44.5 28t44.5 83l225 578q20 -2 43.5 -2t43.5 2zM435 288v-20h-298l10 20h288zM339 941q45 0 79 -26.5t34 -72.5t-34 -73t-79 -27q-44 0 -78 27t-34 73t34 72.5t78 26.5zM339 920q-30 0 -57 -20.5t-27 -58.5q0 -39 27 -58.5t57 -19.5q31 0 58 19.5t27 58.5
q0 38 -27 58.5t-58 20.5z" />
    <glyph glyph-name="AE" unicode="&#xc6;" horiz-adv-x="900" 
d="M478 772l-387 -668q-27 -47 -13.5 -64.5t64.5 -19.5v-20q-15 2 -39.5 2.5t-51.5 0.5q-17 0 -35.5 -0.5t-31.5 -2.5v20q16 1 32 14.5t37 49.5l401 688h24zM836 708q-4 -42 -5.5 -81.5t-1.5 -60.5q0 -20 1 -38.5t2 -31.5h-23q-9 72 -28.5 113t-47 58.5t-60.5 17.5h-23
q-30 0 -45.5 -5.5t-21.5 -23t-6 -54.5v-496q0 -36 6 -54t21.5 -23.5t45.5 -5.5h41q30 0 58.5 19.5t50 65t29.5 124.5h23q-3 -34 -3 -88q0 -21 1.5 -61t5.5 -83q-50 2 -112.5 2.5t-112.5 0.5h-83t-110.5 -0.5t-110.5 -2.5v20q30 2 45 8t19.5 24t4.5 54v496q0 37 -5 54.5
t-21 24t-47 7.5v20q53 -1 112 -2t112 -1h84q45 0 102.5 0.5t102.5 2.5zM429 366v-20h-209l10 20h199zM709 366v-10v-10h-162v10v10h162zM738 486q-4 -52 -3.5 -79.5t0.5 -50.5t1 -50.5t5 -79.5h-23q-4 29 -13 57t-27.5 45.5t-53.5 17.5v20q35 0 52.5 21t26 49t12.5 50h23z
" />
    <glyph glyph-name="Ccedilla" unicode="&#xc7;" horiz-adv-x="711" 
d="M405 722q66 0 108.5 -19.5t75.5 -45.5q20 -15 30.5 -3.5t14.5 54.5h23q-2 -39 -3 -96t-1 -150h-23q-4 47 -12.5 82t-24.5 62t-46 48q-23 19 -51.5 29.5t-58.5 10.5q-55 0 -92.5 -30.5t-60 -80t-32 -110t-9.5 -121.5q0 -62 10 -122.5t32.5 -109.5t60.5 -78.5t93 -29.5
q29 0 57.5 10t51.5 29q44 30 59.5 78.5t22.5 126.5h23q0 -97 1 -156.5t3 -99.5h-23q-4 43 -13.5 54t-31.5 -3q-37 -26 -78.5 -45.5t-106.5 -19.5q-109 0 -191.5 43t-128 124t-45.5 195q0 112 47 196t129.5 131t189.5 47zM421 5l-20 -67q19 7 39.5 10t43.5 3q40 0 59.5 -15.5
t19.5 -40.5q0 -29 -23 -47.5t-62 -27t-88 -8.5q-29 0 -54 3.5t-42 9.5l5 18q8 -1 23 -3t31 -2q33 0 62.5 9t29.5 30q0 14 -12.5 20t-34.5 6q-8 0 -18 -1.5t-18 -5.5l32 109h27z" />
    <glyph glyph-name="Egrave" unicode="&#xc8;" horiz-adv-x="642" 
d="M578 708q-4 -47 -5.5 -91t-1.5 -67q0 -20 1 -38.5t2 -31.5h-23q-11 78 -35.5 123t-60 63.5t-78.5 18.5h-27q-28 0 -42 -4.5t-18.5 -18.5t-4.5 -44v-528q0 -29 4.5 -43.5t18.5 -19t42 -4.5h41q39 0 74.5 20.5t63.5 70t42 134.5h23q-3 -34 -3 -88q0 -24 1 -68t6 -92
q-51 2 -115 2.5t-114 0.5h-93.5t-123.5 -0.5t-121 -2.5v20q31 2 46.5 8t21 24t5.5 54v496q0 37 -5.5 54.5t-21 24t-46.5 7.5v20q56 -1 121 -2t123.5 -1h93.5q46 0 104.5 0.5t104.5 2.5zM427 366v-10v-10h-172v10v10h172zM456 498q-4 -57 -3.5 -87t0.5 -55t1 -55t5 -87h-23
q-5 36 -21 66t-43 48t-66 18v20q39 0 65 21.5t41.5 52t20.5 58.5h23zM224 936q24 -11 42 -32t44 -50.5t74 -69.5l-7 -12q-57 20 -95.5 28t-65.5 13t-50 18q-23 12 -31.5 34.5t2.5 44.5q12 26 38.5 32t48.5 -6z" />
    <glyph glyph-name="Eacute" unicode="&#xc9;" horiz-adv-x="642" 
d="M578 708q-4 -47 -5.5 -91t-1.5 -67q0 -20 1 -38.5t2 -31.5h-23q-11 78 -35.5 123t-60 63.5t-78.5 18.5h-27q-28 0 -42 -4.5t-18.5 -18.5t-4.5 -44v-528q0 -29 4.5 -43.5t18.5 -19t42 -4.5h41q39 0 74.5 20.5t63.5 70t42 134.5h23q-3 -34 -3 -88q0 -24 1 -68t6 -92
q-51 2 -115 2.5t-114 0.5h-93.5t-123.5 -0.5t-121 -2.5v20q31 2 46.5 8t21 24t5.5 54v496q0 37 -5.5 54.5t-21 24t-46.5 7.5v20q56 -1 121 -2t123.5 -1h93.5q46 0 104.5 0.5t104.5 2.5zM427 366v-10v-10h-172v10v10h172zM456 498q-4 -57 -3.5 -87t0.5 -55t1 -55t5 -87h-23
q-5 36 -21 66t-43 48t-66 18v20q39 0 65 21.5t41.5 52t20.5 58.5h23zM400 936q22 12 48.5 6t38.5 -32q11 -22 2.5 -44.5t-31.5 -34.5q-23 -13 -50 -18t-65 -13t-96 -28l-7 12q48 40 74 69.5t44.5 50.5t41.5 32z" />
    <glyph glyph-name="Ecircumflex" unicode="&#xca;" horiz-adv-x="642" 
d="M578 708q-4 -47 -5.5 -91t-1.5 -67q0 -20 1 -38.5t2 -31.5h-23q-11 78 -35.5 123t-60 63.5t-78.5 18.5h-27q-28 0 -42 -4.5t-18.5 -18.5t-4.5 -44v-528q0 -29 4.5 -43.5t18.5 -19t42 -4.5h41q39 0 74.5 20.5t63.5 70t42 134.5h23q-3 -34 -3 -88q0 -24 1 -68t6 -92
q-51 2 -115 2.5t-114 0.5h-93.5t-123.5 -0.5t-121 -2.5v20q31 2 46.5 8t21 24t5.5 54v496q0 37 -5.5 54.5t-21 24t-46.5 7.5v20q56 -1 121 -2t123.5 -1h93.5q46 0 104.5 0.5t104.5 2.5zM427 366v-10v-10h-172v10v10h172zM456 498q-4 -57 -3.5 -87t0.5 -55t1 -55t5 -87h-23
q-5 36 -21 66t-43 48t-66 18v20q39 0 65 21.5t41.5 52t20.5 58.5h23zM326 948q33 -45 89 -89.5t122 -74.5l-5 -15q-67 12 -132 29t-103 34q-32 -17 -86 -34t-109 -29l-5 15q65 29 121 73.5t90 90.5h18z" />
    <glyph glyph-name="Edieresis" unicode="&#xcb;" horiz-adv-x="642" 
d="M578 708q-4 -47 -5.5 -91t-1.5 -67q0 -20 1 -38.5t2 -31.5h-23q-11 78 -35.5 123t-60 63.5t-78.5 18.5h-27q-28 0 -42 -4.5t-18.5 -18.5t-4.5 -44v-528q0 -29 4.5 -43.5t18.5 -19t42 -4.5h41q39 0 74.5 20.5t63.5 70t42 134.5h23q-3 -34 -3 -88q0 -24 1 -68t6 -92
q-51 2 -115 2.5t-114 0.5h-93.5t-123.5 -0.5t-121 -2.5v20q31 2 46.5 8t21 24t5.5 54v496q0 37 -5.5 54.5t-21 24t-46.5 7.5v20q56 -1 121 -2t123.5 -1h93.5q46 0 104.5 0.5t104.5 2.5zM427 366v-10v-10h-172v10v10h172zM456 498q-4 -57 -3.5 -87t0.5 -55t1 -55t5 -87h-23
q-5 36 -21 66t-43 48t-66 18v20q39 0 65 21.5t41.5 52t20.5 58.5h23zM442 926q32 0 56.5 -24.5t24.5 -56.5q0 -33 -24.5 -57t-57.5 -24t-57 24t-24 57t24 57t58 24zM193 926q32 0 56.5 -24.5t24.5 -56.5q0 -33 -24.5 -57t-56.5 -24q-34 0 -58 24t-24 57t24 57t58 24z" />
    <glyph glyph-name="Igrave" unicode="&#xcc;" horiz-adv-x="389" 
d="M358 708v-20q-31 -1 -47 -7.5t-21 -24t-5 -54.5v-496q0 -36 5.5 -54t21 -24t46.5 -8v-20q-28 2 -71.5 2.5t-87.5 0.5q-51 0 -96 -0.5t-72 -2.5v20q31 2 46.5 8t21 24t5.5 54v496q0 37 -5.5 54.5t-21 24t-46.5 7.5v20q27 -1 72 -2t96 -1q44 0 87.5 1t71.5 2zM106 936
q24 -11 42 -32t44 -50.5t74 -69.5l-7 -12q-57 20 -95.5 28t-65.5 13t-50 18q-23 12 -31.5 34.5t2.5 44.5q12 26 38.5 32t48.5 -6z" />
    <glyph glyph-name="Iacute" unicode="&#xcd;" horiz-adv-x="389" 
d="M358 708v-20q-31 -1 -47 -7.5t-21 -24t-5 -54.5v-496q0 -36 5.5 -54t21 -24t46.5 -8v-20q-28 2 -71.5 2.5t-87.5 0.5q-51 0 -96 -0.5t-72 -2.5v20q31 2 46.5 8t21 24t5.5 54v496q0 37 -5.5 54.5t-21 24t-46.5 7.5v20q27 -1 72 -2t96 -1q44 0 87.5 1t71.5 2zM282 936
q22 12 48.5 6t38.5 -32q11 -22 2.5 -44.5t-31.5 -34.5q-23 -13 -50 -18t-65 -13t-96 -28l-7 12q48 40 74 69.5t44.5 50.5t41.5 32z" />
    <glyph glyph-name="Icircumflex" unicode="&#xce;" horiz-adv-x="389" 
d="M358 708v-20q-31 -1 -47 -7.5t-21 -24t-5 -54.5v-496q0 -36 5.5 -54t21 -24t46.5 -8v-20q-28 2 -71.5 2.5t-87.5 0.5q-51 0 -96 -0.5t-72 -2.5v20q31 2 46.5 8t21 24t5.5 54v496q0 37 -5.5 54.5t-21 24t-46.5 7.5v20q27 -1 72 -2t96 -1q44 0 87.5 1t71.5 2zM208 948
q33 -45 89 -89.5t122 -74.5l-5 -15q-67 12 -132 29t-103 34q-32 -17 -86 -34t-109 -29l-5 15q65 29 121 73.5t90 90.5h18z" />
    <glyph glyph-name="Idieresis" unicode="&#xcf;" horiz-adv-x="389" 
d="M358 708v-20q-31 -1 -47 -7.5t-21 -24t-5 -54.5v-496q0 -36 5.5 -54t21 -24t46.5 -8v-20q-28 2 -71.5 2.5t-87.5 0.5q-51 0 -96 -0.5t-72 -2.5v20q31 2 46.5 8t21 24t5.5 54v496q0 37 -5.5 54.5t-21 24t-46.5 7.5v20q27 -1 72 -2t96 -1q44 0 87.5 1t71.5 2zM324 926
q32 0 56.5 -24.5t24.5 -56.5q0 -33 -24.5 -57t-57.5 -24t-57 24t-24 57t24 57t58 24zM75 926q32 0 56.5 -24.5t24.5 -56.5q0 -33 -24.5 -57t-56.5 -24q-34 0 -58 24t-24 57t24 57t58 24z" />
    <glyph glyph-name="Eth" unicode="&#xd0;" horiz-adv-x="793" 
d="M352 708q204 0 302.5 -89.5t98.5 -256.5q0 -109 -48.5 -190.5t-140.5 -126.5t-221 -45q-24 0 -69 1.5t-79 1.5q-47 0 -92 -0.5t-72 -2.5v20q31 2 46.5 8t21 24t5.5 54v496q0 37 -5.5 54.5t-21 24t-46.5 7.5v20q27 -1 72 -2.5t90 -0.5q36 1 82 2t77 1zM359 690
q-46 0 -60 -17t-14 -69v-500q0 -52 14.5 -69t60.5 -17q76 0 121 39.5t64.5 115.5t19.5 185q0 168 -48.5 250t-157.5 82zM402 366v-20h-394v20h394z" />
    <glyph glyph-name="Ntilde" unicode="&#xd1;" horiz-adv-x="727" 
d="M700 708v-20q-30 -5 -46 -19t-21.5 -43t-5.5 -82v-545q-13 2 -28 2t-32 -2l-439 517v-336q0 -61 6 -93.5t27 -46.5t66 -20v-20q-19 2 -50.5 2.5t-59.5 0.5q-22 0 -45.5 -0.5t-39.5 -2.5v20q32 6 47.5 19.5t20.5 43t5 81.5v438q0 37 -5 54.5t-21 24t-47 7.5v20
q16 -1 39.5 -2t45.5 -1q25 0 48 1t42 2l397 -454v274q0 61 -5.5 93.5t-26 47t-67.5 19.5v20q20 -1 51.5 -2t58.5 -1q24 0 47 1t38 2zM289 931q38 0 65 -10.5t50 -24t46.5 -23.5t54.5 -10q26 0 48.5 12t41.5 41l14 -6q-17 -75 -55.5 -109.5t-84.5 -34.5q-38 0 -65.5 10.5
t-50 24.5t-46.5 24t-55 10q-26 0 -48 -12t-42 -42l-14 6q17 76 56 110t85 34z" />
    <glyph glyph-name="Ograve" unicode="&#xd2;" horiz-adv-x="810" 
d="M405 722q110 0 192 -43t127.5 -123.5t45.5 -195.5q0 -112 -46.5 -196t-129.5 -131t-190 -47q-109 0 -191.5 43t-128 124t-45.5 195q0 112 47.5 196t129.5 131t189 47zM401 704q-53 0 -92 -45t-60.5 -124t-21.5 -183q0 -106 24.5 -184.5t65.5 -121t91 -42.5q53 0 92.5 45
t60.5 124.5t21 182.5q0 107 -24 185t-65.5 120.5t-91.5 42.5zM310 936q24 -11 42 -32t44 -50.5t74 -69.5l-7 -12q-57 20 -95.5 28t-65.5 13t-50 18q-23 12 -31.5 34.5t2.5 44.5q12 26 38.5 32t48.5 -6z" />
    <glyph glyph-name="Oacute" unicode="&#xd3;" horiz-adv-x="810" 
d="M405 722q110 0 192 -43t127.5 -123.5t45.5 -195.5q0 -112 -46.5 -196t-129.5 -131t-190 -47q-109 0 -191.5 43t-128 124t-45.5 195q0 112 47.5 196t129.5 131t189 47zM401 704q-53 0 -92 -45t-60.5 -124t-21.5 -183q0 -106 24.5 -184.5t65.5 -121t91 -42.5q53 0 92.5 45
t60.5 124.5t21 182.5q0 107 -24 185t-65.5 120.5t-91.5 42.5zM486 936q22 12 48.5 6t38.5 -32q11 -22 2.5 -44.5t-31.5 -34.5q-23 -13 -50 -18t-65 -13t-96 -28l-7 12q48 40 74 69.5t44.5 50.5t41.5 32z" />
    <glyph glyph-name="Ocircumflex" unicode="&#xd4;" horiz-adv-x="810" 
d="M405 722q110 0 192 -43t127.5 -123.5t45.5 -195.5q0 -112 -46.5 -196t-129.5 -131t-190 -47q-109 0 -191.5 43t-128 124t-45.5 195q0 112 47.5 196t129.5 131t189 47zM401 704q-53 0 -92 -45t-60.5 -124t-21.5 -183q0 -106 24.5 -184.5t65.5 -121t91 -42.5q53 0 92.5 45
t60.5 124.5t21 182.5q0 107 -24 185t-65.5 120.5t-91.5 42.5zM412 948q33 -45 89 -89.5t122 -74.5l-5 -15q-67 12 -132 29t-103 34q-32 -17 -86 -34t-109 -29l-5 15q65 29 121 73.5t90 90.5h18z" />
    <glyph glyph-name="Otilde" unicode="&#xd5;" horiz-adv-x="810" 
d="M405 722q110 0 192 -43t127.5 -123.5t45.5 -195.5q0 -112 -46.5 -196t-129.5 -131t-190 -47q-109 0 -191.5 43t-128 124t-45.5 195q0 112 47.5 196t129.5 131t189 47zM401 704q-53 0 -92 -45t-60.5 -124t-21.5 -183q0 -106 24.5 -184.5t65.5 -121t91 -42.5q53 0 92.5 45
t60.5 124.5t21 182.5q0 107 -24 185t-65.5 120.5t-91.5 42.5zM312 931q38 0 65 -10.5t50 -24t46.5 -23.5t54.5 -10q26 0 48.5 12t41.5 41l14 -6q-17 -75 -55.5 -109.5t-84.5 -34.5q-38 0 -65.5 10.5t-50 24.5t-46.5 24t-55 10q-26 0 -48 -12t-42 -42l-14 6q17 76 56 110
t85 34z" />
    <glyph glyph-name="Odieresis" unicode="&#xd6;" horiz-adv-x="810" 
d="M405 722q110 0 192 -43t127.5 -123.5t45.5 -195.5q0 -112 -46.5 -196t-129.5 -131t-190 -47q-109 0 -191.5 43t-128 124t-45.5 195q0 112 47.5 196t129.5 131t189 47zM401 704q-53 0 -92 -45t-60.5 -124t-21.5 -183q0 -106 24.5 -184.5t65.5 -121t91 -42.5q53 0 92.5 45
t60.5 124.5t21 182.5q0 107 -24 185t-65.5 120.5t-91.5 42.5zM528 926q32 0 56.5 -24.5t24.5 -56.5q0 -33 -24.5 -57t-57.5 -24t-57 24t-24 57t24 57t58 24zM279 926q32 0 56.5 -24.5t24.5 -56.5q0 -33 -24.5 -57t-56.5 -24q-34 0 -58 24t-24 57t24 57t58 24z" />
    <glyph glyph-name="multiply" unicode="&#xd7;" horiz-adv-x="488" 
d="M70 552l175 -175l173 173l22 -22l-173 -172l173 -173l-22 -22l-173 173l-174 -174l-22 22l174 173l-175 175z" />
    <glyph glyph-name="Oslash" unicode="&#xd8;" horiz-adv-x="810" 
d="M405 722q110 0 192 -43t127.5 -123.5t45.5 -195.5q0 -112 -46.5 -196t-129.5 -131t-190 -47q-109 0 -191.5 43t-128 124t-45.5 195q0 112 47.5 196t129.5 131t189 47zM401 704q-53 0 -92 -45t-60.5 -124t-21.5 -183q0 -106 24.5 -184.5t65.5 -121t91 -42.5q53 0 92.5 45
t60.5 124.5t21 182.5q0 107 -24 185t-65.5 120.5t-91.5 42.5zM565 638l15 -20l-340 -543l-18 18zM208 93l18 -18l-111 -156l-21 14zM669 781l19 -13l-101 -150l-15 20z" />
    <glyph glyph-name="Ugrave" unicode="&#xd9;" horiz-adv-x="691" 
d="M676 708v-20q-31 -5 -47 -19t-21 -43t-5 -82v-253q0 -64 -8.5 -118t-32.5 -94q-26 -43 -77 -68t-132 -25q-46 0 -95.5 10.5t-88.5 38.5q-33 26 -50.5 61t-23.5 82.5t-6 109.5v314q0 37 -5.5 54.5t-21 24t-46.5 7.5v20q27 -1 72 -2t94 -1t94 1t75 2v-20q-34 -1 -51.5 -7.5
t-23.5 -24t-6 -54.5v-393q0 -66 13 -107.5t42 -61t76 -19.5q69 0 108 32.5t55 91.5t16 135v248q0 61 -6 93.5t-27 47t-66 19.5v20q19 -1 50.5 -2t59.5 -1q23 0 46.5 1t38.5 2zM266 936q24 -11 42 -32t44 -50.5t74 -69.5l-7 -12q-57 20 -95.5 28t-65.5 13t-50 18
q-23 12 -31.5 34.5t2.5 44.5q12 26 38.5 32t48.5 -6z" />
    <glyph glyph-name="Uacute" unicode="&#xda;" horiz-adv-x="691" 
d="M676 708v-20q-31 -5 -47 -19t-21 -43t-5 -82v-253q0 -64 -8.5 -118t-32.5 -94q-26 -43 -77 -68t-132 -25q-46 0 -95.5 10.5t-88.5 38.5q-33 26 -50.5 61t-23.5 82.5t-6 109.5v314q0 37 -5.5 54.5t-21 24t-46.5 7.5v20q27 -1 72 -2t94 -1t94 1t75 2v-20q-34 -1 -51.5 -7.5
t-23.5 -24t-6 -54.5v-393q0 -66 13 -107.5t42 -61t76 -19.5q69 0 108 32.5t55 91.5t16 135v248q0 61 -6 93.5t-27 47t-66 19.5v20q19 -1 50.5 -2t59.5 -1q23 0 46.5 1t38.5 2zM442 936q22 12 48.5 6t38.5 -32q11 -22 2.5 -44.5t-31.5 -34.5q-23 -13 -50 -18t-65 -13t-96 -28
l-7 12q48 40 74 69.5t44.5 50.5t41.5 32z" />
    <glyph glyph-name="Ucircumflex" unicode="&#xdb;" horiz-adv-x="691" 
d="M676 708v-20q-31 -5 -47 -19t-21 -43t-5 -82v-253q0 -64 -8.5 -118t-32.5 -94q-26 -43 -77 -68t-132 -25q-46 0 -95.5 10.5t-88.5 38.5q-33 26 -50.5 61t-23.5 82.5t-6 109.5v314q0 37 -5.5 54.5t-21 24t-46.5 7.5v20q27 -1 72 -2t94 -1t94 1t75 2v-20q-34 -1 -51.5 -7.5
t-23.5 -24t-6 -54.5v-393q0 -66 13 -107.5t42 -61t76 -19.5q69 0 108 32.5t55 91.5t16 135v248q0 61 -6 93.5t-27 47t-66 19.5v20q19 -1 50.5 -2t59.5 -1q23 0 46.5 1t38.5 2zM368 948q33 -45 89 -89.5t122 -74.5l-5 -15q-67 12 -132 29t-103 34q-32 -17 -86 -34t-109 -29
l-5 15q65 29 121 73.5t90 90.5h18z" />
    <glyph glyph-name="Udieresis" unicode="&#xdc;" horiz-adv-x="691" 
d="M676 708v-20q-31 -5 -47 -19t-21 -43t-5 -82v-253q0 -64 -8.5 -118t-32.5 -94q-26 -43 -77 -68t-132 -25q-46 0 -95.5 10.5t-88.5 38.5q-33 26 -50.5 61t-23.5 82.5t-6 109.5v314q0 37 -5.5 54.5t-21 24t-46.5 7.5v20q27 -1 72 -2t94 -1t94 1t75 2v-20q-34 -1 -51.5 -7.5
t-23.5 -24t-6 -54.5v-393q0 -66 13 -107.5t42 -61t76 -19.5q69 0 108 32.5t55 91.5t16 135v248q0 61 -6 93.5t-27 47t-66 19.5v20q19 -1 50.5 -2t59.5 -1q23 0 46.5 1t38.5 2zM484 926q32 0 56.5 -24.5t24.5 -56.5q0 -33 -24.5 -57t-57.5 -24t-57 24t-24 57t24 57t58 24z
M235 926q32 0 56.5 -24.5t24.5 -56.5q0 -33 -24.5 -57t-56.5 -24q-34 0 -58 24t-24 57t24 57t58 24z" />
    <glyph glyph-name="Yacute" unicode="&#xdd;" horiz-adv-x="633" 
d="M626 709v-20q-22 -10 -46.5 -38.5t-53.5 -85.5l-185 -366h-57l-234 433q-17 33 -32 44.5t-26 11.5v21q29 -3 60 -4.5t68 -1.5q48 0 103 2t101 4v-21q-25 0 -45.5 -3t-29 -12t1.5 -30l155 -297l-39 -51l94 188q39 77 42.5 121.5t-19 64t-62.5 20.5v20q36 -1 65.5 -2
t62.5 -1q21 0 41 1t35 2zM420 375v-269q0 -36 5.5 -54t21 -24t46.5 -8v-20q-28 2 -73.5 2.5t-89.5 0.5q-49 0 -93.5 -0.5t-70.5 -2.5v20q31 2 46.5 8t21 24t5.5 54v205l98 -62zM422 936q22 12 48.5 6t38.5 -32q11 -22 2.5 -44.5t-31.5 -34.5q-23 -13 -50 -18t-65 -13
t-96 -28l-7 12q48 40 74 69.5t44.5 50.5t41.5 32z" />
    <glyph glyph-name="Thorn" unicode="&#xde;" horiz-adv-x="634" 
d="M329 570q146 0 217.5 -48t71.5 -143q0 -43 -14.5 -84.5t-49 -74t-95 -52t-152.5 -19.5h-96v10v10h86q55 0 83.5 27.5t39 73.5t10.5 99q0 89 -28 135.5t-98 46.5q-31 0 -69 -1t-55 -1l-2 19q47 0 90 1t61 1zM358 708v-20q-31 -1 -47 -7.5t-21 -24t-5 -54.5v-496
q0 -36 5.5 -54t21 -24t46.5 -8v-20q-28 2 -71.5 2.5t-87.5 0.5q-51 0 -96 -0.5t-72 -2.5v20q31 2 46.5 8t21 24t5.5 54v496q0 37 -5.5 54.5t-21 24t-46.5 7.5v20q27 -1 72 -2t96 -1q44 0 87.5 1t71.5 2z" />
    <glyph glyph-name="germandbls" unicode="&#xdf;" horiz-adv-x="681" 
d="M343 782q107 0 164.5 -43t57.5 -106q0 -38 -18.5 -70.5t-50 -58t-72 -43.5t-85.5 -28q105 -13 176.5 -49t108 -88t36.5 -115t-33.5 -107t-87 -66t-115.5 -22q-40 0 -73.5 10t-53.5 34t-20 64t20 64.5t57 24.5q34 0 54.5 -21t20.5 -55q0 -35 -21.5 -59t-47.5 -35
q6 -4 14.5 -7t19.5 -3q32 0 53.5 21.5t32.5 58.5t11 85q0 64 -16 108t-41.5 72.5t-55 45.5t-56.5 27l-18 -8t-16 -4t-13.5 4t-6.5 12q0 18 22 18q8 0 17.5 -2t15.5 -5q50 34 69 77t19 107q0 74 -22 110.5t-64 36.5q-34 0 -52.5 -21t-25 -67.5t-6.5 -127.5v-562
q-30 6 -62.5 9.5t-69.5 4.5q-22 1 -40 0t-50 -3v21q33 0 46.5 16.5t13.5 58.5v421q0 89 30 147.5t89.5 88t144.5 29.5z" />
    <glyph glyph-name="agrave" unicode="&#xe0;" horiz-adv-x="524" 
d="M153 -7q-67 0 -97.5 35.5t-30.5 85.5q0 42 19.5 69.5t50.5 44.5t65 28.5t65 23t50 26t19 37.5v83q0 22 -6.5 41.5t-23 32t-45.5 12.5q-18 0 -35 -5t-30 -16q32 -11 47.5 -33t15.5 -49q0 -37 -25.5 -58.5t-60.5 -21.5q-38 0 -58.5 24t-20.5 58q0 30 15 50.5t44 37.5t70 25
t87 8q47 0 86.5 -9.5t67.5 -37.5q22 -23 28 -56t6 -84v-270q0 -25 4.5 -34.5t14.5 -9.5t18 5t15 11l11 -17q-22 -18 -52 -27.5t-65 -9.5q-62 0 -83 24t-22 55q-23 -37 -58 -58t-86 -21zM242 65q15 0 27.5 6.5t24.5 22.5v208q-11 -19 -29 -32.5t-36.5 -29t-31 -38.5
t-12.5 -61q0 -41 16.5 -58.5t40.5 -17.5zM138 819q21 18 47.5 13.5t42.5 -23.5q18 -20 27 -46t21.5 -63t41.5 -92l-11 -9q-45 40 -77.5 62t-55.5 37.5t-39 34.5q-17 21 -16.5 45.5t19.5 40.5z" />
    <glyph glyph-name="aacute" unicode="&#xe1;" horiz-adv-x="524" 
d="M153 -7q-67 0 -97.5 35.5t-30.5 85.5q0 42 19.5 69.5t50.5 44.5t65 28.5t65 23t50 26t19 37.5v83q0 22 -6.5 41.5t-23 32t-45.5 12.5q-18 0 -35 -5t-30 -16q32 -11 47.5 -33t15.5 -49q0 -37 -25.5 -58.5t-60.5 -21.5q-38 0 -58.5 24t-20.5 58q0 30 15 50.5t44 37.5t70 25
t87 8q47 0 86.5 -9.5t67.5 -37.5q22 -23 28 -56t6 -84v-270q0 -25 4.5 -34.5t14.5 -9.5t18 5t15 11l11 -17q-22 -18 -52 -27.5t-65 -9.5q-62 0 -83 24t-22 55q-23 -37 -58 -58t-86 -21zM242 65q15 0 27.5 6.5t24.5 22.5v208q-11 -19 -29 -32.5t-36.5 -29t-31 -38.5
t-12.5 -61q0 -41 16.5 -58.5t40.5 -17.5zM374 819q19 -15 19.5 -40t-16.5 -46q-15 -19 -38.5 -34.5t-55.5 -37.5t-78 -62l-11 9q29 55 41.5 92t21.5 63t27 46q16 19 42.5 23t47.5 -13z" />
    <glyph glyph-name="acircumflex" unicode="&#xe2;" horiz-adv-x="524" 
d="M153 -7q-67 0 -97.5 35.5t-30.5 85.5q0 42 19.5 69.5t50.5 44.5t65 28.5t65 23t50 26t19 37.5v83q0 22 -6.5 41.5t-23 32t-45.5 12.5q-18 0 -35 -5t-30 -16q32 -11 47.5 -33t15.5 -49q0 -37 -25.5 -58.5t-60.5 -21.5q-38 0 -58.5 24t-20.5 58q0 30 15 50.5t44 37.5t70 25
t87 8q47 0 86.5 -9.5t67.5 -37.5q22 -23 28 -56t6 -84v-270q0 -25 4.5 -34.5t14.5 -9.5t18 5t15 11l11 -17q-22 -18 -52 -27.5t-65 -9.5q-62 0 -83 24t-22 55q-23 -37 -58 -58t-86 -21zM242 65q15 0 27.5 6.5t24.5 22.5v208q-11 -19 -29 -32.5t-36.5 -29t-31 -38.5
t-12.5 -61q0 -41 16.5 -58.5t40.5 -17.5zM273 826q29 -57 77.5 -112.5t105.5 -91.5l-8 -14q-59 13 -114.5 31.5t-89.5 36.5q-27 -18 -72 -36.5t-92 -31.5l-8 14q56 35 104.5 90.5t78.5 113.5h18z" />
    <glyph glyph-name="atilde" unicode="&#xe3;" horiz-adv-x="524" 
d="M153 -7q-67 0 -97.5 35.5t-30.5 85.5q0 42 19.5 69.5t50.5 44.5t65 28.5t65 23t50 26t19 37.5v83q0 22 -6.5 41.5t-23 32t-45.5 12.5q-18 0 -35 -5t-30 -16q32 -11 47.5 -33t15.5 -49q0 -37 -25.5 -58.5t-60.5 -21.5q-38 0 -58.5 24t-20.5 58q0 30 15 50.5t44 37.5t70 25
t87 8q47 0 86.5 -9.5t67.5 -37.5q22 -23 28 -56t6 -84v-270q0 -25 4.5 -34.5t14.5 -9.5t18 5t15 11l11 -17q-22 -18 -52 -27.5t-65 -9.5q-62 0 -83 24t-22 55q-23 -37 -58 -58t-86 -21zM242 65q15 0 27.5 6.5t24.5 22.5v208q-11 -19 -29 -32.5t-36.5 -29t-31 -38.5
t-12.5 -61q0 -41 16.5 -58.5t40.5 -17.5zM190 792q32 0 54 -10t40 -23t37 -23t44 -10q21 0 40.5 12.5t36.5 40.5l14 -7q-17 -81 -51 -116t-75 -35q-32 0 -54.5 10t-40.5 23.5t-37 23.5t-44 10q-21 0 -40.5 -12.5t-36.5 -41.5l-14 7q17 81 51.5 116t75.5 35z" />
    <glyph glyph-name="adieresis" unicode="&#xe4;" horiz-adv-x="524" 
d="M153 -7q-67 0 -97.5 35.5t-30.5 85.5q0 42 19.5 69.5t50.5 44.5t65 28.5t65 23t50 26t19 37.5v83q0 22 -6.5 41.5t-23 32t-45.5 12.5q-18 0 -35 -5t-30 -16q32 -11 47.5 -33t15.5 -49q0 -37 -25.5 -58.5t-60.5 -21.5q-38 0 -58.5 24t-20.5 58q0 30 15 50.5t44 37.5t70 25
t87 8q47 0 86.5 -9.5t67.5 -37.5q22 -23 28 -56t6 -84v-270q0 -25 4.5 -34.5t14.5 -9.5t18 5t15 11l11 -17q-22 -18 -52 -27.5t-65 -9.5q-62 0 -83 24t-22 55q-23 -37 -58 -58t-86 -21zM242 65q15 0 27.5 6.5t24.5 22.5v208q-11 -19 -29 -32.5t-36.5 -29t-31 -38.5
t-12.5 -61q0 -41 16.5 -58.5t40.5 -17.5zM382 766q32 0 56.5 -24.5t24.5 -56.5q0 -34 -24.5 -57.5t-57.5 -23.5t-57 24t-24 57t24 57t58 24zM149 766q32 0 56.5 -24.5t24.5 -56.5q0 -34 -24.5 -57.5t-56.5 -23.5q-34 0 -58 24t-24 57t24 57t58 24z" />
    <glyph glyph-name="aring" unicode="&#xe5;" horiz-adv-x="524" 
d="M153 -7q-67 0 -97.5 35.5t-30.5 85.5q0 42 19.5 69.5t50.5 44.5t65 28.5t65 23t50 26t19 37.5v83q0 22 -6.5 41.5t-23 32t-45.5 12.5q-18 0 -35 -5t-30 -16q32 -11 47.5 -33t15.5 -49q0 -37 -25.5 -58.5t-60.5 -21.5q-38 0 -58.5 24t-20.5 58q0 30 15 50.5t44 37.5t70 25
t87 8q47 0 86.5 -9.5t67.5 -37.5q22 -23 28 -56t6 -84v-270q0 -25 4.5 -34.5t14.5 -9.5t18 5t15 11l11 -17q-22 -18 -52 -27.5t-65 -9.5q-62 0 -83 24t-22 55q-23 -37 -58 -58t-86 -21zM242 65q15 0 27.5 6.5t24.5 22.5v208q-11 -19 -29 -32.5t-36.5 -29t-31 -38.5
t-12.5 -61q0 -41 16.5 -58.5t40.5 -17.5zM264 799q45 0 79 -26.5t34 -72.5t-34 -73t-79 -27q-44 0 -78 27t-34 73t34 72.5t78 26.5zM264 778q-30 0 -57 -20.5t-27 -58.5q0 -39 27 -58.5t57 -19.5q31 0 58 19.5t27 58.5q0 38 -27 58.5t-58 20.5z" />
    <glyph glyph-name="ae" unicode="&#xe6;" horiz-adv-x="739" 
d="M153 -7q-67 0 -97.5 35.5t-30.5 85.5q0 42 19.5 69.5t50.5 44.5t65 28.5t65 23t50 26t19 37.5v83q0 22 -6.5 41.5t-23 32t-45.5 12.5q-18 0 -35 -5t-30 -16q32 -11 47.5 -33t15.5 -49q0 -37 -25.5 -58.5t-60.5 -21.5q-38 0 -58.5 24t-20.5 58q0 30 15 50.5t44 37.5t70 25
t87 8q47 0 86.5 -9.5t67.5 -37.5q21 -23 27.5 -56t6.5 -85l-127 -227q-25 -48 -53 -74.5t-58.5 -38t-64.5 -11.5zM240 65q22 0 40.5 14.5t36.5 52.5l-17 176q-13 -21 -32.5 -35.5t-38 -31t-31.5 -39.5t-13 -61q0 -41 16.5 -58.5t38.5 -17.5zM511 -14q-62 0 -111 27t-78 86.5
t-29 156.5q0 80 27.5 142.5t80.5 98t130 35.5q83 0 131 -52t48 -171h-299l-2 19h165q1 49 -4 90.5t-16 66.5t-29 25q-27 0 -45 -43t-22 -146l4 -7q-2 -11 -2 -22.5v-24.5q0 -69 17 -110t43 -58t52 -17q23 0 54.5 12.5t59.5 60.5l18 -6q-12 -39 -36.5 -76.5t-63 -62
t-93.5 -24.5z" />
    <glyph glyph-name="ccedilla" unicode="&#xe7;" horiz-adv-x="500" 
d="M285 532q42 0 75 -8.5t54 -21.5q26 -16 42 -41t16 -58q0 -38 -25 -63.5t-63 -25.5q-39 0 -61.5 23t-22.5 59q0 35 22 59t52 32q-8 8 -20.5 13t-29.5 5q-34 0 -57 -19.5t-37.5 -53t-21 -75t-6.5 -85.5q0 -74 19.5 -115.5t49 -58t60.5 -16.5q24 0 59 13t67 61l17 -6
q-11 -39 -37 -77t-67 -62.5t-100 -24.5q-66 0 -119.5 27t-85.5 87t-32 157q0 94 33 154.5t90.5 90.5t128.5 30zM261 1l-18 -63q17 7 35.5 10t39.5 3q36 0 53.5 -15.5t17.5 -40.5q0 -29 -20 -47.5t-53.5 -27t-75.5 -8.5q-27 0 -49.5 3.5t-39.5 9.5l6 18q7 -1 19.5 -3t26.5 -2
q23 0 45.5 9t22.5 30q0 26 -31 26q-8 0 -18.5 -1.5t-17.5 -5.5l30 105h27z" />
    <glyph glyph-name="egrave" unicode="&#xe8;" horiz-adv-x="504" 
d="M285 532q88 0 138 -52t50 -171h-321l-1 19h186q2 49 -4 90.5t-19.5 66.5t-35.5 25q-30 0 -51 -43t-26 -146l4 -7q-2 -11 -2 -22.5v-24.5q0 -69 18.5 -110t46.5 -58t58 -17q25 0 59.5 12.5t66.5 60.5l17 -6q-11 -39 -37.5 -76.5t-67.5 -62t-99 -24.5q-66 0 -118 27.5
t-82.5 87t-30.5 155.5q0 95 33 156t90 90.5t128 29.5zM151 819q21 18 47.5 13.5t42.5 -23.5q18 -20 27 -46t21.5 -63t41.5 -92l-11 -9q-45 40 -77.5 62t-55.5 37.5t-39 34.5q-17 21 -16.5 45.5t19.5 40.5z" />
    <glyph glyph-name="eacute" unicode="&#xe9;" horiz-adv-x="504" 
d="M285 532q88 0 138 -52t50 -171h-321l-1 19h186q2 49 -4 90.5t-19.5 66.5t-35.5 25q-30 0 -51 -43t-26 -146l4 -7q-2 -11 -2 -22.5v-24.5q0 -69 18.5 -110t46.5 -58t58 -17q25 0 59.5 12.5t66.5 60.5l17 -6q-11 -39 -37.5 -76.5t-67.5 -62t-99 -24.5q-66 0 -118 27.5
t-82.5 87t-30.5 155.5q0 95 33 156t90 90.5t128 29.5zM387 819q19 -15 19.5 -40t-16.5 -46q-15 -19 -38.5 -34.5t-55.5 -37.5t-78 -62l-11 9q29 55 41.5 92t21.5 63t27 46q16 19 42.5 23t47.5 -13z" />
    <glyph glyph-name="ecircumflex" unicode="&#xea;" horiz-adv-x="504" 
d="M285 532q88 0 138 -52t50 -171h-321l-1 19h186q2 49 -4 90.5t-19.5 66.5t-35.5 25q-30 0 -51 -43t-26 -146l4 -7q-2 -11 -2 -22.5v-24.5q0 -69 18.5 -110t46.5 -58t58 -17q25 0 59.5 12.5t66.5 60.5l17 -6q-11 -39 -37.5 -76.5t-67.5 -62t-99 -24.5q-66 0 -118 27.5
t-82.5 87t-30.5 155.5q0 95 33 156t90 90.5t128 29.5zM286 826q29 -57 77.5 -112.5t105.5 -91.5l-8 -14q-59 13 -114.5 31.5t-89.5 36.5q-27 -18 -72 -36.5t-92 -31.5l-8 14q56 35 104.5 90.5t78.5 113.5h18z" />
    <glyph glyph-name="edieresis" unicode="&#xeb;" horiz-adv-x="504" 
d="M285 532q88 0 138 -52t50 -171h-321l-1 19h186q2 49 -4 90.5t-19.5 66.5t-35.5 25q-30 0 -51 -43t-26 -146l4 -7q-2 -11 -2 -22.5v-24.5q0 -69 18.5 -110t46.5 -58t58 -17q25 0 59.5 12.5t66.5 60.5l17 -6q-11 -39 -37.5 -76.5t-67.5 -62t-99 -24.5q-66 0 -118 27.5
t-82.5 87t-30.5 155.5q0 95 33 156t90 90.5t128 29.5zM395 766q32 0 56.5 -24.5t24.5 -56.5q0 -34 -24.5 -57.5t-57.5 -23.5t-57 24t-24 57t24 57t58 24zM162 766q32 0 56.5 -24.5t24.5 -56.5q0 -34 -24.5 -57.5t-56.5 -23.5q-34 0 -58 24t-24 57t24 57t58 24z" />
    <glyph glyph-name="igrave" unicode="&#xec;" horiz-adv-x="323" 
d="M245 529v-436q0 -42 13.5 -57t46.5 -15v-21q-20 1 -59 2.5t-79 1.5t-81.5 -1.5t-62.5 -2.5v21q33 0 46.5 15t13.5 57v316q0 45 -13 66.5t-47 21.5v21q32 -3 62 -3q45 0 85.5 3.5t74.5 10.5zM37 819q21 18 47.5 13.5t42.5 -23.5q18 -20 27 -46t21.5 -63t41.5 -92l-11 -9
q-45 40 -77.5 62t-55.5 37.5t-39 34.5q-17 21 -16.5 45.5t19.5 40.5z" />
    <glyph glyph-name="iacute" unicode="&#xed;" horiz-adv-x="323" 
d="M245 529v-436q0 -42 13.5 -57t46.5 -15v-21q-20 1 -59 2.5t-79 1.5t-81.5 -1.5t-62.5 -2.5v21q33 0 46.5 15t13.5 57v316q0 45 -13 66.5t-47 21.5v21q32 -3 62 -3q45 0 85.5 3.5t74.5 10.5zM273 819q19 -15 19.5 -40t-16.5 -46q-15 -19 -38.5 -34.5t-55.5 -37.5t-78 -62
l-11 9q29 55 41.5 92t21.5 63t27 46q16 19 42.5 23t47.5 -13z" />
    <glyph glyph-name="icircumflex" unicode="&#xee;" horiz-adv-x="323" 
d="M245 529v-436q0 -42 13.5 -57t46.5 -15v-21q-20 1 -59 2.5t-79 1.5t-81.5 -1.5t-62.5 -2.5v21q33 0 46.5 15t13.5 57v316q0 45 -13 66.5t-47 21.5v21q32 -3 62 -3q45 0 85.5 3.5t74.5 10.5zM172 826q29 -57 77.5 -112.5t105.5 -91.5l-8 -14q-59 13 -114.5 31.5
t-89.5 36.5q-27 -18 -72 -36.5t-92 -31.5l-8 14q56 35 104.5 90.5t78.5 113.5h18z" />
    <glyph glyph-name="idieresis" unicode="&#xef;" horiz-adv-x="323" 
d="M245 529v-436q0 -42 13.5 -57t46.5 -15v-21q-20 1 -59 2.5t-79 1.5t-81.5 -1.5t-62.5 -2.5v21q33 0 46.5 15t13.5 57v316q0 45 -13 66.5t-47 21.5v21q32 -3 62 -3q45 0 85.5 3.5t74.5 10.5zM281 766q32 0 56.5 -24.5t24.5 -56.5q0 -34 -24.5 -57.5t-57.5 -23.5t-57 24
t-24 57t24 57t58 24zM48 766q32 0 56.5 -24.5t24.5 -56.5q0 -34 -24.5 -57.5t-56.5 -23.5q-34 0 -58 24t-24 57t24 57t58 24z" />
    <glyph glyph-name="eth" unicode="&#xf0;" horiz-adv-x="571" 
d="M136 782q109 -35 199.5 -99.5t144.5 -158.5t54 -219q0 -110 -31.5 -181.5t-87.5 -105.5t-130 -34t-130 26t-87.5 83.5t-32.5 152.5q0 101 31 164t83.5 92.5t115.5 29.5q43 0 74 -17t51 -55l-13 -3q-8 21 -20.5 31.5t-26 15t-27.5 4.5q-32 0 -54 -26.5t-33.5 -81
t-11.5 -141.5q0 -90 10.5 -146t29 -82.5t40.5 -26.5q23 0 42 27.5t30.5 92t11.5 175.5q0 84 -11.5 155t-38.5 129t-73.5 103t-116.5 79zM297 695l17 -14l-199 -97l-9 18zM453 771l9 -18l-148 -72l-17 14z" />
    <glyph glyph-name="ntilde" unicode="&#xf1;" horiz-adv-x="619" 
d="M406 532q44 0 70.5 -11t40.5 -28q16 -19 23.5 -49t7.5 -81v-270q0 -42 13.5 -57t46.5 -15v-21q-20 1 -59.5 2.5t-76.5 1.5q-41 0 -79 -1.5t-57 -2.5v21q28 0 39 15t11 57v318q0 23 -5 39.5t-17 25t-34 8.5q-35 0 -60 -26.5t-25 -67.5v-297q0 -42 11 -57t39 -15v-21
q-19 1 -55 2.5t-73 1.5q-41 0 -82 -1.5t-62 -2.5v21q33 0 46.5 15t13.5 57v316q0 45 -13 66.5t-47 21.5v21q32 -3 62 -3q45 0 85.5 3.5t74.5 10.5v-81q24 46 65.5 65t95.5 19zM241 792q32 0 54 -10t40 -23t37 -23t44 -10q21 0 40.5 12.5t36.5 40.5l14 -7q-17 -81 -51 -116
t-75 -35q-32 0 -54.5 10t-40.5 23.5t-37 23.5t-44 10q-21 0 -40.5 -12.5t-36.5 -41.5l-14 7q17 81 51.5 116t75.5 35z" />
    <glyph glyph-name="ograve" unicode="&#xf2;" horiz-adv-x="570" 
d="M285 532q75 0 131.5 -26.5t88 -86.5t31.5 -160t-31.5 -160t-88 -86.5t-131.5 -26.5q-74 0 -130.5 26.5t-88.5 86.5t-32 160t32 160t88.5 86.5t130.5 26.5zM285 512q-35 0 -58.5 -59.5t-23.5 -193.5t23.5 -193.5t58.5 -59.5q36 0 59 59.5t23 193.5t-23 193.5t-59 59.5z
M160 819q21 18 47.5 13.5t42.5 -23.5q18 -20 27 -46t21.5 -63t41.5 -92l-11 -9q-45 40 -77.5 62t-55.5 37.5t-39 34.5q-17 21 -16.5 45.5t19.5 40.5z" />
    <glyph glyph-name="oacute" unicode="&#xf3;" horiz-adv-x="570" 
d="M285 532q75 0 131.5 -26.5t88 -86.5t31.5 -160t-31.5 -160t-88 -86.5t-131.5 -26.5q-74 0 -130.5 26.5t-88.5 86.5t-32 160t32 160t88.5 86.5t130.5 26.5zM285 512q-35 0 -58.5 -59.5t-23.5 -193.5t23.5 -193.5t58.5 -59.5q36 0 59 59.5t23 193.5t-23 193.5t-59 59.5z
M396 819q19 -15 19.5 -40t-16.5 -46q-15 -19 -38.5 -34.5t-55.5 -37.5t-78 -62l-11 9q29 55 41.5 92t21.5 63t27 46q16 19 42.5 23t47.5 -13z" />
    <glyph glyph-name="ocircumflex" unicode="&#xf4;" horiz-adv-x="570" 
d="M285 532q75 0 131.5 -26.5t88 -86.5t31.5 -160t-31.5 -160t-88 -86.5t-131.5 -26.5q-74 0 -130.5 26.5t-88.5 86.5t-32 160t32 160t88.5 86.5t130.5 26.5zM285 512q-35 0 -58.5 -59.5t-23.5 -193.5t23.5 -193.5t58.5 -59.5q36 0 59 59.5t23 193.5t-23 193.5t-59 59.5z
M295 826q29 -57 77.5 -112.5t105.5 -91.5l-8 -14q-59 13 -114.5 31.5t-89.5 36.5q-27 -18 -72 -36.5t-92 -31.5l-8 14q56 35 104.5 90.5t78.5 113.5h18z" />
    <glyph glyph-name="otilde" unicode="&#xf5;" horiz-adv-x="570" 
d="M285 532q75 0 131.5 -26.5t88 -86.5t31.5 -160t-31.5 -160t-88 -86.5t-131.5 -26.5q-74 0 -130.5 26.5t-88.5 86.5t-32 160t32 160t88.5 86.5t130.5 26.5zM285 512q-35 0 -58.5 -59.5t-23.5 -193.5t23.5 -193.5t58.5 -59.5q36 0 59 59.5t23 193.5t-23 193.5t-59 59.5z
M211 792q32 0 54 -10t40 -23t37 -23t44 -10q21 0 40.5 12.5t36.5 40.5l14 -7q-17 -81 -51 -116t-75 -35q-32 0 -54.5 10t-40.5 23.5t-37 23.5t-44 10q-21 0 -40.5 -12.5t-36.5 -41.5l-14 7q17 81 51.5 116t75.5 35z" />
    <glyph glyph-name="odieresis" unicode="&#xf6;" horiz-adv-x="570" 
d="M285 532q75 0 131.5 -26.5t88 -86.5t31.5 -160t-31.5 -160t-88 -86.5t-131.5 -26.5q-74 0 -130.5 26.5t-88.5 86.5t-32 160t32 160t88.5 86.5t130.5 26.5zM285 512q-35 0 -58.5 -59.5t-23.5 -193.5t23.5 -193.5t58.5 -59.5q36 0 59 59.5t23 193.5t-23 193.5t-59 59.5z
M404 766q32 0 56.5 -24.5t24.5 -56.5q0 -34 -24.5 -57.5t-57.5 -23.5t-57 24t-24 57t24 57t58 24zM171 766q32 0 56.5 -24.5t24.5 -56.5q0 -34 -24.5 -57.5t-56.5 -23.5q-34 0 -58 24t-24 57t24 57t58 24z" />
    <glyph glyph-name="divide" unicode="&#xf7;" horiz-adv-x="628" 
d="M315 266q23 0 39.5 -16t16.5 -39t-16.5 -39.5t-39.5 -16.5q-22 0 -38.5 16.5t-16.5 39.5t16.5 39t38.5 16zM315 554q23 0 39.5 -16t16.5 -39t-16.5 -39t-39.5 -16q-22 0 -38.5 16t-16.5 39t16.5 39t38.5 16zM567 370v-30h-501v30h501z" />
    <glyph glyph-name="oslash" unicode="&#xf8;" horiz-adv-x="570" 
d="M285 532q75 0 131.5 -26.5t88 -86.5t31.5 -160t-31.5 -160t-88 -86.5t-131.5 -26.5q-74 0 -130.5 26.5t-88.5 86.5t-32 160t32 160t88.5 86.5t130.5 26.5zM285 512q-35 0 -58.5 -59.5t-23.5 -193.5t23.5 -193.5t58.5 -59.5q36 0 59 59.5t23 193.5t-23 193.5t-59 59.5z
M390 466l15 -20l-218 -383l-16 21zM147 75l15 -20l-89 -128l-19 13zM497 591l19 -13l-91 -132l-15 20z" />
    <glyph glyph-name="ugrave" unicode="&#xf9;" horiz-adv-x="614" 
d="M535 529v-420q0 -45 13.5 -66.5t46.5 -21.5v-21q-31 3 -62 3q-46 0 -85.5 -3t-74.5 -11v81q-24 -45 -65.5 -64.5t-94.5 -19.5q-44 0 -70.5 11t-40.5 29q-16 18 -23 48.5t-7 80.5v254q0 45 -13 66.5t-47 21.5v21q32 -3 62 -3q46 0 86 3.5t74 10.5v-422q0 -23 5 -39t17 -25
t32 -9q35 0 60 27t25 67v281q0 45 -13 66.5t-47 21.5v21q32 -3 62 -3q46 0 86 3.5t74 10.5zM166 819q21 18 47.5 13.5t42.5 -23.5q18 -20 27 -46t21.5 -63t41.5 -92l-11 -9q-45 40 -77.5 62t-55.5 37.5t-39 34.5q-17 21 -16.5 45.5t19.5 40.5z" />
    <glyph glyph-name="uacute" unicode="&#xfa;" horiz-adv-x="614" 
d="M535 529v-420q0 -45 13.5 -66.5t46.5 -21.5v-21q-31 3 -62 3q-46 0 -85.5 -3t-74.5 -11v81q-24 -45 -65.5 -64.5t-94.5 -19.5q-44 0 -70.5 11t-40.5 29q-16 18 -23 48.5t-7 80.5v254q0 45 -13 66.5t-47 21.5v21q32 -3 62 -3q46 0 86 3.5t74 10.5v-422q0 -23 5 -39t17 -25
t32 -9q35 0 60 27t25 67v281q0 45 -13 66.5t-47 21.5v21q32 -3 62 -3q46 0 86 3.5t74 10.5zM402 819q19 -15 19.5 -40t-16.5 -46q-15 -19 -38.5 -34.5t-55.5 -37.5t-78 -62l-11 9q29 55 41.5 92t21.5 63t27 46q16 19 42.5 23t47.5 -13z" />
    <glyph glyph-name="ucircumflex" unicode="&#xfb;" horiz-adv-x="614" 
d="M535 529v-420q0 -45 13.5 -66.5t46.5 -21.5v-21q-31 3 -62 3q-46 0 -85.5 -3t-74.5 -11v81q-24 -45 -65.5 -64.5t-94.5 -19.5q-44 0 -70.5 11t-40.5 29q-16 18 -23 48.5t-7 80.5v254q0 45 -13 66.5t-47 21.5v21q32 -3 62 -3q46 0 86 3.5t74 10.5v-422q0 -23 5 -39t17 -25
t32 -9q35 0 60 27t25 67v281q0 45 -13 66.5t-47 21.5v21q32 -3 62 -3q46 0 86 3.5t74 10.5zM301 826q29 -57 77.5 -112.5t105.5 -91.5l-8 -14q-59 13 -114.5 31.5t-89.5 36.5q-27 -18 -72 -36.5t-92 -31.5l-8 14q56 35 104.5 90.5t78.5 113.5h18z" />
    <glyph glyph-name="udieresis" unicode="&#xfc;" horiz-adv-x="614" 
d="M535 529v-420q0 -45 13.5 -66.5t46.5 -21.5v-21q-31 3 -62 3q-46 0 -85.5 -3t-74.5 -11v81q-24 -45 -65.5 -64.5t-94.5 -19.5q-44 0 -70.5 11t-40.5 29q-16 18 -23 48.5t-7 80.5v254q0 45 -13 66.5t-47 21.5v21q32 -3 62 -3q46 0 86 3.5t74 10.5v-422q0 -23 5 -39t17 -25
t32 -9q35 0 60 27t25 67v281q0 45 -13 66.5t-47 21.5v21q32 -3 62 -3q46 0 86 3.5t74 10.5zM410 766q32 0 56.5 -24.5t24.5 -56.5q0 -34 -24.5 -57.5t-57.5 -23.5t-57 24t-24 57t24 57t58 24zM177 766q32 0 56.5 -24.5t24.5 -56.5q0 -34 -24.5 -57.5t-56.5 -23.5
q-34 0 -58 24t-24 57t24 57t58 24z" />
    <glyph glyph-name="yacute" unicode="&#xfd;" horiz-adv-x="524" 
d="M519 518v-21q-19 -6 -36.5 -25t-33.5 -66l-133 -384l-44 -93l-229 512q-17 38 -33 47t-27 9v21q37 -3 76 -4.5t74 -1.5q44 0 78 2t64 4v-21q-19 0 -36 -2t-23.5 -11.5t3.5 -33.5l127 -304l-10 -7l61 177q31 91 10.5 134.5t-66.5 46.5v21q22 -2 52 -3t49 -1t42 1t35 3z
M316 22l-40 -114q-18 -51 -44 -72q-14 -11 -35.5 -17.5t-54.5 -6.5q-26 0 -54.5 8.5t-48 27.5t-19.5 51q0 33 24 52.5t65 19.5q37 0 59.5 -17t22.5 -51q0 -21 -14 -41t-44 -30q7 -1 15.5 -1.5t13.5 -0.5q31 0 55 19.5t38 60.5l35 106zM369 819q19 -15 19.5 -40t-16.5 -46
q-15 -19 -38.5 -34.5t-55.5 -37.5t-78 -62l-11 9q29 55 41.5 92t21.5 63t27 46q16 19 42.5 23t47.5 -13z" />
    <glyph glyph-name="thorn" unicode="&#xfe;" horiz-adv-x="593" 
d="M228 782v-862q0 -48 23.5 -64t64.5 -16v-21q-27 1 -75 2.5t-101 1.5q-39 0 -76 -1.5t-56 -2.5v21q32 0 45 14.5t13 55.5v752q0 45 -13 66.5t-47 21.5v21q32 -3 62 -3q45 0 85.5 3.5t74.5 10.5zM381 532q75 0 126 -62t51 -188q0 -105 -30.5 -170.5t-83 -95.5t-119.5 -30
q-36 0 -67.5 10.5t-49.5 33.5l10 13q9 -14 24.5 -21t34.5 -7q41 0 65.5 28.5t35.5 83.5t11 134q0 87 -10 135.5t-27 68.5t-40 20q-32 0 -58 -24.5t-28 -66.5l-2 42q20 48 61.5 72t95.5 24z" />
    <glyph glyph-name="ydieresis" unicode="&#xff;" horiz-adv-x="524" 
d="M519 518v-21q-19 -6 -36.5 -25t-33.5 -66l-133 -384l-44 -93l-229 512q-17 38 -33 47t-27 9v21q37 -3 76 -4.5t74 -1.5q44 0 78 2t64 4v-21q-19 0 -36 -2t-23.5 -11.5t3.5 -33.5l127 -304l-10 -7l61 177q31 91 10.5 134.5t-66.5 46.5v21q22 -2 52 -3t49 -1t42 1t35 3z
M316 22l-40 -114q-18 -51 -44 -72q-14 -11 -35.5 -17.5t-54.5 -6.5q-26 0 -54.5 8.5t-48 27.5t-19.5 51q0 33 24 52.5t65 19.5q37 0 59.5 -17t22.5 -51q0 -21 -14 -41t-44 -30q7 -1 15.5 -1.5t13.5 -0.5q31 0 55 19.5t38 60.5l35 106zM377 766q32 0 56.5 -24.5t24.5 -56.5
q0 -34 -24.5 -57.5t-57.5 -23.5t-57 24t-24 57t24 57t58 24zM144 766q32 0 56.5 -24.5t24.5 -56.5q0 -34 -24.5 -57.5t-56.5 -23.5q-34 0 -58 24t-24 57t24 57t58 24z" />
    <glyph glyph-name="Amacron" unicode="&#x100;" horiz-adv-x="680" 
d="M383 709l242 -625q15 -35 31.5 -49t29.5 -15v-20q-32 2 -76.5 2.5t-90.5 0.5q-48 0 -91 -0.5t-69 -2.5v20q51 2 65 17.5t-6 66.5l-166 454l20 30l-146 -377q-30 -80 -29.5 -120.5t25 -54.5t64.5 -16v-20q-35 2 -64.5 2.5t-63.5 0.5q-20 0 -40.5 -0.5t-35.5 -2.5v20
q22 4 44.5 28t44.5 83l225 578q20 -2 43.5 -2t43.5 2zM435 288v-20h-298l10 20h288zM547 844v-25h-416v25h416z" />
    <glyph glyph-name="amacron" unicode="&#x101;" horiz-adv-x="524" 
d="M153 -7q-67 0 -97.5 35.5t-30.5 85.5q0 42 19.5 69.5t50.5 44.5t65 28.5t65 23t50 26t19 37.5v83q0 22 -6.5 41.5t-23 32t-45.5 12.5q-18 0 -35 -5t-30 -16q32 -11 47.5 -33t15.5 -49q0 -37 -25.5 -58.5t-60.5 -21.5q-38 0 -58.5 24t-20.5 58q0 30 15 50.5t44 37.5t70 25
t87 8q47 0 86.5 -9.5t67.5 -37.5q22 -23 28 -56t6 -84v-270q0 -25 4.5 -34.5t14.5 -9.5t18 5t15 11l11 -17q-22 -18 -52 -27.5t-65 -9.5q-62 0 -83 24t-22 55q-23 -37 -58 -58t-86 -21zM242 65q15 0 27.5 6.5t24.5 22.5v208q-11 -19 -29 -32.5t-36.5 -29t-31 -38.5
t-12.5 -61q0 -41 16.5 -58.5t40.5 -17.5zM433 712v-25h-344v25h344z" />
    <glyph glyph-name="Abreve" unicode="&#x102;" horiz-adv-x="680" 
d="M383 709l242 -625q15 -35 31.5 -49t29.5 -15v-20q-32 2 -76.5 2.5t-90.5 0.5q-48 0 -91 -0.5t-69 -2.5v20q51 2 65 17.5t-6 66.5l-166 454l20 30l-146 -377q-30 -80 -29.5 -120.5t25 -54.5t64.5 -16v-20q-35 2 -64.5 2.5t-63.5 0.5q-20 0 -40.5 -0.5t-35.5 -2.5v20
q22 4 44.5 28t44.5 83l225 578q20 -2 43.5 -2t43.5 2zM435 288v-20h-298l10 20h288zM550 918l12 -11q-14 -32 -43.5 -64.5t-76 -54t-111.5 -21.5t-111.5 21.5t-76 54t-43.5 64.5l12 11q28 -20 81.5 -40t137.5 -20t137.5 20t81.5 40z" />
    <glyph glyph-name="abreve" unicode="&#x103;" horiz-adv-x="524" 
d="M153 -7q-67 0 -97.5 35.5t-30.5 85.5q0 42 19.5 69.5t50.5 44.5t65 28.5t65 23t50 26t19 37.5v83q0 22 -6.5 41.5t-23 32t-45.5 12.5q-18 0 -35 -5t-30 -16q32 -11 47.5 -33t15.5 -49q0 -37 -25.5 -58.5t-60.5 -21.5q-38 0 -58.5 24t-20.5 58q0 30 15 50.5t44 37.5t70 25
t87 8q47 0 86.5 -9.5t67.5 -37.5q22 -23 28 -56t6 -84v-270q0 -25 4.5 -34.5t14.5 -9.5t18 5t15 11l11 -17q-22 -18 -52 -27.5t-65 -9.5q-62 0 -83 24t-22 55q-23 -37 -58 -58t-86 -21zM242 65q15 0 27.5 6.5t24.5 22.5v208q-11 -19 -29 -32.5t-36.5 -29t-31 -38.5
t-12.5 -61q0 -41 16.5 -58.5t40.5 -17.5zM441 788l17 -9q-12 -37 -35.5 -74.5t-62.5 -62.5t-97 -25t-97 25t-62.5 62.5t-35.5 74.5l17 9q22 -22 65 -43t113 -21q71 0 113.5 21t64.5 43z" />
    <glyph glyph-name="Aogonek" unicode="&#x104;" horiz-adv-x="680" 
d="M383 709l242 -625q15 -35 31.5 -49t29.5 -15v-20q-32 2 -76.5 2.5t-90.5 0.5q-48 0 -91 -0.5t-69 -2.5v20q51 2 65 17.5t-6 66.5l-166 454l20 30l-146 -377q-30 -80 -29.5 -120.5t25 -54.5t64.5 -16v-20q-35 2 -64.5 2.5t-63.5 0.5q-20 0 -40.5 -0.5t-35.5 -2.5v20
q22 4 44.5 28t44.5 83l225 578q20 -2 43.5 -2t43.5 2zM435 288v-20h-298l10 20h288zM674 3q-61 -20 -86 -46t-25 -48q0 -20 10.5 -29.5t30.5 -9.5q17 0 35.5 7t29.5 18l13 -15q-28 -36 -62 -52t-83 -16q-46 0 -70.5 18.5t-24.5 51.5q0 43 51.5 73.5t142.5 47.5h38z" />
    <glyph glyph-name="aogonek" unicode="&#x105;" horiz-adv-x="524" 
d="M153 -7q-67 0 -97.5 35.5t-30.5 85.5q0 42 19.5 69.5t50.5 44.5t65 28.5t65 23t50 26t19 37.5v83q0 22 -6.5 41.5t-23 32t-45.5 12.5q-18 0 -35 -5t-30 -16q32 -11 47.5 -33t15.5 -49q0 -37 -25.5 -58.5t-60.5 -21.5q-38 0 -58.5 24t-20.5 58q0 30 15 50.5t44 37.5t70 25
t87 8q47 0 86.5 -9.5t67.5 -37.5q22 -23 28 -56t6 -84v-270q0 -25 4.5 -34.5t14.5 -9.5t18 5t15 11l11 -17q-22 -18 -52 -27.5t-65 -9.5q-62 0 -83 24t-22 55q-23 -37 -58 -58t-86 -21zM242 65q15 0 27.5 6.5t24.5 22.5v208q-11 -19 -29 -32.5t-36.5 -29t-31 -38.5
t-12.5 -61q0 -41 16.5 -58.5t40.5 -17.5zM482 11q-4 -4 -8.5 -7t-13.5 -8q-41 -19 -56.5 -42.5t-15.5 -44.5q0 -20 10.5 -29.5t29.5 -9.5q18 0 36.5 7t28.5 18l14 -15q-28 -36 -62 -52t-83 -16q-47 0 -71 18.5t-24 51.5q0 43 44.5 73.5t125.5 47.5z" />
    <glyph glyph-name="Cacute" unicode="&#x106;" horiz-adv-x="711" 
d="M405 722q66 0 108.5 -19.5t75.5 -45.5q20 -15 30.5 -3.5t14.5 54.5h23q-2 -39 -3 -96t-1 -150h-23q-4 47 -12.5 82t-24.5 62t-46 48q-23 19 -51.5 29.5t-58.5 10.5q-55 0 -92.5 -30.5t-60 -80t-32 -110t-9.5 -121.5q0 -62 10 -122.5t32.5 -109.5t60.5 -78.5t93 -29.5
q29 0 57.5 10t51.5 29q44 30 59.5 78.5t22.5 126.5h23q0 -97 1 -156.5t3 -99.5h-23q-4 43 -13.5 54t-31.5 -3q-37 -26 -78.5 -45.5t-106.5 -19.5q-109 0 -191.5 43t-128 124t-45.5 195q0 112 47 196t129.5 131t189.5 47zM467 936q22 12 48.5 6t38.5 -32q11 -22 2.5 -44.5
t-31.5 -34.5q-23 -13 -50 -18t-65 -13t-96 -28l-7 12q48 40 74 69.5t44.5 50.5t41.5 32z" />
    <glyph glyph-name="cacute" unicode="&#x107;" horiz-adv-x="500" 
d="M285 532q42 0 75 -8.5t54 -21.5q26 -16 42 -41t16 -58q0 -38 -25 -63.5t-63 -25.5q-39 0 -61.5 23t-22.5 59q0 35 22 59t52 32q-8 8 -20.5 13t-29.5 5q-34 0 -57 -19.5t-37.5 -53t-21 -75t-6.5 -85.5q0 -74 19.5 -115.5t49 -58t60.5 -16.5q24 0 59 13t67 61l17 -6
q-11 -39 -37 -77t-67 -62.5t-100 -24.5q-66 0 -119.5 27t-85.5 87t-32 157q0 94 33 154.5t90.5 90.5t128.5 30zM379 819q19 -15 19.5 -40t-16.5 -46q-15 -19 -38.5 -34.5t-55.5 -37.5t-78 -62l-11 9q29 55 41.5 92t21.5 63t27 46q16 19 42.5 23t47.5 -13z" />
    <glyph glyph-name="Ccircumflex" unicode="&#x108;" horiz-adv-x="711" 
d="M405 722q66 0 108.5 -19.5t75.5 -45.5q20 -15 30.5 -3.5t14.5 54.5h23q-2 -39 -3 -96t-1 -150h-23q-4 47 -12.5 82t-24.5 62t-46 48q-23 19 -51.5 29.5t-58.5 10.5q-55 0 -92.5 -30.5t-60 -80t-32 -110t-9.5 -121.5q0 -62 10 -122.5t32.5 -109.5t60.5 -78.5t93 -29.5
q29 0 57.5 10t51.5 29q44 30 59.5 78.5t22.5 126.5h23q0 -97 1 -156.5t3 -99.5h-23q-4 43 -13.5 54t-31.5 -3q-37 -26 -78.5 -45.5t-106.5 -19.5q-109 0 -191.5 43t-128 124t-45.5 195q0 112 47 196t129.5 131t189.5 47zM393 948q33 -45 89 -89.5t122 -74.5l-5 -15
q-67 12 -132 29t-103 34q-32 -17 -86 -34t-109 -29l-5 15q65 29 121 73.5t90 90.5h18z" />
    <glyph glyph-name="ccircumflex" unicode="&#x109;" horiz-adv-x="500" 
d="M285 532q42 0 75 -8.5t54 -21.5q26 -16 42 -41t16 -58q0 -38 -25 -63.5t-63 -25.5q-39 0 -61.5 23t-22.5 59q0 35 22 59t52 32q-8 8 -20.5 13t-29.5 5q-34 0 -57 -19.5t-37.5 -53t-21 -75t-6.5 -85.5q0 -74 19.5 -115.5t49 -58t60.5 -16.5q24 0 59 13t67 61l17 -6
q-11 -39 -37 -77t-67 -62.5t-100 -24.5q-66 0 -119.5 27t-85.5 87t-32 157q0 94 33 154.5t90.5 90.5t128.5 30zM278 826q29 -57 77.5 -112.5t105.5 -91.5l-8 -14q-59 13 -114.5 31.5t-89.5 36.5q-27 -18 -72 -36.5t-92 -31.5l-8 14q56 35 104.5 90.5t78.5 113.5h18z" />
    <glyph glyph-name="Cdotaccent" unicode="&#x10a;" horiz-adv-x="711" 
d="M405 722q66 0 108.5 -19.5t75.5 -45.5q20 -15 30.5 -3.5t14.5 54.5h23q-2 -39 -3 -96t-1 -150h-23q-4 47 -12.5 82t-24.5 62t-46 48q-23 19 -51.5 29.5t-58.5 10.5q-55 0 -92.5 -30.5t-60 -80t-32 -110t-9.5 -121.5q0 -62 10 -122.5t32.5 -109.5t60.5 -78.5t93 -29.5
q29 0 57.5 10t51.5 29q44 30 59.5 78.5t22.5 126.5h23q0 -97 1 -156.5t3 -99.5h-23q-4 43 -13.5 54t-31.5 -3q-37 -26 -78.5 -45.5t-106.5 -19.5q-109 0 -191.5 43t-128 124t-45.5 195q0 112 47 196t129.5 131t189.5 47zM384 926q43 0 67.5 -21t24.5 -61t-24.5 -61
t-67.5 -21t-67.5 21t-24.5 61t24.5 61t67.5 21z" />
    <glyph glyph-name="cdotaccent" unicode="&#x10b;" horiz-adv-x="500" 
d="M285 532q42 0 75 -8.5t54 -21.5q26 -16 42 -41t16 -58q0 -38 -25 -63.5t-63 -25.5q-39 0 -61.5 23t-22.5 59q0 35 22 59t52 32q-8 8 -20.5 13t-29.5 5q-34 0 -57 -19.5t-37.5 -53t-21 -75t-6.5 -85.5q0 -74 19.5 -115.5t49 -58t60.5 -16.5q24 0 59 13t67 61l17 -6
q-11 -39 -37 -77t-67 -62.5t-100 -24.5q-66 0 -119.5 27t-85.5 87t-32 157q0 94 33 154.5t90.5 90.5t128.5 30zM272 779q47 0 73.5 -21t26.5 -61t-26.5 -61t-73.5 -21t-73.5 21t-26.5 61t26.5 61t73.5 21z" />
    <glyph glyph-name="Ccaron" unicode="&#x10c;" horiz-adv-x="711" 
d="M405 722q66 0 108.5 -19.5t75.5 -45.5q20 -15 30.5 -3.5t14.5 54.5h23q-2 -39 -3 -96t-1 -150h-23q-4 47 -12.5 82t-24.5 62t-46 48q-23 19 -51.5 29.5t-58.5 10.5q-55 0 -92.5 -30.5t-60 -80t-32 -110t-9.5 -121.5q0 -62 10 -122.5t32.5 -109.5t60.5 -78.5t93 -29.5
q29 0 57.5 10t51.5 29q44 30 59.5 78.5t22.5 126.5h23q0 -97 1 -156.5t3 -99.5h-23q-4 43 -13.5 54t-31.5 -3q-37 -26 -78.5 -45.5t-106.5 -19.5q-109 0 -191.5 43t-128 124t-45.5 195q0 112 47 196t129.5 131t189.5 47zM596 942l5 -15q-65 -29 -121 -73.5t-90 -90.5h-18
q-33 45 -89 90t-122 74l5 15q67 -11 132 -28t103 -35q32 18 86 35t109 28z" />
    <glyph glyph-name="ccaron" unicode="&#x10d;" horiz-adv-x="500" 
d="M285 532q42 0 75 -8.5t54 -21.5q26 -16 42 -41t16 -58q0 -38 -25 -63.5t-63 -25.5q-39 0 -61.5 23t-22.5 59q0 35 22 59t52 32q-8 8 -20.5 13t-29.5 5q-34 0 -57 -19.5t-37.5 -53t-21 -75t-6.5 -85.5q0 -74 19.5 -115.5t49 -58t60.5 -16.5q24 0 59 13t67 61l17 -6
q-11 -39 -37 -77t-67 -62.5t-100 -24.5q-66 0 -119.5 27t-85.5 87t-32 157q0 94 33 154.5t90.5 90.5t128.5 30zM443 826l8 -14q-56 -35 -104.5 -90.5t-78.5 -113.5h-18q-29 57 -77.5 113t-105.5 91l8 14q59 -12 115 -30.5t89 -37.5q28 19 72.5 37.5t91.5 30.5z" />
    <glyph glyph-name="Dcaron" unicode="&#x10e;" horiz-adv-x="793" 
d="M352 708q204 0 302.5 -89.5t98.5 -256.5q0 -109 -48.5 -190.5t-140.5 -126.5t-221 -45q-24 0 -69 1.5t-79 1.5q-47 0 -92 -0.5t-72 -2.5v20q31 2 46.5 8t21 24t5.5 54v496q0 37 -5.5 54.5t-21 24t-46.5 7.5v20q27 -1 72 -2.5t90 -0.5q36 1 82 2t77 1zM359 690
q-46 0 -60 -17t-14 -69v-500q0 -52 14.5 -69t60.5 -17q76 0 121 39.5t64.5 115.5t19.5 185q0 168 -48.5 250t-157.5 82zM564 942l5 -15q-65 -29 -121 -73.5t-90 -90.5h-18q-33 45 -89 90t-122 74l5 15q67 -11 132 -28t103 -35q32 18 86 35t109 28z" />
    <glyph glyph-name="dcaron" unicode="&#x10f;" horiz-adv-x="603" 
d="M526 782v-672q0 -45 13.5 -66.5t46.5 -21.5v-21q-31 3 -62 3q-45 0 -85 -3t-75 -11v672q0 45 -12.5 66.5t-47.5 21.5v21q32 -3 62 -3q46 0 86 3.5t74 10.5zM257 532q44 0 76 -12.5t53 -41.5l-12 -10q-13 17 -31.5 25t-38.5 8q-48 0 -74.5 -59.5t-26.5 -182.5
q0 -86 10.5 -135.5t29 -69.5t41.5 -20q31 0 55.5 23.5t25.5 62.5l3 -42q-18 -46 -49.5 -69t-80.5 -23q-58 0 -104.5 29t-73 89.5t-26.5 157.5q0 91 28.5 150.5t79 89.5t115.5 30zM687 784q2 -5 3.5 -18.5t1.5 -22.5q0 -29 -29 -72t-78 -108l-14 4q12 68 16 100t4 45
q0 20 -3.5 30t-16.5 10v21q42 -2 67.5 2t48.5 9z" />
    <glyph glyph-name="Dcroat" unicode="&#x110;" horiz-adv-x="793" 
d="M352 708q204 0 302.5 -89.5t98.5 -256.5q0 -109 -48.5 -190.5t-140.5 -126.5t-221 -45q-24 0 -69 1.5t-79 1.5q-47 0 -92 -0.5t-72 -2.5v20q31 2 46.5 8t21 24t5.5 54v496q0 37 -5.5 54.5t-21 24t-46.5 7.5v20q27 -1 72 -2.5t90 -0.5q36 1 82 2t77 1zM359 690
q-46 0 -60 -17t-14 -69v-500q0 -52 14.5 -69t60.5 -17q76 0 121 39.5t64.5 115.5t19.5 185q0 168 -48.5 250t-157.5 82zM402 366v-20h-394v20h394z" />
    <glyph glyph-name="dcroat" unicode="&#x111;" horiz-adv-x="603" 
d="M526 782v-672q0 -45 13.5 -66.5t46.5 -21.5v-21q-31 3 -62 3q-45 0 -85 -3t-75 -11v672q0 45 -12.5 66.5t-47.5 21.5v21q32 -3 62 -3q46 0 86 3.5t74 10.5zM257 532q44 0 76 -12.5t53 -41.5l-12 -10q-13 17 -31.5 25t-38.5 8q-48 0 -74.5 -59.5t-26.5 -182.5
q0 -86 10.5 -135.5t29 -69.5t41.5 -20q31 0 55.5 23.5t25.5 62.5l3 -42q-18 -46 -49.5 -69t-80.5 -23q-58 0 -104.5 29t-73 89.5t-26.5 157.5q0 91 28.5 150.5t79 89.5t115.5 30zM594 628v-20h-394v20h394z" />
    <glyph glyph-name="Emacron" unicode="&#x112;" horiz-adv-x="642" 
d="M578 708q-4 -47 -5.5 -91t-1.5 -67q0 -20 1 -38.5t2 -31.5h-23q-11 78 -35.5 123t-60 63.5t-78.5 18.5h-27q-28 0 -42 -4.5t-18.5 -18.5t-4.5 -44v-528q0 -29 4.5 -43.5t18.5 -19t42 -4.5h41q39 0 74.5 20.5t63.5 70t42 134.5h23q-3 -34 -3 -88q0 -24 1 -68t6 -92
q-51 2 -115 2.5t-114 0.5h-93.5t-123.5 -0.5t-121 -2.5v20q31 2 46.5 8t21 24t5.5 54v496q0 37 -5.5 54.5t-21 24t-46.5 7.5v20q56 -1 121 -2t123.5 -1h93.5q46 0 104.5 0.5t104.5 2.5zM427 366v-10v-10h-172v10v10h172zM456 498q-4 -57 -3.5 -87t0.5 -55t1 -55t5 -87h-23
q-5 36 -21 66t-43 48t-66 18v20q39 0 65 21.5t41.5 52t20.5 58.5h23zM525 844v-25h-416v25h416z" />
    <glyph glyph-name="emacron" unicode="&#x113;" horiz-adv-x="504" 
d="M285 532q88 0 138 -52t50 -171h-321l-1 19h186q2 49 -4 90.5t-19.5 66.5t-35.5 25q-30 0 -51 -43t-26 -146l4 -7q-2 -11 -2 -22.5v-24.5q0 -69 18.5 -110t46.5 -58t58 -17q25 0 59.5 12.5t66.5 60.5l17 -6q-11 -39 -37.5 -76.5t-67.5 -62t-99 -24.5q-66 0 -118 27.5
t-82.5 87t-30.5 155.5q0 95 33 156t90 90.5t128 29.5zM446 712v-25h-344v25h344z" />
    <glyph glyph-name="Ebreve" unicode="&#x114;" horiz-adv-x="642" 
d="M578 708q-4 -47 -5.5 -91t-1.5 -67q0 -20 1 -38.5t2 -31.5h-23q-11 78 -35.5 123t-60 63.5t-78.5 18.5h-27q-28 0 -42 -4.5t-18.5 -18.5t-4.5 -44v-528q0 -29 4.5 -43.5t18.5 -19t42 -4.5h41q39 0 74.5 20.5t63.5 70t42 134.5h23q-3 -34 -3 -88q0 -24 1 -68t6 -92
q-51 2 -115 2.5t-114 0.5h-93.5t-123.5 -0.5t-121 -2.5v20q31 2 46.5 8t21 24t5.5 54v496q0 37 -5.5 54.5t-21 24t-46.5 7.5v20q56 -1 121 -2t123.5 -1h93.5q46 0 104.5 0.5t104.5 2.5zM427 366v-10v-10h-172v10v10h172zM456 498q-4 -57 -3.5 -87t0.5 -55t1 -55t5 -87h-23
q-5 36 -21 66t-43 48t-66 18v20q39 0 65 21.5t41.5 52t20.5 58.5h23zM528 918l12 -11q-14 -32 -43.5 -64.5t-76 -54t-111.5 -21.5t-111.5 21.5t-76 54t-43.5 64.5l12 11q28 -20 81.5 -40t137.5 -20t137.5 20t81.5 40z" />
    <glyph glyph-name="ebreve" unicode="&#x115;" horiz-adv-x="504" 
d="M285 532q88 0 138 -52t50 -171h-321l-1 19h186q2 49 -4 90.5t-19.5 66.5t-35.5 25q-30 0 -51 -43t-26 -146l4 -7q-2 -11 -2 -22.5v-24.5q0 -69 18.5 -110t46.5 -58t58 -17q25 0 59.5 12.5t66.5 60.5l17 -6q-11 -39 -37.5 -76.5t-67.5 -62t-99 -24.5q-66 0 -118 27.5
t-82.5 87t-30.5 155.5q0 95 33 156t90 90.5t128 29.5zM454 788l17 -9q-12 -37 -35.5 -74.5t-62.5 -62.5t-97 -25t-97 25t-62.5 62.5t-35.5 74.5l17 9q22 -22 65 -43t113 -21q71 0 113.5 21t64.5 43z" />
    <glyph glyph-name="Edotaccent" unicode="&#x116;" horiz-adv-x="642" 
d="M578 708q-4 -47 -5.5 -91t-1.5 -67q0 -20 1 -38.5t2 -31.5h-23q-11 78 -35.5 123t-60 63.5t-78.5 18.5h-27q-28 0 -42 -4.5t-18.5 -18.5t-4.5 -44v-528q0 -29 4.5 -43.5t18.5 -19t42 -4.5h41q39 0 74.5 20.5t63.5 70t42 134.5h23q-3 -34 -3 -88q0 -24 1 -68t6 -92
q-51 2 -115 2.5t-114 0.5h-93.5t-123.5 -0.5t-121 -2.5v20q31 2 46.5 8t21 24t5.5 54v496q0 37 -5.5 54.5t-21 24t-46.5 7.5v20q56 -1 121 -2t123.5 -1h93.5q46 0 104.5 0.5t104.5 2.5zM427 366v-10v-10h-172v10v10h172zM456 498q-4 -57 -3.5 -87t0.5 -55t1 -55t5 -87h-23
q-5 36 -21 66t-43 48t-66 18v20q39 0 65 21.5t41.5 52t20.5 58.5h23zM318 926q43 0 67.5 -21t24.5 -61t-24.5 -61t-67.5 -21t-67.5 21t-24.5 61t24.5 61t67.5 21z" />
    <glyph glyph-name="edotaccent" unicode="&#x117;" horiz-adv-x="504" 
d="M285 532q88 0 138 -52t50 -171h-321l-1 19h186q2 49 -4 90.5t-19.5 66.5t-35.5 25q-30 0 -51 -43t-26 -146l4 -7q-2 -11 -2 -22.5v-24.5q0 -69 18.5 -110t46.5 -58t58 -17q25 0 59.5 12.5t66.5 60.5l17 -6q-11 -39 -37.5 -76.5t-67.5 -62t-99 -24.5q-66 0 -118 27.5
t-82.5 87t-30.5 155.5q0 95 33 156t90 90.5t128 29.5zM277 779q47 0 73.5 -21t26.5 -61t-26.5 -61t-73.5 -21t-73.5 21t-26.5 61t26.5 61t73.5 21z" />
    <glyph glyph-name="Eogonek" unicode="&#x118;" horiz-adv-x="642" 
d="M578 708q-4 -47 -5.5 -91t-1.5 -67q0 -20 1 -38.5t2 -31.5h-23q-11 78 -35.5 123t-60 63.5t-78.5 18.5h-27q-28 0 -42 -4.5t-18.5 -18.5t-4.5 -44v-528q0 -29 4.5 -43.5t18.5 -19t42 -4.5h41q39 0 74.5 20.5t63.5 70t42 134.5h23q-3 -34 -3 -88q0 -24 1 -68t6 -92
q-51 2 -115 2.5t-114 0.5h-93.5t-123.5 -0.5t-121 -2.5v20q31 2 46.5 8t21 24t5.5 54v496q0 37 -5.5 54.5t-21 24t-46.5 7.5v20q56 -1 121 -2t123.5 -1h93.5q46 0 104.5 0.5t104.5 2.5zM427 366v-10v-10h-172v10v10h172zM456 498q-4 -57 -3.5 -87t0.5 -55t1 -55t5 -87h-23
q-5 36 -21 66t-43 48t-66 18v20q39 0 65 21.5t41.5 52t20.5 58.5h23zM594 3q-61 -20 -86 -46t-25 -48q0 -20 10.5 -29.5t30.5 -9.5q17 0 35.5 7t29.5 18l13 -15q-28 -36 -62 -52t-83 -16q-46 0 -70.5 18.5t-24.5 51.5q0 43 51.5 73.5t142.5 47.5h38z" />
    <glyph glyph-name="eogonek" unicode="&#x119;" horiz-adv-x="504" 
d="M285 532q88 0 138 -52t50 -171h-321l-1 19h186q2 49 -4 90.5t-19.5 66.5t-35.5 25q-30 0 -51 -43t-26 -146l4 -7q-2 -11 -2 -22.5v-24.5q0 -69 18.5 -110t46.5 -58t58 -17q25 0 59.5 12.5t66.5 60.5l17 -6q-11 -39 -37.5 -76.5t-67.5 -62t-99 -24.5q-66 0 -118 27.5
t-82.5 87t-30.5 155.5q0 95 33 156t90 90.5t128 29.5zM358 11q-4 -4 -8.5 -7t-13.5 -8q-41 -19 -56.5 -42.5t-15.5 -44.5q0 -20 10.5 -29.5t29.5 -9.5q18 0 36.5 7t28.5 18l14 -15q-28 -36 -62 -52t-83 -16q-47 0 -71 18.5t-24 51.5q0 43 44.5 73.5t125.5 47.5z" />
    <glyph glyph-name="Ecaron" unicode="&#x11a;" horiz-adv-x="642" 
d="M578 708q-4 -47 -5.5 -91t-1.5 -67q0 -20 1 -38.5t2 -31.5h-23q-11 78 -35.5 123t-60 63.5t-78.5 18.5h-27q-28 0 -42 -4.5t-18.5 -18.5t-4.5 -44v-528q0 -29 4.5 -43.5t18.5 -19t42 -4.5h41q39 0 74.5 20.5t63.5 70t42 134.5h23q-3 -34 -3 -88q0 -24 1 -68t6 -92
q-51 2 -115 2.5t-114 0.5h-93.5t-123.5 -0.5t-121 -2.5v20q31 2 46.5 8t21 24t5.5 54v496q0 37 -5.5 54.5t-21 24t-46.5 7.5v20q56 -1 121 -2t123.5 -1h93.5q46 0 104.5 0.5t104.5 2.5zM427 366v-10v-10h-172v10v10h172zM456 498q-4 -57 -3.5 -87t0.5 -55t1 -55t5 -87h-23
q-5 36 -21 66t-43 48t-66 18v20q39 0 65 21.5t41.5 52t20.5 58.5h23zM529 942l5 -15q-65 -29 -121 -73.5t-90 -90.5h-18q-33 45 -89 90t-122 74l5 15q67 -11 132 -28t103 -35q32 18 86 35t109 28z" />
    <glyph glyph-name="ecaron" unicode="&#x11b;" horiz-adv-x="504" 
d="M285 532q88 0 138 -52t50 -171h-321l-1 19h186q2 49 -4 90.5t-19.5 66.5t-35.5 25q-30 0 -51 -43t-26 -146l4 -7q-2 -11 -2 -22.5v-24.5q0 -69 18.5 -110t46.5 -58t58 -17q25 0 59.5 12.5t66.5 60.5l17 -6q-11 -39 -37.5 -76.5t-67.5 -62t-99 -24.5q-66 0 -118 27.5
t-82.5 87t-30.5 155.5q0 95 33 156t90 90.5t128 29.5zM451 826l8 -14q-56 -35 -104.5 -90.5t-78.5 -113.5h-18q-29 57 -77.5 113t-105.5 91l8 14q59 -12 115 -30.5t89 -37.5q28 19 72.5 37.5t91.5 30.5z" />
    <glyph glyph-name="Gcircumflex" unicode="&#x11c;" horiz-adv-x="745" 
d="M414 722q69 0 113 -19t79 -46q11 -9 20 -9q19 0 25 60h23q-2 -39 -3 -96t-1 -150h-23q-7 66 -23 112.5t-61 79.5q-23 19 -54.5 29.5t-62.5 10.5q-56 0 -94.5 -30.5t-62.5 -80t-34.5 -110t-10.5 -121.5q0 -180 46.5 -263t129.5 -83q20 0 35 4.5t25 11.5q13 9 18 21t5 30
v99q0 47 -8 70.5t-29.5 32t-63.5 9.5v20q22 -1 53 -1.5t65 -1t63 -0.5q45 0 82.5 1t61.5 2v-20q-27 -2 -35 -16t-8 -70v-198h-20q-1 17 -8 37t-23 20q-7 0 -20 -4t-41 -18q-37 -20 -79.5 -34.5t-86.5 -14.5q-181 0 -273.5 95.5t-92.5 265.5q0 113 48 197t132.5 131t193.5 47
zM404 948q33 -45 89 -89.5t122 -74.5l-5 -15q-67 12 -132 29t-103 34q-32 -17 -86 -34t-109 -29l-5 15q65 29 121 73.5t90 90.5h18z" />
    <glyph glyph-name="gcircumflex" unicode="&#x11d;" horiz-adv-x="562" 
d="M219 -188q-65 0 -114 10.5t-76 31t-27 49.5q0 30 28 54.5t86 38.5l9 -16q-17 -17 -24 -33.5t-7 -32.5q0 -41 37 -63t102 -22q45 0 78 12.5t51 35.5t18 54q0 29 -21.5 49t-86.5 20h-58q-43 0 -74 11t-47.5 31t-16.5 50q0 45 35 76.5t97 58.5l9 -8q-15 -9 -28.5 -21
t-13.5 -32q0 -32 38 -32h103q90 0 147.5 -31.5t57.5 -105.5q0 -50 -32 -92t-98.5 -67.5t-171.5 -25.5zM232 213q-90 0 -148.5 39t-58.5 121q0 83 58.5 121t148.5 38q89 0 148 -38t59 -121q0 -82 -59 -121t-148 -39zM232 231q22 0 35.5 31t13.5 111t-13.5 110.5t-35.5 30.5
q-23 0 -36 -30.5t-13 -110.5t13 -111t36 -31zM391 445l-21 7q16 41 49.5 66.5t73.5 25.5q33 0 49.5 -18t16.5 -47t-15.5 -44.5t-36.5 -15.5q-18 0 -33 12.5t-17 38t18 64.5l6 -6q-37 -13 -56.5 -32t-33.5 -51zM261 826q29 -57 77.5 -112.5t105.5 -91.5l-8 -14
q-59 13 -114.5 31.5t-89.5 36.5q-27 -18 -72 -36.5t-92 -31.5l-8 14q56 35 104.5 90.5t78.5 113.5h18z" />
    <glyph glyph-name="Gbreve" unicode="&#x11e;" horiz-adv-x="745" 
d="M414 722q69 0 113 -19t79 -46q11 -9 20 -9q19 0 25 60h23q-2 -39 -3 -96t-1 -150h-23q-7 66 -23 112.5t-61 79.5q-23 19 -54.5 29.5t-62.5 10.5q-56 0 -94.5 -30.5t-62.5 -80t-34.5 -110t-10.5 -121.5q0 -180 46.5 -263t129.5 -83q20 0 35 4.5t25 11.5q13 9 18 21t5 30
v99q0 47 -8 70.5t-29.5 32t-63.5 9.5v20q22 -1 53 -1.5t65 -1t63 -0.5q45 0 82.5 1t61.5 2v-20q-27 -2 -35 -16t-8 -70v-198h-20q-1 17 -8 37t-23 20q-7 0 -20 -4t-41 -18q-37 -20 -79.5 -34.5t-86.5 -14.5q-181 0 -273.5 95.5t-92.5 265.5q0 113 48 197t132.5 131t193.5 47
zM606 918l12 -11q-14 -32 -43.5 -64.5t-76 -54t-111.5 -21.5t-111.5 21.5t-76 54t-43.5 64.5l12 11q28 -20 81.5 -40t137.5 -20t137.5 20t81.5 40z" />
    <glyph glyph-name="gbreve" unicode="&#x11f;" horiz-adv-x="562" 
d="M219 -188q-65 0 -114 10.5t-76 31t-27 49.5q0 30 28 54.5t86 38.5l9 -16q-17 -17 -24 -33.5t-7 -32.5q0 -41 37 -63t102 -22q45 0 78 12.5t51 35.5t18 54q0 29 -21.5 49t-86.5 20h-58q-43 0 -74 11t-47.5 31t-16.5 50q0 45 35 76.5t97 58.5l9 -8q-15 -9 -28.5 -21
t-13.5 -32q0 -32 38 -32h103q90 0 147.5 -31.5t57.5 -105.5q0 -50 -32 -92t-98.5 -67.5t-171.5 -25.5zM232 213q-90 0 -148.5 39t-58.5 121q0 83 58.5 121t148.5 38q89 0 148 -38t59 -121q0 -82 -59 -121t-148 -39zM232 231q22 0 35.5 31t13.5 111t-13.5 110.5t-35.5 30.5
q-23 0 -36 -30.5t-13 -110.5t13 -111t36 -31zM391 445l-21 7q16 41 49.5 66.5t73.5 25.5q33 0 49.5 -18t16.5 -47t-15.5 -44.5t-36.5 -15.5q-18 0 -33 12.5t-17 38t18 64.5l6 -6q-37 -13 -56.5 -32t-33.5 -51zM429 788l17 -9q-12 -37 -35.5 -74.5t-62.5 -62.5t-97 -25
t-97 25t-62.5 62.5t-35.5 74.5l17 9q22 -22 65 -43t113 -21q71 0 113.5 21t64.5 43z" />
    <glyph glyph-name="Gdotaccent" unicode="&#x120;" horiz-adv-x="745" 
d="M414 722q69 0 113 -19t79 -46q11 -9 20 -9q19 0 25 60h23q-2 -39 -3 -96t-1 -150h-23q-7 66 -23 112.5t-61 79.5q-23 19 -54.5 29.5t-62.5 10.5q-56 0 -94.5 -30.5t-62.5 -80t-34.5 -110t-10.5 -121.5q0 -180 46.5 -263t129.5 -83q20 0 35 4.5t25 11.5q13 9 18 21t5 30
v99q0 47 -8 70.5t-29.5 32t-63.5 9.5v20q22 -1 53 -1.5t65 -1t63 -0.5q45 0 82.5 1t61.5 2v-20q-27 -2 -35 -16t-8 -70v-198h-20q-1 17 -8 37t-23 20q-7 0 -20 -4t-41 -18q-37 -20 -79.5 -34.5t-86.5 -14.5q-181 0 -273.5 95.5t-92.5 265.5q0 113 48 197t132.5 131t193.5 47
zM405 926q43 0 67.5 -21t24.5 -61t-24.5 -61t-67.5 -21t-67.5 21t-24.5 61t24.5 61t67.5 21z" />
    <glyph glyph-name="gdotaccent" unicode="&#x121;" horiz-adv-x="562" 
d="M219 -188q-65 0 -114 10.5t-76 31t-27 49.5q0 30 28 54.5t86 38.5l9 -16q-17 -17 -24 -33.5t-7 -32.5q0 -41 37 -63t102 -22q45 0 78 12.5t51 35.5t18 54q0 29 -21.5 49t-86.5 20h-58q-43 0 -74 11t-47.5 31t-16.5 50q0 45 35 76.5t97 58.5l9 -8q-15 -9 -28.5 -21
t-13.5 -32q0 -32 38 -32h103q90 0 147.5 -31.5t57.5 -105.5q0 -50 -32 -92t-98.5 -67.5t-171.5 -25.5zM232 213q-90 0 -148.5 39t-58.5 121q0 83 58.5 121t148.5 38q89 0 148 -38t59 -121q0 -82 -59 -121t-148 -39zM232 231q22 0 35.5 31t13.5 111t-13.5 110.5t-35.5 30.5
q-23 0 -36 -30.5t-13 -110.5t13 -111t36 -31zM391 445l-21 7q16 41 49.5 66.5t73.5 25.5q33 0 49.5 -18t16.5 -47t-15.5 -44.5t-36.5 -15.5q-18 0 -33 12.5t-17 38t18 64.5l6 -6q-37 -13 -56.5 -32t-33.5 -51zM252 779q47 0 73.5 -21t26.5 -61t-26.5 -61t-73.5 -21t-73.5 21
t-26.5 61t26.5 61t73.5 21z" />
    <glyph glyph-name="uni0122" unicode="&#x122;" horiz-adv-x="745" 
d="M414 722q69 0 113 -19t79 -46q11 -9 20 -9q19 0 25 60h23q-2 -39 -3 -96t-1 -150h-23q-7 66 -23 112.5t-61 79.5q-23 19 -54.5 29.5t-62.5 10.5q-56 0 -94.5 -30.5t-62.5 -80t-34.5 -110t-10.5 -121.5q0 -180 46.5 -263t129.5 -83q20 0 35 4.5t25 11.5q13 9 18 21t5 30
v99q0 47 -8 70.5t-29.5 32t-63.5 9.5v20q22 -1 53 -1.5t65 -1t63 -0.5q45 0 82.5 1t61.5 2v-20q-27 -2 -35 -16t-8 -70v-198h-20q-1 17 -8 37t-23 20q-7 0 -20 -4t-41 -18q-37 -20 -79.5 -34.5t-86.5 -14.5q-181 0 -273.5 95.5t-92.5 265.5q0 113 48 197t132.5 131t193.5 47
zM408 -50q38 0 62.5 -20.5t24.5 -58.5q0 -48 -30.5 -78.5t-93.5 -35.5l-3 21q39 5 60 17.5t26 34.5q-7 -7 -19 -11t-32 -4q-36 0 -56.5 17t-20.5 49q0 33 21.5 51t60.5 18z" />
    <glyph glyph-name="uni0123" unicode="&#x123;" horiz-adv-x="557" 
d="M219 -188q-65 0 -114 10.5t-76 31t-27 49.5q0 30 28 54.5t86 38.5l9 -16q-17 -17 -24 -33.5t-7 -32.5q0 -41 37 -63t102 -22q45 0 78 12.5t51 35.5t18 54q0 29 -21.5 49t-86.5 20h-58q-43 0 -74 11t-47.5 31t-16.5 50q0 45 35 76.5t97 58.5l9 -8q-15 -9 -28.5 -21
t-13.5 -32q0 -32 38 -32h103q90 0 147.5 -31.5t57.5 -105.5q0 -50 -32 -92t-98.5 -67.5t-171.5 -25.5zM232 213q-90 0 -148.5 39t-58.5 121q0 83 58.5 121t148.5 38q89 0 148 -38t59 -121q0 -82 -59 -121t-148 -39zM232 231q22 0 35.5 31t13.5 111t-13.5 110.5t-35.5 30.5
q-23 0 -36 -30.5t-13 -110.5t13 -111t36 -31zM391 445l-21 7q16 41 49.5 66.5t73.5 25.5q33 0 49.5 -18t16.5 -47t-15.5 -44.5t-36.5 -15.5q-18 0 -33 12.5t-17 38t18 64.5l6 -6q-37 -13 -56.5 -32t-33.5 -51zM244 619q-38 0 -62.5 20.5t-24.5 58.5q0 48 30.5 78.5
t93.5 35.5l3 -21q-39 -5 -60 -17.5t-26 -34.5q7 7 19 11t32 4q36 0 56.5 -17t20.5 -49q0 -33 -21.5 -51t-60.5 -18z" />
    <glyph glyph-name="Hcircumflex" unicode="&#x124;" horiz-adv-x="815" 
d="M457 0v20q31 2 46.5 8t21 24t5.5 54v496q0 37 -5.5 54.5t-21 24t-46.5 7.5v20q29 -1 75 -2t92 -1q49 0 91.5 1t68.5 2v-20q-31 -1 -47 -7.5t-21 -24t-5 -54.5v-496q0 -36 5.5 -54t21 -24t46.5 -8v-20q-26 2 -68.5 2.5t-91.5 0.5q-46 0 -92 -0.5t-75 -2.5zM31 0v20
q31 2 46.5 8t21 24t5.5 54v496q0 37 -5.5 54.5t-21 24t-46.5 7.5v20q27 -1 72 -2t96 -1q44 0 87.5 1t71.5 2v-20q-31 -1 -47 -7.5t-21 -24t-5 -54.5v-496q0 -36 5.5 -54t21 -24t46.5 -8v-20q-28 2 -71.5 2.5t-87.5 0.5q-51 0 -96 -0.5t-72 -2.5zM210 346v20h395v-20h-395z
M419 948q33 -45 89 -89.5t122 -74.5l-5 -15q-67 12 -132 29t-103 34q-32 -17 -86 -34t-109 -29l-5 15q65 29 121 73.5t90 90.5h18z" />
    <glyph glyph-name="hcircumflex" unicode="&#x125;" horiz-adv-x="615" 
d="M240 782v-334q25 46 66.5 65t95.5 19q44 0 70.5 -11t40.5 -28q16 -19 23 -49t7 -81v-270q0 -42 13.5 -57t46.5 -15v-21q-19 1 -58.5 2.5t-77.5 1.5q-40 0 -78 -1.5t-58 -2.5v21q28 0 39 15t11 57v318q0 23 -5 39.5t-16.5 25t-33.5 8.5q-35 0 -60.5 -26t-25.5 -68v-297
q0 -42 11.5 -57t38.5 -15v-21q-18 1 -54 2.5t-74 1.5q-40 0 -81.5 -1.5t-62.5 -2.5v21q33 0 46.5 15t13.5 57v569q0 45 -12.5 66.5t-47.5 21.5v21q32 -3 62 -3q46 0 86 3.5t74 10.5zM305 1012q33 -45 89 -89.5t122 -74.5l-5 -15q-67 12 -132 29t-103 34q-32 -17 -86 -34
t-109 -29l-5 15q65 29 121 73.5t90 90.5h18z" />
    <glyph glyph-name="Hbar" unicode="&#x126;" horiz-adv-x="815" 
d="M457 0v20q31 2 46.5 8t21 24t5.5 54v496q0 37 -5.5 54.5t-21 24t-46.5 7.5v20q29 -1 75 -2t92 -1q49 0 91.5 1t68.5 2v-20q-31 -1 -47 -7.5t-21 -24t-5 -54.5v-496q0 -36 5.5 -54t21 -24t46.5 -8v-20q-26 2 -68.5 2.5t-91.5 0.5q-46 0 -92 -0.5t-75 -2.5zM31 0v20
q31 2 46.5 8t21 24t5.5 54v496q0 37 -5.5 54.5t-21 24t-46.5 7.5v20q27 -1 72 -2t96 -1q44 0 87.5 1t71.5 2v-20q-31 -1 -47 -7.5t-21 -24t-5 -54.5v-496q0 -36 5.5 -54t21 -24t46.5 -8v-20q-28 2 -71.5 2.5t-87.5 0.5q-51 0 -96 -0.5t-72 -2.5zM210 346v20h395v-20h-395z
M784 533v-20h-753v20h753z" />
    <glyph glyph-name="hbar" unicode="&#x127;" horiz-adv-x="615" 
d="M240 782v-334q25 46 66.5 65t95.5 19q44 0 70.5 -11t40.5 -28q16 -19 23 -49t7 -81v-270q0 -42 13.5 -57t46.5 -15v-21q-19 1 -58.5 2.5t-77.5 1.5q-40 0 -78 -1.5t-58 -2.5v21q28 0 39 15t11 57v318q0 23 -5 39.5t-16.5 25t-33.5 8.5q-35 0 -60.5 -26t-25.5 -68v-297
q0 -42 11.5 -57t38.5 -15v-21q-18 1 -54 2.5t-74 1.5q-40 0 -81.5 -1.5t-62.5 -2.5v21q33 0 46.5 15t13.5 57v569q0 45 -12.5 66.5t-47.5 21.5v21q32 -3 62 -3q46 0 86 3.5t74 10.5zM403 628v-20h-394v20h394z" />
    <glyph glyph-name="Itilde" unicode="&#x128;" horiz-adv-x="389" 
d="M358 708v-20q-31 -1 -47 -7.5t-21 -24t-5 -54.5v-496q0 -36 5.5 -54t21 -24t46.5 -8v-20q-28 2 -71.5 2.5t-87.5 0.5q-51 0 -96 -0.5t-72 -2.5v20q31 2 46.5 8t21 24t5.5 54v496q0 37 -5.5 54.5t-21 24t-46.5 7.5v20q27 -1 72 -2t96 -1q44 0 87.5 1t71.5 2zM108 931
q38 0 65 -10.5t50 -24t46.5 -23.5t54.5 -10q26 0 48.5 12t41.5 41l14 -6q-17 -75 -55.5 -109.5t-84.5 -34.5q-38 0 -65.5 10.5t-50 24.5t-46.5 24t-55 10q-26 0 -48 -12t-42 -42l-14 6q17 76 56 110t85 34z" />
    <glyph glyph-name="itilde" unicode="&#x129;" horiz-adv-x="323" 
d="M245 529v-436q0 -42 13.5 -57t46.5 -15v-21q-20 1 -59 2.5t-79 1.5t-81.5 -1.5t-62.5 -2.5v21q33 0 46.5 15t13.5 57v316q0 45 -13 66.5t-47 21.5v21q32 -3 62 -3q45 0 85.5 3.5t74.5 10.5zM88 792q32 0 54 -10t40 -23t37 -23t44 -10q21 0 40.5 12.5t36.5 40.5l14 -7
q-17 -81 -51 -116t-75 -35q-32 0 -54.5 10t-40.5 23.5t-37 23.5t-44 10q-21 0 -40.5 -12.5t-36.5 -41.5l-14 7q17 81 51.5 116t75.5 35z" />
    <glyph glyph-name="Imacron" unicode="&#x12a;" horiz-adv-x="389" 
d="M358 708v-20q-31 -1 -47 -7.5t-21 -24t-5 -54.5v-496q0 -36 5.5 -54t21 -24t46.5 -8v-20q-28 2 -71.5 2.5t-87.5 0.5q-51 0 -96 -0.5t-72 -2.5v20q31 2 46.5 8t21 24t5.5 54v496q0 37 -5.5 54.5t-21 24t-46.5 7.5v20q27 -1 72 -2t96 -1q44 0 87.5 1t71.5 2zM407 844v-25
h-416v25h416z" />
    <glyph glyph-name="imacron" unicode="&#x12b;" horiz-adv-x="323" 
d="M315 712v-25h-324v25h324zM245 529v-436q0 -42 13.5 -57t46.5 -15v-21q-20 1 -59 2.5t-79 1.5t-81.5 -1.5t-62.5 -2.5v21q33 0 46.5 15t13.5 57v316q0 45 -13 66.5t-47 21.5v21q32 -3 62 -3q45 0 85.5 3.5t74.5 10.5z" />
    <glyph glyph-name="Ibreve" unicode="&#x12c;" horiz-adv-x="389" 
d="M358 708v-20q-31 -1 -47 -7.5t-21 -24t-5 -54.5v-496q0 -36 5.5 -54t21 -24t46.5 -8v-20q-28 2 -71.5 2.5t-87.5 0.5q-51 0 -96 -0.5t-72 -2.5v20q31 2 46.5 8t21 24t5.5 54v496q0 37 -5.5 54.5t-21 24t-46.5 7.5v20q27 -1 72 -2t96 -1q44 0 87.5 1t71.5 2zM410 918
l12 -11q-14 -32 -43.5 -64.5t-76 -54t-111.5 -21.5t-111.5 21.5t-76 54t-43.5 64.5l12 11q28 -20 81.5 -40t137.5 -20t137.5 20t81.5 40z" />
    <glyph glyph-name="ibreve" unicode="&#x12d;" horiz-adv-x="323" 
d="M245 529v-436q0 -42 13.5 -57t46.5 -15v-21q-20 1 -59 2.5t-79 1.5t-81.5 -1.5t-62.5 -2.5v21q33 0 46.5 15t13.5 57v316q0 45 -13 66.5t-47 21.5v21q32 -3 62 -3q45 0 85.5 3.5t74.5 10.5zM340 788l17 -9q-12 -37 -35.5 -74.5t-62.5 -62.5t-97 -25t-97 25t-62.5 62.5
t-35.5 74.5l17 9q22 -22 65 -43t113 -21q71 0 113.5 21t64.5 43z" />
    <glyph glyph-name="Iogonek" unicode="&#x12e;" horiz-adv-x="389" 
d="M358 708v-20q-31 -1 -47 -7.5t-21 -24t-5 -54.5v-496q0 -36 5.5 -54t21 -24t46.5 -8v-20q-28 2 -71.5 2.5t-87.5 0.5q-51 0 -96 -0.5t-72 -2.5v20q31 2 46.5 8t21 24t5.5 54v496q0 37 -5.5 54.5t-21 24t-46.5 7.5v20q27 -1 72 -2t96 -1q44 0 87.5 1t71.5 2zM342 3
q-61 -20 -86 -46t-25 -48q0 -20 10.5 -29.5t30.5 -9.5q17 0 35.5 7t29.5 18l13 -15q-28 -36 -62 -52t-83 -16q-46 0 -70.5 18.5t-24.5 51.5q0 43 51.5 73.5t142.5 47.5h38z" />
    <glyph glyph-name="iogonek" unicode="&#x12f;" horiz-adv-x="323" 
d="M158 779q47 0 73.5 -21t26.5 -61t-26.5 -61t-73.5 -21t-73.5 21t-26.5 61t26.5 61t73.5 21zM245 529v-436q0 -42 13.5 -57t46.5 -15v-21q-20 1 -59 2.5t-79 1.5t-81.5 -1.5t-62.5 -2.5v21q33 0 46.5 15t13.5 57v316q0 45 -13 66.5t-47 21.5v21q32 -3 62 -3q45 0 85.5 3.5
t74.5 10.5zM299 11q-4 -4 -8.5 -7t-13.5 -8q-41 -19 -56.5 -42.5t-15.5 -44.5q0 -20 10.5 -29.5t29.5 -9.5q18 0 36.5 7t28.5 18l14 -15q-28 -36 -62 -52t-83 -16q-47 0 -71 18.5t-24 51.5q0 43 44.5 73.5t125.5 47.5z" />
    <glyph glyph-name="Idotaccent" unicode="&#x130;" horiz-adv-x="389" 
d="M358 708v-20q-31 -1 -47 -7.5t-21 -24t-5 -54.5v-496q0 -36 5.5 -54t21 -24t46.5 -8v-20q-28 2 -71.5 2.5t-87.5 0.5q-51 0 -96 -0.5t-72 -2.5v20q31 2 46.5 8t21 24t5.5 54v496q0 37 -5.5 54.5t-21 24t-46.5 7.5v20q27 -1 72 -2t96 -1q44 0 87.5 1t71.5 2zM199 969
q47 0 73.5 -21t26.5 -61t-26.5 -61t-73.5 -21t-73.5 21t-26.5 61t26.5 61t73.5 21z" />
    <glyph glyph-name="dotlessi" unicode="&#x131;" horiz-adv-x="323" 
d="M245 529v-436q0 -42 13.5 -57t46.5 -15v-21q-20 1 -59 2.5t-79 1.5t-81.5 -1.5t-62.5 -2.5v21q33 0 46.5 15t13.5 57v316q0 45 -13 66.5t-47 21.5v21q32 -3 62 -3q45 0 85.5 3.5t74.5 10.5z" />
    <glyph glyph-name="Jcircumflex" unicode="&#x134;" horiz-adv-x="377" 
d="M-24 -188v21q38 4 65.5 23t42.5 66t15 132v548q0 37 -5.5 54.5t-21.5 24t-46 7.5v20q25 -1 68 -2t90 -1q48 0 93.5 1t75.5 2v-20q-31 -1 -47 -7.5t-21 -24t-5 -54.5v-366v-88.5t-3.5 -92.5t-13.5 -80q-21 -69 -92 -116t-195 -47zM195 948q33 -45 89 -89.5t122 -74.5
l-5 -15q-67 12 -132 29t-103 34q-32 -17 -86 -34t-109 -29l-5 15q65 29 121 73.5t90 90.5h18z" />
    <glyph glyph-name="jcircumflex" unicode="&#x135;" horiz-adv-x="307" 
d="M-22 -188v19q44 1 72.5 33.5t28.5 105.5v439q0 45 -13 66.5t-47 21.5v21q32 -3 62 -3q46 0 86 3.5t74 10.5v-442q0 -85 -16 -136t-55 -87q-25 -23 -71 -37.5t-121 -14.5zM158 826q29 -57 77.5 -112.5t105.5 -91.5l-8 -14q-59 13 -114.5 31.5t-89.5 36.5
q-27 -18 -72 -36.5t-92 -31.5l-8 14q56 35 104.5 90.5t78.5 113.5h18z" />
    <glyph glyph-name="uni0136" unicode="&#x136;" horiz-adv-x="734" 
d="M714 708v-19q-33 -8 -72 -30.5t-83 -72.5l-185 -216l69 94l237 -383q14 -22 28.5 -36t38.5 -25v-20q-39 2 -84 2.5t-84 0.5q-22 0 -54 -0.5t-81 -2.5v20q44 2 52 11t-7 34l-146 240q-12 21 -21.5 31t-18.5 14.5t-24 5.5v20q44 2 81 27t84 80l47 55q40 46 44.5 79t-17 52
t-60.5 20v19q40 -1 74 -2t84 -1q60 0 98 3zM358 708v-20q-31 -1 -47 -7.5t-21 -24t-5 -54.5v-496q0 -36 5.5 -54t21 -24t46.5 -8v-20q-28 2 -71.5 2.5t-87.5 0.5q-51 0 -96 -0.5t-72 -2.5v20q31 2 46.5 8t21 24t5.5 54v496q0 37 -5.5 54.5t-21 24t-46.5 7.5v20q27 -1 72 -2
t96 -1q44 0 87.5 1t71.5 2zM412 -50q38 0 62.5 -20.5t24.5 -58.5q0 -48 -30.5 -78.5t-93.5 -35.5l-3 21q39 5 60 17.5t26 34.5q-7 -7 -19 -11t-32 -4q-36 0 -56.5 17t-20.5 49q0 33 21.5 51t60.5 18z" />
    <glyph glyph-name="uni0137" unicode="&#x137;" horiz-adv-x="597" 
d="M240 782v-689q0 -42 13 -57t45 -15v-21q-19 1 -57 2.5t-78 1.5q-41 0 -82.5 -1.5t-62.5 -2.5v21q33 0 46.5 15t13.5 57v569q0 45 -12.5 66.5t-47.5 21.5v21q32 -3 62 -3q46 0 86 3.5t74 10.5zM570 518v-20q-34 -8 -68 -30.5t-69 -57.5l-56 -57l8 16l166 -296
q10 -17 20.5 -31t25.5 -21v-21q-15 1 -47.5 2.5t-65.5 1.5q-38 0 -76.5 -1.5t-58.5 -2.5v21q20 0 27 9t-2 25l-93 182q-9 17 -19.5 22t-25.5 5v19q17 1 30.5 5t25.5 15l76 73q35 33 35.5 59.5t-22 43.5t-57.5 19v20q28 -1 61.5 -2t57.5 -1q20 0 44.5 0.5t47 1t35.5 1.5z
M332 -50q38 0 62.5 -20.5t24.5 -58.5q0 -48 -30.5 -78.5t-93.5 -35.5l-3 21q39 5 60 17.5t26 34.5q-7 -7 -19 -11t-32 -4q-36 0 -56.5 17t-20.5 49q0 33 21.5 51t60.5 18z" />
    <glyph glyph-name="kgreenlandic" unicode="&#x138;" horiz-adv-x="600" 
d="M576 518v-20q-37 -3 -59 -13.5t-42 -34.5l-89 -106l161 -270q13 -23 25.5 -36.5t29.5 -16.5v-21q-16 1 -48.5 2.5t-64.5 1.5q-36 0 -72.5 -1.5t-54.5 -2.5v21q20 0 26.5 9.5t-1.5 24.5l-106 174q-8 16 -18 21t-23 5v19q34 2 55 14.5t40 36.5l85 97q24 29 11.5 52
t-57.5 24v20q26 -1 53.5 -2t49.5 -1q29 0 55 1t44 2zM245 529v-436q0 -42 13 -57t45 -15v-21q-20 1 -58 2.5t-78 1.5q-41 0 -82 -1.5t-62 -2.5v21q33 0 46.5 15t13.5 57v316q0 45 -13 66.5t-47 21.5v21q32 -3 62 -3q45 0 85.5 3.5t74.5 10.5z" />
    <glyph glyph-name="Lacute" unicode="&#x139;" horiz-adv-x="618" 
d="M366 708v-20q-34 -1 -51.5 -7.5t-23.5 -24t-6 -54.5v-512q0 -29 4.5 -43.5t16.5 -19t36 -4.5h41q40 0 79.5 31.5t69 85t39.5 118.5h23q-3 -35 -3 -90q0 -25 1 -71.5t6 -96.5q-51 2 -115 2.5t-114 0.5h-93.5t-123.5 -0.5t-121 -2.5v20q31 2 46.5 8t21 24t5.5 54v496
q0 37 -5.5 54.5t-21 24t-46.5 7.5v20q27 -1 72 -2t96 -1q47 0 92 1t75 2zM282 936q22 12 48.5 6t38.5 -32q11 -22 2.5 -44.5t-31.5 -34.5q-23 -13 -50 -18t-65 -13t-96 -28l-7 12q48 40 74 69.5t44.5 50.5t41.5 32z" />
    <glyph glyph-name="lacute" unicode="&#x13a;" horiz-adv-x="320" 
d="M241 782v-689q0 -42 13.5 -57t46.5 -15v-21q-19 1 -58 2.5t-80 1.5q-40 0 -81.5 -1.5t-62.5 -2.5v21q33 0 46.5 15t13.5 57v570q0 44 -12.5 65.5t-47.5 21.5v21q32 -3 62 -3q46 0 86 3.5t74 10.5zM241 986q22 12 48.5 6t38.5 -32q11 -22 2.5 -44.5t-31.5 -34.5
q-23 -13 -50 -18t-65 -13t-96 -28l-7 12q48 40 74 69.5t44.5 50.5t41.5 32z" />
    <glyph glyph-name="uni013B" unicode="&#x13b;" horiz-adv-x="618" 
d="M366 708v-20q-34 -1 -51.5 -7.5t-23.5 -24t-6 -54.5v-512q0 -29 4.5 -43.5t16.5 -19t36 -4.5h41q40 0 79.5 31.5t69 85t39.5 118.5h23q-3 -35 -3 -90q0 -25 1 -71.5t6 -96.5q-51 2 -115 2.5t-114 0.5h-93.5t-123.5 -0.5t-121 -2.5v20q31 2 46.5 8t21 24t5.5 54v496
q0 37 -5.5 54.5t-21 24t-46.5 7.5v20q27 -1 72 -2t96 -1q47 0 92 1t75 2zM358 -50q38 0 62.5 -20.5t24.5 -58.5q0 -48 -30.5 -78.5t-93.5 -35.5l-3 21q39 5 60 17.5t26 34.5q-7 -7 -19 -11t-32 -4q-36 0 -56.5 17t-20.5 49q0 33 21.5 51t60.5 18z" />
    <glyph glyph-name="uni013C" unicode="&#x13c;" horiz-adv-x="320" 
d="M241 782v-689q0 -42 13.5 -57t46.5 -15v-21q-19 1 -58 2.5t-80 1.5q-40 0 -81.5 -1.5t-62.5 -2.5v21q33 0 46.5 15t13.5 57v570q0 44 -12.5 65.5t-47.5 21.5v21q32 -3 62 -3q46 0 86 3.5t74 10.5zM155 -50q38 0 62.5 -20.5t24.5 -58.5q0 -48 -30.5 -78.5t-93.5 -35.5
l-3 21q39 5 60 17.5t26 34.5q-7 -7 -19 -11t-32 -4q-36 0 -56.5 17t-20.5 49q0 33 21.5 51t60.5 18z" />
    <glyph glyph-name="Lcaron" unicode="&#x13d;" horiz-adv-x="618" 
d="M366 708v-20q-34 -1 -51.5 -7.5t-23.5 -24t-6 -54.5v-512q0 -29 4.5 -43.5t16.5 -19t36 -4.5h41q40 0 79.5 31.5t69 85t39.5 118.5h23q-3 -35 -3 -90q0 -25 1 -71.5t6 -96.5q-51 2 -115 2.5t-114 0.5h-93.5t-123.5 -0.5t-121 -2.5v20q31 2 46.5 8t21 24t5.5 54v496
q0 37 -5.5 54.5t-21 24t-46.5 7.5v20q27 -1 72 -2t96 -1q47 0 92 1t75 2zM570 714q2 -5 3.5 -16t1.5 -20q0 -32 -34.5 -80t-92.5 -120l-14 4q12 77 16 113.5t4 51.5q0 20 -5.5 30t-24.5 10v21q53 -4 84.5 -1.5t61.5 7.5z" />
    <glyph glyph-name="lcaron" unicode="&#x13e;" horiz-adv-x="320" 
d="M241 782v-689q0 -42 13.5 -57t46.5 -15v-21q-19 1 -58 2.5t-80 1.5q-40 0 -81.5 -1.5t-62.5 -2.5v21q33 0 46.5 15t13.5 57v570q0 44 -12.5 65.5t-47.5 21.5v21q32 -3 62 -3q46 0 86 3.5t74 10.5zM422 784q2 -5 3.5 -18.5t1.5 -22.5q0 -29 -29 -72t-78 -108l-14 4
q12 68 16 100t4 45q0 20 -3.5 30t-16.5 10v21q42 -2 67.5 2t48.5 9z" />
    <glyph glyph-name="Ldot" unicode="&#x13f;" horiz-adv-x="619" 
d="M366 708v-20q-34 -1 -51.5 -7.5t-23.5 -24t-6 -54.5v-512q0 -29 4.5 -43.5t16.5 -19t36 -4.5h41q40 0 79.5 31.5t69 85t39.5 118.5h23q-3 -35 -3 -90q0 -25 1 -71.5t6 -96.5q-51 2 -115 2.5t-114 0.5h-93.5t-123.5 -0.5t-121 -2.5v20q31 2 46.5 8t21 24t5.5 54v496
q0 37 -5.5 54.5t-21 24t-46.5 7.5v20q27 -1 72 -2t96 -1q47 0 92 1t75 2zM501 519q43 0 67.5 -21t24.5 -60q0 -40 -24.5 -61t-67.5 -21q-44 0 -68 21t-24 61q0 39 24 60t68 21z" />
    <glyph glyph-name="ldot" unicode="&#x140;" horiz-adv-x="526" 
d="M241 782v-689q0 -42 13.5 -57t46.5 -15v-21q-19 1 -58 2.5t-80 1.5q-40 0 -81.5 -1.5t-62.5 -2.5v21q33 0 46.5 15t13.5 57v570q0 44 -12.5 65.5t-47.5 21.5v21q32 -3 62 -3q46 0 86 3.5t74 10.5zM425 394q43 0 67.5 -21t24.5 -60q0 -40 -24.5 -61t-67.5 -21
q-44 0 -68 21t-24 61q0 39 24 60t68 21z" />
    <glyph glyph-name="Lslash" unicode="&#x141;" horiz-adv-x="618" 
d="M366 708v-20q-34 -1 -51.5 -7.5t-23.5 -24t-6 -54.5v-512q0 -29 4.5 -43.5t16.5 -19t36 -4.5h41q40 0 79.5 31.5t69 85t39.5 118.5h23q-3 -35 -3 -90q0 -25 1 -71.5t6 -96.5q-51 2 -115 2.5t-114 0.5h-93.5t-123.5 -0.5t-121 -2.5v20q31 2 46.5 8t21 24t5.5 54v496
q0 37 -5.5 54.5t-21 24t-46.5 7.5v20q27 -1 72 -2t96 -1q47 0 92 1t75 2zM466 473v-23l-284 -165v23zM182 318v-23l-158 -91v23z" />
    <glyph glyph-name="lslash" unicode="&#x142;" horiz-adv-x="320" 
d="M241 782v-689q0 -42 13.5 -57t46.5 -15v-21q-19 1 -58 2.5t-80 1.5q-40 0 -81.5 -1.5t-62.5 -2.5v21q33 0 46.5 15t13.5 57v570q0 44 -12.5 65.5t-47.5 21.5v21q32 -3 62 -3q46 0 86 3.5t74 10.5zM336 528v-30l-173 -152v30zM163 420v-30l-172 -150v30z" />
    <glyph glyph-name="Nacute" unicode="&#x143;" horiz-adv-x="727" 
d="M700 708v-20q-30 -5 -46 -19t-21.5 -43t-5.5 -82v-545q-13 2 -28 2t-32 -2l-439 517v-336q0 -61 6 -93.5t27 -46.5t66 -20v-20q-19 2 -50.5 2.5t-59.5 0.5q-22 0 -45.5 -0.5t-39.5 -2.5v20q32 6 47.5 19.5t20.5 43t5 81.5v438q0 37 -5 54.5t-21 24t-47 7.5v20
q16 -1 39.5 -2t45.5 -1q25 0 48 1t42 2l397 -454v274q0 61 -5.5 93.5t-26 47t-67.5 19.5v20q20 -1 51.5 -2t58.5 -1q24 0 47 1t38 2zM463 936q22 12 48.5 6t38.5 -32q11 -22 2.5 -44.5t-31.5 -34.5q-23 -13 -50 -18t-65 -13t-96 -28l-7 12q48 40 74 69.5t44.5 50.5t41.5 32z
" />
    <glyph glyph-name="nacute" unicode="&#x144;" horiz-adv-x="619" 
d="M406 532q44 0 70.5 -11t40.5 -28q16 -19 23.5 -49t7.5 -81v-270q0 -42 13.5 -57t46.5 -15v-21q-20 1 -59.5 2.5t-76.5 1.5q-41 0 -79 -1.5t-57 -2.5v21q28 0 39 15t11 57v318q0 23 -5 39.5t-17 25t-34 8.5q-35 0 -60 -26.5t-25 -67.5v-297q0 -42 11 -57t39 -15v-21
q-19 1 -55 2.5t-73 1.5q-41 0 -82 -1.5t-62 -2.5v21q33 0 46.5 15t13.5 57v316q0 45 -13 66.5t-47 21.5v21q32 -3 62 -3q45 0 85.5 3.5t74.5 10.5v-81q24 46 65.5 65t95.5 19zM426 819q19 -15 19.5 -40t-16.5 -46q-15 -19 -38.5 -34.5t-55.5 -37.5t-78 -62l-11 9
q29 55 41.5 92t21.5 63t27 46q16 19 42.5 23t47.5 -13z" />
    <glyph glyph-name="uni0145" unicode="&#x145;" horiz-adv-x="727" 
d="M700 708v-20q-30 -5 -46 -19t-21.5 -43t-5.5 -82v-545q-13 2 -28 2t-32 -2l-439 517v-336q0 -61 6 -93.5t27 -46.5t66 -20v-20q-19 2 -50.5 2.5t-59.5 0.5q-22 0 -45.5 -0.5t-39.5 -2.5v20q32 6 47.5 19.5t20.5 43t5 81.5v438q0 37 -5 54.5t-21 24t-47 7.5v20
q16 -1 39.5 -2t45.5 -1q25 0 48 1t42 2l397 -454v274q0 61 -5.5 93.5t-26 47t-67.5 19.5v20q20 -1 51.5 -2t58.5 -1q24 0 47 1t38 2zM370 -50q38 0 62.5 -20.5t24.5 -58.5q0 -48 -30.5 -78.5t-93.5 -35.5l-3 21q39 5 60 17.5t26 34.5q-7 -7 -19 -11t-32 -4q-36 0 -56.5 17
t-20.5 49q0 33 21.5 51t60.5 18z" />
    <glyph glyph-name="uni0146" unicode="&#x146;" horiz-adv-x="619" 
d="M406 532q44 0 70.5 -11t40.5 -28q16 -19 23.5 -49t7.5 -81v-270q0 -42 13.5 -57t46.5 -15v-21q-20 1 -59.5 2.5t-76.5 1.5q-41 0 -79 -1.5t-57 -2.5v21q28 0 39 15t11 57v318q0 23 -5 39.5t-17 25t-34 8.5q-35 0 -60 -26.5t-25 -67.5v-297q0 -42 11 -57t39 -15v-21
q-19 1 -55 2.5t-73 1.5q-41 0 -82 -1.5t-62 -2.5v21q33 0 46.5 15t13.5 57v316q0 45 -13 66.5t-47 21.5v21q32 -3 62 -3q45 0 85.5 3.5t74.5 10.5v-81q24 46 65.5 65t95.5 19zM323 -50q38 0 62.5 -20.5t24.5 -58.5q0 -48 -30.5 -78.5t-93.5 -35.5l-3 21q39 5 60 17.5
t26 34.5q-7 -7 -19 -11t-32 -4q-36 0 -56.5 17t-20.5 49q0 33 21.5 51t60.5 18z" />
    <glyph glyph-name="Ncaron" unicode="&#x147;" horiz-adv-x="727" 
d="M700 708v-20q-30 -5 -46 -19t-21.5 -43t-5.5 -82v-545q-13 2 -28 2t-32 -2l-439 517v-336q0 -61 6 -93.5t27 -46.5t66 -20v-20q-19 2 -50.5 2.5t-59.5 0.5q-22 0 -45.5 -0.5t-39.5 -2.5v20q32 6 47.5 19.5t20.5 43t5 81.5v438q0 37 -5 54.5t-21 24t-47 7.5v20
q16 -1 39.5 -2t45.5 -1q25 0 48 1t42 2l397 -454v274q0 61 -5.5 93.5t-26 47t-67.5 19.5v20q20 -1 51.5 -2t58.5 -1q24 0 47 1t38 2zM592 942l5 -15q-65 -29 -121 -73.5t-90 -90.5h-18q-33 45 -89 90t-122 74l5 15q67 -11 132 -28t103 -35q32 18 86 35t109 28z" />
    <glyph glyph-name="ncaron" unicode="&#x148;" horiz-adv-x="619" 
d="M406 532q44 0 70.5 -11t40.5 -28q16 -19 23.5 -49t7.5 -81v-270q0 -42 13.5 -57t46.5 -15v-21q-20 1 -59.5 2.5t-76.5 1.5q-41 0 -79 -1.5t-57 -2.5v21q28 0 39 15t11 57v318q0 23 -5 39.5t-17 25t-34 8.5q-35 0 -60 -26.5t-25 -67.5v-297q0 -42 11 -57t39 -15v-21
q-19 1 -55 2.5t-73 1.5q-41 0 -82 -1.5t-62 -2.5v21q33 0 46.5 15t13.5 57v316q0 45 -13 66.5t-47 21.5v21q32 -3 62 -3q45 0 85.5 3.5t74.5 10.5v-81q24 46 65.5 65t95.5 19zM490 826l8 -14q-56 -35 -104.5 -90.5t-78.5 -113.5h-18q-29 57 -77.5 113t-105.5 91l8 14
q59 -12 115 -30.5t89 -37.5q28 19 72.5 37.5t91.5 30.5z" />
    <glyph glyph-name="napostrophe" unicode="&#x149;" horiz-adv-x="619" 
d="M406 532q44 0 70.5 -11t40.5 -28q16 -19 23.5 -49t7.5 -81v-270q0 -42 13.5 -57t46.5 -15v-21q-20 1 -59.5 2.5t-76.5 1.5q-41 0 -79 -1.5t-57 -2.5v21q28 0 39 15t11 57v318q0 23 -5 39.5t-17 25t-34 8.5q-35 0 -60 -26.5t-25 -67.5v-297q0 -42 11 -57t39 -15v-21
q-19 1 -55 2.5t-73 1.5q-41 0 -82 -1.5t-62 -2.5v21q33 0 46.5 15t13.5 57v316q0 45 -13 66.5t-47 21.5v21q32 -3 62 -3q45 0 85.5 3.5t74.5 10.5v-81q24 46 65.5 65t95.5 19zM5 777q25 0 44.5 -9.5t30.5 -26.5q11 -14 17.5 -38t6.5 -51q0 -50 -26 -93.5t-80 -68.5l-9 18
q27 12 48.5 35.5t26.5 49.5q8 25 2 48q-24 -27 -66 -27q-37 0 -60 21.5t-23 60.5q0 36 24.5 58.5t63.5 22.5z" />
    <glyph glyph-name="Eng" unicode="&#x14a;" horiz-adv-x="724" 
d="M699 708v-20q-31 -1 -46.5 -7.5t-21 -24t-5.5 -54.5v-342l-16 -260q-10 1 -21 1t-24 -2l-438 517v-410q0 -36 6 -54t23.5 -24t51.5 -8v-20q-18 2 -42 2.5t-50 0.5q-23 0 -46.5 -0.5t-38.5 -2.5v20q31 2 46.5 8t21 24t5.5 54v496q0 37 -5.5 54.5t-21 24t-46.5 7.5v20
q15 -1 38.5 -2t46.5 -1q25 0 49 1t43 2l395 -450v344q0 37 -6 54.5t-23.5 24t-51.5 7.5v20q18 -1 42.5 -2t49.5 -1q23 0 46.5 1t38.5 2zM626 445v-390q0 -99 -17.5 -152t-50 -72t-78.5 -19q-53 0 -89 20.5t-36 65.5q0 35 24.5 54t63.5 19q37 0 59.5 -17.5t22.5 -49.5
q0 -22 -12 -41.5t-39 -29.5q5 -1 9.5 -1.5t9.5 -0.5q58 0 84 50t26 153v411h11.5h11.5z" />
    <glyph glyph-name="eng" unicode="&#x14b;" horiz-adv-x="608" 
d="M406 532q44 0 70.5 -11t40.5 -29q16 -18 23.5 -48t7.5 -81v-276q0 -84 -15.5 -135t-52.5 -88q-22 -23 -62 -37.5t-116 -14.5q-17 0 -42 3t-49 10.5t-40 22t-16 37.5q0 25 23.5 46.5t69.5 21.5q39 0 65.5 -16t26.5 -45q0 -22 -15.5 -36.5t-41.5 -22.5q11 0 20.5 1t14.5 3
q22 1 35.5 13.5t21.5 31.5q6 15 8 44.5t2.5 63t0.5 61.5v360q0 23 -5 39t-17 25t-34 9q-35 0 -60 -26.5t-25 -67.5v-297q0 -42 11 -57t39 -15v-21q-19 1 -55 2.5t-73 1.5q-41 0 -82 -1.5t-62 -2.5v21q33 0 46.5 15t13.5 57v316q0 45 -13 66.5t-47 21.5v21q32 -3 62 -3
q45 0 85.5 3.5t74.5 10.5v-81q24 46 65.5 65t95.5 19z" />
    <glyph glyph-name="Omacron" unicode="&#x14c;" horiz-adv-x="810" 
d="M405 722q110 0 192 -43t127.5 -123.5t45.5 -195.5q0 -112 -46.5 -196t-129.5 -131t-190 -47q-109 0 -191.5 43t-128 124t-45.5 195q0 112 47.5 196t129.5 131t189 47zM401 704q-53 0 -92 -45t-60.5 -124t-21.5 -183q0 -106 24.5 -184.5t65.5 -121t91 -42.5q53 0 92.5 45
t60.5 124.5t21 182.5q0 107 -24 185t-65.5 120.5t-91.5 42.5zM611 844v-25h-416v25h416z" />
    <glyph glyph-name="omacron" unicode="&#x14d;" horiz-adv-x="570" 
d="M285 532q75 0 131.5 -26.5t88 -86.5t31.5 -160t-31.5 -160t-88 -86.5t-131.5 -26.5q-74 0 -130.5 26.5t-88.5 86.5t-32 160t32 160t88.5 86.5t130.5 26.5zM285 512q-35 0 -58.5 -59.5t-23.5 -193.5t23.5 -193.5t58.5 -59.5q36 0 59 59.5t23 193.5t-23 193.5t-59 59.5z
M455 712v-25h-344v25h344z" />
    <glyph glyph-name="Obreve" unicode="&#x14e;" horiz-adv-x="810" 
d="M405 722q110 0 192 -43t127.5 -123.5t45.5 -195.5q0 -112 -46.5 -196t-129.5 -131t-190 -47q-109 0 -191.5 43t-128 124t-45.5 195q0 112 47.5 196t129.5 131t189 47zM401 704q-53 0 -92 -45t-60.5 -124t-21.5 -183q0 -106 24.5 -184.5t65.5 -121t91 -42.5q53 0 92.5 45
t60.5 124.5t21 182.5q0 107 -24 185t-65.5 120.5t-91.5 42.5zM614 918l12 -11q-14 -32 -43.5 -64.5t-76 -54t-111.5 -21.5t-111.5 21.5t-76 54t-43.5 64.5l12 11q28 -20 81.5 -40t137.5 -20t137.5 20t81.5 40z" />
    <glyph glyph-name="obreve" unicode="&#x14f;" horiz-adv-x="570" 
d="M285 532q75 0 131.5 -26.5t88 -86.5t31.5 -160t-31.5 -160t-88 -86.5t-131.5 -26.5q-74 0 -130.5 26.5t-88.5 86.5t-32 160t32 160t88.5 86.5t130.5 26.5zM285 512q-35 0 -58.5 -59.5t-23.5 -193.5t23.5 -193.5t58.5 -59.5q36 0 59 59.5t23 193.5t-23 193.5t-59 59.5z
M463 788l17 -9q-12 -37 -35.5 -74.5t-62.5 -62.5t-97 -25t-97 25t-62.5 62.5t-35.5 74.5l17 9q22 -22 65 -43t113 -21q71 0 113.5 21t64.5 43z" />
    <glyph glyph-name="Ohungarumlaut" unicode="&#x150;" horiz-adv-x="810" 
d="M405 722q110 0 192 -43t127.5 -123.5t45.5 -195.5q0 -112 -46.5 -196t-129.5 -131t-190 -47q-109 0 -191.5 43t-128 124t-45.5 195q0 112 47.5 196t129.5 131t189 47zM401 704q-53 0 -92 -45t-60.5 -124t-21.5 -183q0 -106 24.5 -184.5t65.5 -121t91 -42.5q53 0 92.5 45
t60.5 124.5t21 182.5q0 107 -24 185t-65.5 120.5t-91.5 42.5zM574 939q22 16 48 11.5t41 -26.5t9.5 -44.5t-28.5 -38.5q-27 -19 -69.5 -30t-107.5 -39l-10 11q32 38 51 68t34 52t32 36zM355 939q22 16 48 11.5t41 -26.5t9.5 -44.5t-28.5 -38.5q-27 -19 -69.5 -30t-107.5 -39
l-10 11q32 38 51 68t34 52t32 36z" />
    <glyph glyph-name="ohungarumlaut" unicode="&#x151;" horiz-adv-x="570" 
d="M285 532q75 0 131.5 -26.5t88 -86.5t31.5 -160t-31.5 -160t-88 -86.5t-131.5 -26.5q-74 0 -130.5 26.5t-88.5 86.5t-32 160t32 160t88.5 86.5t130.5 26.5zM285 512q-35 0 -58.5 -59.5t-23.5 -193.5t23.5 -193.5t58.5 -59.5q36 0 59 59.5t23 193.5t-23 193.5t-59 59.5z
M491 816q20 -15 23.5 -38t-11.5 -46q-19 -27 -55 -53t-91 -81l-13 7q18 50 26 86.5t14 62t18 43.5q14 23 40 29t49 -10zM313 816q21 -15 24.5 -38t-12.5 -46q-18 -27 -54 -53t-92 -81l-12 7q18 50 25.5 86.5t14 62t18.5 43.5q14 23 40 29t48 -10z" />
    <glyph glyph-name="OE" unicode="&#x152;" horiz-adv-x="1018" 
d="M397 722q45 0 88 -16q76 -1 149 -1h115q45 0 102 0.5t103 2.5q-4 -42 -5.5 -81.5t-1.5 -60.5q0 -20 1 -38.5t2 -31.5h-23q-10 72 -30 113t-48.5 58.5t-63.5 17.5h-17q-30 0 -46 -5.5t-21.5 -23t-5.5 -54.5v-496q0 -36 5.5 -54t21.5 -23.5t46 -5.5h31q32 0 62.5 19.5
t53.5 65t32 124.5h23q-3 -34 -3 -88q0 -21 1 -61t6 -83q-50 2 -113 2.5t-112 0.5h-116t-150 -1q-19 -7 -41.5 -11.5t-45.5 -4.5q-107 0 -187 43t-125 124t-45 195q0 112 46 196t126.5 131t185.5 47zM393 704q-50 0 -87.5 -45t-58 -124t-20.5 -183q0 -106 23.5 -184.5
t63 -121t86.5 -42.5q24 0 50.5 9t45 28t18.5 49v520q0 39 -20.5 59t-48.5 27.5t-52 7.5zM827 366v-20h-162v20h162zM854 486q-4 -52 -3.5 -79.5t0.5 -50.5t1 -50.5t5 -79.5h-23q-5 29 -14 57t-28.5 45.5t-56.5 17.5v20q37 0 55.5 21t27 49t13.5 50h23z" />
    <glyph glyph-name="oe" unicode="&#x153;" horiz-adv-x="807" 
d="M275 532q62 0 108 -27t71.5 -86.5t25.5 -159.5t-25.5 -160t-71.5 -86.5t-108 -26.5q-71 0 -125.5 26.5t-85 86.5t-30.5 160t30.5 159.5t85 86.5t125.5 27zM275 512q-30 0 -51 -59.5t-21 -193.5t21 -193.5t51 -59.5q35 0 57.5 59t22.5 192q0 136 -22.5 195.5t-57.5 59.5z
M590 532q87 0 137 -52t50 -171h-299l-2 19h165q1 49 -5 90.5t-18.5 66.5t-33.5 25q-25 0 -41.5 -43t-20.5 -146l4 -7q-1 -11 -1.5 -22.5t-0.5 -24.5q0 -69 18.5 -110t47 -58t57.5 -17q22 0 52 12.5t56 60.5l18 -6q-11 -39 -35 -76.5t-61.5 -62t-90.5 -24.5q-57 0 -103 27.5
t-73 87t-27 155.5q0 95 27.5 156t74.5 90.5t105 29.5z" />
    <glyph glyph-name="Racute" unicode="&#x154;" horiz-adv-x="706" 
d="M31 708q27 -1 72 -2t90 -1q49 0 94.5 1t64.5 1q146 0 217.5 -44t71.5 -130q0 -36 -14.5 -70.5t-49 -63.5t-95 -46t-152.5 -17h-96v20h86q55 0 83.5 22.5t39 60t10.5 83.5q0 79 -25 122.5t-85 43.5q-37 0 -47.5 -17t-10.5 -69v-496q0 -36 5.5 -54t21 -24t46.5 -8v-20
q-28 2 -71.5 2.5t-87.5 0.5q-51 0 -96 -0.5t-72 -2.5v20q31 2 46.5 8t21 24t5.5 54v496q0 37 -5.5 54.5t-21 24t-46.5 7.5v20zM230 353q39 -1 71 -4t57.5 -5.5t44.5 -3.5q99 -6 147.5 -37.5t61.5 -93.5l21 -104q9 -38 19 -53.5t28 -14.5q11 0 19 4.5t16 13.5l14 -13
q-29 -31 -63 -43.5t-79 -12.5q-59 0 -96.5 23t-47.5 85l-17 100q-6 41 -15.5 73t-25.5 50.5t-45 18.5h-108zM416 936q22 12 48.5 6t38.5 -32q11 -22 2.5 -44.5t-31.5 -34.5q-23 -13 -50 -18t-65 -13t-96 -28l-7 12q48 40 74 69.5t44.5 50.5t41.5 32z" />
    <glyph glyph-name="racute" unicode="&#x155;" horiz-adv-x="474" 
d="M377 532q34 0 54 -14.5t29 -37t9 -44.5q0 -41 -23.5 -66t-61.5 -25q-40 0 -61 18.5t-21 49.5t13.5 51t33.5 34q-15 2 -29 -4q-22 -5 -39 -22.5t-26.5 -40t-9.5 -46.5v-282q0 -48 21.5 -65t68.5 -17v-21q-23 1 -68 2.5t-93 1.5q-43 0 -86.5 -1.5t-64.5 -2.5v21
q33 0 46.5 15t13.5 57v316q0 45 -13 66.5t-47 21.5v21q32 -3 62 -3q45 0 85.5 3.5t74.5 10.5v-82q12 26 31.5 45t45 29.5t55.5 10.5zM348 819q19 -15 19.5 -40t-16.5 -46q-15 -19 -38.5 -34.5t-55.5 -37.5t-78 -62l-11 9q29 55 41.5 92t21.5 63t27 46q16 19 42.5 23
t47.5 -13z" />
    <glyph glyph-name="uni0156" unicode="&#x156;" horiz-adv-x="706" 
d="M31 708q27 -1 72 -2t90 -1q49 0 94.5 1t64.5 1q146 0 217.5 -44t71.5 -130q0 -36 -14.5 -70.5t-49 -63.5t-95 -46t-152.5 -17h-96v20h86q55 0 83.5 22.5t39 60t10.5 83.5q0 79 -25 122.5t-85 43.5q-37 0 -47.5 -17t-10.5 -69v-496q0 -36 5.5 -54t21 -24t46.5 -8v-20
q-28 2 -71.5 2.5t-87.5 0.5q-51 0 -96 -0.5t-72 -2.5v20q31 2 46.5 8t21 24t5.5 54v496q0 37 -5.5 54.5t-21 24t-46.5 7.5v20zM230 353q39 -1 71 -4t57.5 -5.5t44.5 -3.5q99 -6 147.5 -37.5t61.5 -93.5l21 -104q9 -38 19 -53.5t28 -14.5q11 0 19 4.5t16 13.5l14 -13
q-29 -31 -63 -43.5t-79 -12.5q-59 0 -96.5 23t-47.5 85l-17 100q-6 41 -15.5 73t-25.5 50.5t-45 18.5h-108zM371 -50q38 0 62.5 -20.5t24.5 -58.5q0 -48 -30.5 -78.5t-93.5 -35.5l-3 21q39 5 60 17.5t26 34.5q-7 -7 -19 -11t-32 -4q-36 0 -56.5 17t-20.5 49q0 33 21.5 51
t60.5 18z" />
    <glyph glyph-name="uni0157" unicode="&#x157;" horiz-adv-x="474" 
d="M377 532q34 0 54 -14.5t29 -37t9 -44.5q0 -41 -23.5 -66t-61.5 -25q-40 0 -61 18.5t-21 49.5t13.5 51t33.5 34q-15 2 -29 -4q-22 -5 -39 -22.5t-26.5 -40t-9.5 -46.5v-282q0 -48 21.5 -65t68.5 -17v-21q-23 1 -68 2.5t-93 1.5q-43 0 -86.5 -1.5t-64.5 -2.5v21
q33 0 46.5 15t13.5 57v316q0 45 -13 66.5t-47 21.5v21q32 -3 62 -3q45 0 85.5 3.5t74.5 10.5v-82q12 26 31.5 45t45 29.5t55.5 10.5zM170 -50q38 0 62.5 -20.5t24.5 -58.5q0 -48 -30.5 -78.5t-93.5 -35.5l-3 21q39 5 60 17.5t26 34.5q-7 -7 -19 -11t-32 -4q-36 0 -56.5 17
t-20.5 49q0 33 21.5 51t60.5 18z" />
    <glyph glyph-name="Rcaron" unicode="&#x158;" horiz-adv-x="706" 
d="M31 708q27 -1 72 -2t90 -1q49 0 94.5 1t64.5 1q146 0 217.5 -44t71.5 -130q0 -36 -14.5 -70.5t-49 -63.5t-95 -46t-152.5 -17h-96v20h86q55 0 83.5 22.5t39 60t10.5 83.5q0 79 -25 122.5t-85 43.5q-37 0 -47.5 -17t-10.5 -69v-496q0 -36 5.5 -54t21 -24t46.5 -8v-20
q-28 2 -71.5 2.5t-87.5 0.5q-51 0 -96 -0.5t-72 -2.5v20q31 2 46.5 8t21 24t5.5 54v496q0 37 -5.5 54.5t-21 24t-46.5 7.5v20zM230 353q39 -1 71 -4t57.5 -5.5t44.5 -3.5q99 -6 147.5 -37.5t61.5 -93.5l21 -104q9 -38 19 -53.5t28 -14.5q11 0 19 4.5t16 13.5l14 -13
q-29 -31 -63 -43.5t-79 -12.5q-59 0 -96.5 23t-47.5 85l-17 100q-6 41 -15.5 73t-25.5 50.5t-45 18.5h-108zM545 942l5 -15q-65 -29 -121 -73.5t-90 -90.5h-18q-33 45 -89 90t-122 74l5 15q67 -11 132 -28t103 -35q32 18 86 35t109 28z" />
    <glyph glyph-name="rcaron" unicode="&#x159;" horiz-adv-x="474" 
d="M377 532q34 0 54 -14.5t29 -37t9 -44.5q0 -41 -23.5 -66t-61.5 -25q-40 0 -61 18.5t-21 49.5t13.5 51t33.5 34q-15 2 -29 -4q-22 -5 -39 -22.5t-26.5 -40t-9.5 -46.5v-282q0 -48 21.5 -65t68.5 -17v-21q-23 1 -68 2.5t-93 1.5q-43 0 -86.5 -1.5t-64.5 -2.5v21
q33 0 46.5 15t13.5 57v316q0 45 -13 66.5t-47 21.5v21q32 -3 62 -3q45 0 85.5 3.5t74.5 10.5v-82q12 26 31.5 45t45 29.5t55.5 10.5zM412 826l8 -14q-56 -35 -104.5 -90.5t-78.5 -113.5h-18q-29 57 -77.5 113t-105.5 91l8 14q59 -12 115 -30.5t89 -37.5q28 19 72.5 37.5
t91.5 30.5z" />
    <glyph glyph-name="Sacute" unicode="&#x15a;" horiz-adv-x="598" 
d="M293 721q62 0 96 -12.5t58 -26.5q12 -7 19.5 -10.5t14.5 -3.5q16 0 22 44h23q-1 -20 -2.5 -47t-2 -71.5t-0.5 -117.5h-23q-4 54 -25 104t-57.5 83t-89.5 33q-46 0 -76 -25.5t-30 -72.5q0 -38 19 -65.5t57.5 -55.5t97.5 -69q47 -31 84 -62t59.5 -70t22.5 -94
q0 -66 -36 -109.5t-95 -65t-129 -21.5q-65 0 -103.5 12t-65.5 25q-22 14 -34 14q-16 0 -22 -44h-23q2 25 2.5 58.5t1 86.5t0.5 135h23q4 -68 22.5 -127t57 -95.5t102.5 -36.5q54 0 88 27t34 78q0 62 -41.5 103t-106.5 84q-47 31 -88 63t-65.5 71.5t-24.5 95.5q0 64 33 105
t87.5 60.5t115.5 19.5zM388 936q22 12 48.5 6t38.5 -32q11 -22 2.5 -44.5t-31.5 -34.5q-23 -13 -50 -18t-65 -13t-96 -28l-7 12q48 40 74 69.5t44.5 50.5t41.5 32z" />
    <glyph glyph-name="sacute" unicode="&#x15b;" horiz-adv-x="467" 
d="M226 532q44 0 76 -10t47 -19q35 -22 42 28h21q-2 -29 -3 -69.5t-1 -108.5h-21q-4 37 -17.5 73t-39.5 59.5t-68 23.5q-27 0 -45.5 -16t-18.5 -44q0 -30 18 -53t46.5 -44t57.5 -45q48 -37 81 -74t33 -96q0 -45 -27 -79t-71 -53t-98 -19q-33 0 -57.5 6.5t-40.5 16.5
q-15 7 -26.5 12t-22.5 7q-10 1 -17 -9t-11 -26h-21q2 32 3 78t1 122h21q6 -54 22.5 -95t44.5 -64.5t66 -23.5q25 0 45 15t20 48q0 44 -28 73.5t-69 64.5q-32 27 -59.5 53t-45 57t-17.5 70q0 45 25.5 76.5t66.5 48t88 16.5zM345 819q19 -15 19.5 -40t-16.5 -46
q-15 -19 -38.5 -34.5t-55.5 -37.5t-78 -62l-11 9q29 55 41.5 92t21.5 63t27 46q16 19 42.5 23t47.5 -13z" />
    <glyph glyph-name="Scircumflex" unicode="&#x15c;" horiz-adv-x="598" 
d="M293 721q62 0 96 -12.5t58 -26.5q12 -7 19.5 -10.5t14.5 -3.5q16 0 22 44h23q-1 -20 -2.5 -47t-2 -71.5t-0.5 -117.5h-23q-4 54 -25 104t-57.5 83t-89.5 33q-46 0 -76 -25.5t-30 -72.5q0 -38 19 -65.5t57.5 -55.5t97.5 -69q47 -31 84 -62t59.5 -70t22.5 -94
q0 -66 -36 -109.5t-95 -65t-129 -21.5q-65 0 -103.5 12t-65.5 25q-22 14 -34 14q-16 0 -22 -44h-23q2 25 2.5 58.5t1 86.5t0.5 135h23q4 -68 22.5 -127t57 -95.5t102.5 -36.5q54 0 88 27t34 78q0 62 -41.5 103t-106.5 84q-47 31 -88 63t-65.5 71.5t-24.5 95.5q0 64 33 105
t87.5 60.5t115.5 19.5zM314 948q33 -45 89 -89.5t122 -74.5l-5 -15q-67 12 -132 29t-103 34q-32 -17 -86 -34t-109 -29l-5 15q65 29 121 73.5t90 90.5h18z" />
    <glyph glyph-name="scircumflex" unicode="&#x15d;" horiz-adv-x="467" 
d="M226 532q44 0 76 -10t47 -19q35 -22 42 28h21q-2 -29 -3 -69.5t-1 -108.5h-21q-4 37 -17.5 73t-39.5 59.5t-68 23.5q-27 0 -45.5 -16t-18.5 -44q0 -30 18 -53t46.5 -44t57.5 -45q48 -37 81 -74t33 -96q0 -45 -27 -79t-71 -53t-98 -19q-33 0 -57.5 6.5t-40.5 16.5
q-15 7 -26.5 12t-22.5 7q-10 1 -17 -9t-11 -26h-21q2 32 3 78t1 122h21q6 -54 22.5 -95t44.5 -64.5t66 -23.5q25 0 45 15t20 48q0 44 -28 73.5t-69 64.5q-32 27 -59.5 53t-45 57t-17.5 70q0 45 25.5 76.5t66.5 48t88 16.5zM244 826q29 -57 77.5 -112.5t105.5 -91.5l-8 -14
q-59 13 -114.5 31.5t-89.5 36.5q-27 -18 -72 -36.5t-92 -31.5l-8 14q56 35 104.5 90.5t78.5 113.5h18z" />
    <glyph glyph-name="Scedilla" unicode="&#x15e;" horiz-adv-x="598" 
d="M293 721q62 0 96 -12.5t58 -26.5q12 -7 19.5 -10.5t14.5 -3.5q16 0 22 44h23q-1 -20 -2.5 -47t-2 -71.5t-0.5 -117.5h-23q-4 54 -25 104t-57.5 83t-89.5 33q-46 0 -76 -25.5t-30 -72.5q0 -38 19 -65.5t57.5 -55.5t97.5 -69q47 -31 84 -62t59.5 -70t22.5 -94
q0 -66 -36 -109.5t-95 -65t-129 -21.5q-65 0 -103.5 12t-65.5 25q-22 14 -34 14q-16 0 -22 -44h-23q2 25 2.5 58.5t1 86.5t0.5 135h23q4 -68 22.5 -127t57 -95.5t102.5 -36.5q54 0 88 27t34 78q0 62 -41.5 103t-106.5 84q-47 31 -88 63t-65.5 71.5t-24.5 95.5q0 64 33 105
t87.5 60.5t115.5 19.5zM312 5l-20 -67q19 7 39.5 10t43.5 3q40 0 59.5 -15.5t19.5 -40.5q0 -29 -23 -47.5t-62 -27t-88 -8.5q-29 0 -54 3.5t-42 9.5l5 18q8 -1 23 -3t31 -2q33 0 62.5 9t29.5 30q0 14 -12.5 20t-34.5 6q-8 0 -18 -1.5t-18 -5.5l32 109h27z" />
    <glyph glyph-name="scedilla" unicode="&#x15f;" horiz-adv-x="467" 
d="M226 532q44 0 76 -10t47 -19q35 -22 42 28h21q-2 -29 -3 -69.5t-1 -108.5h-21q-4 37 -17.5 73t-39.5 59.5t-68 23.5q-27 0 -45.5 -16t-18.5 -44q0 -30 18 -53t46.5 -44t57.5 -45q48 -37 81 -74t33 -96q0 -45 -27 -79t-71 -53t-98 -19q-33 0 -57.5 6.5t-40.5 16.5
q-15 7 -26.5 12t-22.5 7q-10 1 -17 -9t-11 -26h-21q2 32 3 78t1 122h21q6 -54 22.5 -95t44.5 -64.5t66 -23.5q25 0 45 15t20 48q0 44 -28 73.5t-69 64.5q-32 27 -59.5 53t-45 57t-17.5 70q0 45 25.5 76.5t66.5 48t88 16.5zM222 1l-18 -63q17 7 35.5 10t39.5 3
q36 0 53.5 -15.5t17.5 -40.5q0 -29 -20 -47.5t-53.5 -27t-75.5 -8.5q-27 0 -49.5 3.5t-39.5 9.5l6 18q7 -1 19.5 -3t26.5 -2q23 0 45.5 9t22.5 30q0 26 -31 26q-8 0 -18.5 -1.5t-17.5 -5.5l30 105h27z" />
    <glyph glyph-name="Scaron" unicode="&#x160;" horiz-adv-x="598" 
d="M293 721q62 0 96 -12.5t58 -26.5q12 -7 19.5 -10.5t14.5 -3.5q16 0 22 44h23q-1 -20 -2.5 -47t-2 -71.5t-0.5 -117.5h-23q-4 54 -25 104t-57.5 83t-89.5 33q-46 0 -76 -25.5t-30 -72.5q0 -38 19 -65.5t57.5 -55.5t97.5 -69q47 -31 84 -62t59.5 -70t22.5 -94
q0 -66 -36 -109.5t-95 -65t-129 -21.5q-65 0 -103.5 12t-65.5 25q-22 14 -34 14q-16 0 -22 -44h-23q2 25 2.5 58.5t1 86.5t0.5 135h23q4 -68 22.5 -127t57 -95.5t102.5 -36.5q54 0 88 27t34 78q0 62 -41.5 103t-106.5 84q-47 31 -88 63t-65.5 71.5t-24.5 95.5q0 64 33 105
t87.5 60.5t115.5 19.5zM517 942l5 -15q-65 -29 -121 -73.5t-90 -90.5h-18q-33 45 -89 90t-122 74l5 15q67 -11 132 -28t103 -35q32 18 86 35t109 28z" />
    <glyph glyph-name="scaron" unicode="&#x161;" horiz-adv-x="467" 
d="M226 532q44 0 76 -10t47 -19q35 -22 42 28h21q-2 -29 -3 -69.5t-1 -108.5h-21q-4 37 -17.5 73t-39.5 59.5t-68 23.5q-27 0 -45.5 -16t-18.5 -44q0 -30 18 -53t46.5 -44t57.5 -45q48 -37 81 -74t33 -96q0 -45 -27 -79t-71 -53t-98 -19q-33 0 -57.5 6.5t-40.5 16.5
q-15 7 -26.5 12t-22.5 7q-10 1 -17 -9t-11 -26h-21q2 32 3 78t1 122h21q6 -54 22.5 -95t44.5 -64.5t66 -23.5q25 0 45 15t20 48q0 44 -28 73.5t-69 64.5q-32 27 -59.5 53t-45 57t-17.5 70q0 45 25.5 76.5t66.5 48t88 16.5zM409 826l8 -14q-56 -35 -104.5 -90.5t-78.5 -113.5
h-18q-29 57 -77.5 113t-105.5 91l8 14q59 -12 115 -30.5t89 -37.5q28 19 72.5 37.5t91.5 30.5z" />
    <glyph glyph-name="uni0162" unicode="&#x162;" horiz-adv-x="683" 
d="M659 708q-4 -55 -5.5 -106t-1.5 -78q0 -22 1 -41t2 -33h-23q-20 89 -48 140.5t-63.5 73t-76.5 21.5h-12v-571q0 -41 8.5 -61t32 -26.5t68.5 -6.5v-20q-33 1 -88.5 2t-115.5 1q-59 0 -111 -1t-84 -2v20q45 0 69 6.5t32 26.5t8 61v571h-11q-42 0 -77 -21.5t-63 -72.5
t-49 -141h-23q2 14 2.5 33t0.5 41q0 27 -1.5 78t-5.5 106q47 -1 103.5 -2t112.5 -1h102h102.5t112.5 1t102 2zM352 5l-20 -67q19 7 39.5 10t43.5 3q40 0 59.5 -15.5t19.5 -40.5q0 -29 -23 -47.5t-62 -27t-88 -8.5q-29 0 -54 3.5t-42 9.5l5 18q8 -1 23 -3t31 -2q33 0 62.5 9
t29.5 30q0 14 -12.5 20t-34.5 6q-8 0 -18 -1.5t-18 -5.5l32 109h27z" />
    <glyph glyph-name="uni0163" unicode="&#x163;" horiz-adv-x="351" 
d="M240 681v-163h108v-20h-108v-409q0 -25 9 -35.5t27 -10.5q15 0 31.5 10t30.5 34l16 -10q-19 -41 -52.5 -66t-87.5 -25q-33 0 -58.5 8.5t-42.5 25.5q-22 22 -28.5 54.5t-6.5 84.5v339h-80v20h80v125q47 0 86.5 9t75.5 29zM207 1l-18 -63q17 7 35.5 10t39.5 3
q36 0 53.5 -15.5t17.5 -40.5q0 -29 -20 -47.5t-53.5 -27t-75.5 -8.5q-27 0 -49.5 3.5t-39.5 9.5l6 18q7 -1 19.5 -3t26.5 -2q23 0 45.5 9t22.5 30q0 26 -31 26q-8 0 -18.5 -1.5t-17.5 -5.5l30 105h27z" />
    <glyph glyph-name="Tcaron" unicode="&#x164;" horiz-adv-x="683" 
d="M659 708q-4 -55 -5.5 -106t-1.5 -78q0 -22 1 -41t2 -33h-23q-20 89 -48 140.5t-63.5 73t-76.5 21.5h-12v-571q0 -41 8.5 -61t32 -26.5t68.5 -6.5v-20q-33 1 -88.5 2t-115.5 1q-59 0 -111 -1t-84 -2v20q45 0 69 6.5t32 26.5t8 61v571h-11q-42 0 -77 -21.5t-63 -72.5
t-49 -141h-23q2 14 2.5 33t0.5 41q0 27 -1.5 78t-5.5 106q47 -1 103.5 -2t112.5 -1h102h102.5t112.5 1t102 2zM554 942l5 -15q-65 -29 -121 -73.5t-90 -90.5h-18q-33 45 -89 90t-122 74l5 15q67 -11 132 -28t103 -35q32 18 86 35t109 28z" />
    <glyph glyph-name="tcaron" unicode="&#x165;" horiz-adv-x="351" 
d="M240 681v-163h108v-20h-108v-409q0 -25 9 -35.5t27 -10.5q15 0 31.5 10t30.5 34l16 -10q-19 -41 -52.5 -66t-87.5 -25q-33 0 -58.5 8.5t-42.5 25.5q-22 22 -28.5 54.5t-6.5 84.5v339h-80v20h80v125q47 0 86.5 9t75.5 29zM408 783q2 -5 3.5 -18.5t1.5 -22.5q0 -29 -29 -72
t-78 -108l-14 4q12 68 16 100t4 45q0 20 -3.5 30t-16.5 10v21q42 -2 67.5 2t48.5 9z" />
    <glyph glyph-name="Tbar" unicode="&#x166;" horiz-adv-x="683" 
d="M659 708q-4 -55 -5.5 -106t-1.5 -78q0 -22 1 -41t2 -33h-23q-20 89 -48 140.5t-63.5 73t-76.5 21.5h-12v-571q0 -41 8.5 -61t32 -26.5t68.5 -6.5v-20q-33 1 -88.5 2t-115.5 1q-59 0 -111 -1t-84 -2v20q45 0 69 6.5t32 26.5t8 61v571h-11q-42 0 -77 -21.5t-63 -72.5
t-49 -141h-23q2 14 2.5 33t0.5 41q0 27 -1.5 78t-5.5 106q47 -1 103.5 -2t112.5 -1h102h102.5t112.5 1t102 2zM596.805 364v-20h-472.805v20h472.805z" />
    <glyph glyph-name="tbar" unicode="&#x167;" horiz-adv-x="358" 
d="M350 421v-20h-350v20h350zM242 681v-163h108v-20h-108v-409q0 -25 9 -35.5t28 -10.5q14 0 30.5 10t30.5 34l16 -10q-19 -41 -52.5 -66t-87.5 -25q-33 0 -58.5 8.5t-42.5 25.5q-22 22 -28.5 54.5t-6.5 84.5v339h-80v20h80v125q47 0 86.5 9t75.5 29z" />
    <glyph glyph-name="Utilde" unicode="&#x168;" horiz-adv-x="691" 
d="M676 708v-20q-31 -5 -47 -19t-21 -43t-5 -82v-253q0 -64 -8.5 -118t-32.5 -94q-26 -43 -77 -68t-132 -25q-46 0 -95.5 10.5t-88.5 38.5q-33 26 -50.5 61t-23.5 82.5t-6 109.5v314q0 37 -5.5 54.5t-21 24t-46.5 7.5v20q27 -1 72 -2t94 -1t94 1t75 2v-20q-34 -1 -51.5 -7.5
t-23.5 -24t-6 -54.5v-393q0 -66 13 -107.5t42 -61t76 -19.5q69 0 108 32.5t55 91.5t16 135v248q0 61 -6 93.5t-27 47t-66 19.5v20q19 -1 50.5 -2t59.5 -1q23 0 46.5 1t38.5 2zM268 931q38 0 65 -10.5t50 -24t46.5 -23.5t54.5 -10q26 0 48.5 12t41.5 41l14 -6
q-17 -75 -55.5 -109.5t-84.5 -34.5q-38 0 -65.5 10.5t-50 24.5t-46.5 24t-55 10q-26 0 -48 -12t-42 -42l-14 6q17 76 56 110t85 34z" />
    <glyph glyph-name="utilde" unicode="&#x169;" horiz-adv-x="614" 
d="M535 529v-420q0 -45 13.5 -66.5t46.5 -21.5v-21q-31 3 -62 3q-46 0 -85.5 -3t-74.5 -11v81q-24 -45 -65.5 -64.5t-94.5 -19.5q-44 0 -70.5 11t-40.5 29q-16 18 -23 48.5t-7 80.5v254q0 45 -13 66.5t-47 21.5v21q32 -3 62 -3q46 0 86 3.5t74 10.5v-422q0 -23 5 -39t17 -25
t32 -9q35 0 60 27t25 67v281q0 45 -13 66.5t-47 21.5v21q32 -3 62 -3q46 0 86 3.5t74 10.5zM217 792q32 0 54 -10t40 -23t37 -23t44 -10q21 0 40.5 12.5t36.5 40.5l14 -7q-17 -81 -51 -116t-75 -35q-32 0 -54.5 10t-40.5 23.5t-37 23.5t-44 10q-21 0 -40.5 -12.5
t-36.5 -41.5l-14 7q17 81 51.5 116t75.5 35z" />
    <glyph glyph-name="Umacron" unicode="&#x16a;" horiz-adv-x="691" 
d="M676 708v-20q-31 -5 -47 -19t-21 -43t-5 -82v-253q0 -64 -8.5 -118t-32.5 -94q-26 -43 -77 -68t-132 -25q-46 0 -95.5 10.5t-88.5 38.5q-33 26 -50.5 61t-23.5 82.5t-6 109.5v314q0 37 -5.5 54.5t-21 24t-46.5 7.5v20q27 -1 72 -2t94 -1t94 1t75 2v-20q-34 -1 -51.5 -7.5
t-23.5 -24t-6 -54.5v-393q0 -66 13 -107.5t42 -61t76 -19.5q69 0 108 32.5t55 91.5t16 135v248q0 61 -6 93.5t-27 47t-66 19.5v20q19 -1 50.5 -2t59.5 -1q23 0 46.5 1t38.5 2zM567 844v-25h-416v25h416z" />
    <glyph glyph-name="umacron" unicode="&#x16b;" horiz-adv-x="614" 
d="M535 529v-420q0 -45 13.5 -66.5t46.5 -21.5v-21q-31 3 -62 3q-46 0 -85.5 -3t-74.5 -11v81q-24 -45 -65.5 -64.5t-94.5 -19.5q-44 0 -70.5 11t-40.5 29q-16 18 -23 48.5t-7 80.5v254q0 45 -13 66.5t-47 21.5v21q32 -3 62 -3q46 0 86 3.5t74 10.5v-422q0 -23 5 -39t17 -25
t32 -9q35 0 60 27t25 67v281q0 45 -13 66.5t-47 21.5v21q32 -3 62 -3q46 0 86 3.5t74 10.5zM461 712v-25h-344v25h344z" />
    <glyph glyph-name="Ubreve" unicode="&#x16c;" horiz-adv-x="691" 
d="M676 708v-20q-31 -5 -47 -19t-21 -43t-5 -82v-253q0 -64 -8.5 -118t-32.5 -94q-26 -43 -77 -68t-132 -25q-46 0 -95.5 10.5t-88.5 38.5q-33 26 -50.5 61t-23.5 82.5t-6 109.5v314q0 37 -5.5 54.5t-21 24t-46.5 7.5v20q27 -1 72 -2t94 -1t94 1t75 2v-20q-34 -1 -51.5 -7.5
t-23.5 -24t-6 -54.5v-393q0 -66 13 -107.5t42 -61t76 -19.5q69 0 108 32.5t55 91.5t16 135v248q0 61 -6 93.5t-27 47t-66 19.5v20q19 -1 50.5 -2t59.5 -1q23 0 46.5 1t38.5 2zM570 918l12 -11q-14 -32 -43.5 -64.5t-76 -54t-111.5 -21.5t-111.5 21.5t-76 54t-43.5 64.5
l12 11q28 -20 81.5 -40t137.5 -20t137.5 20t81.5 40z" />
    <glyph glyph-name="ubreve" unicode="&#x16d;" horiz-adv-x="614" 
d="M535 529v-420q0 -45 13.5 -66.5t46.5 -21.5v-21q-31 3 -62 3q-46 0 -85.5 -3t-74.5 -11v81q-24 -45 -65.5 -64.5t-94.5 -19.5q-44 0 -70.5 11t-40.5 29q-16 18 -23 48.5t-7 80.5v254q0 45 -13 66.5t-47 21.5v21q32 -3 62 -3q46 0 86 3.5t74 10.5v-422q0 -23 5 -39t17 -25
t32 -9q35 0 60 27t25 67v281q0 45 -13 66.5t-47 21.5v21q32 -3 62 -3q46 0 86 3.5t74 10.5zM469 788l17 -9q-12 -37 -35.5 -74.5t-62.5 -62.5t-97 -25t-97 25t-62.5 62.5t-35.5 74.5l17 9q22 -22 65 -43t113 -21q71 0 113.5 21t64.5 43z" />
    <glyph glyph-name="Uring" unicode="&#x16e;" horiz-adv-x="691" 
d="M676 708v-20q-31 -5 -47 -19t-21 -43t-5 -82v-253q0 -64 -8.5 -118t-32.5 -94q-26 -43 -77 -68t-132 -25q-46 0 -95.5 10.5t-88.5 38.5q-33 26 -50.5 61t-23.5 82.5t-6 109.5v314q0 37 -5.5 54.5t-21 24t-46.5 7.5v20q27 -1 72 -2t94 -1t94 1t75 2v-20q-34 -1 -51.5 -7.5
t-23.5 -24t-6 -54.5v-393q0 -66 13 -107.5t42 -61t76 -19.5q69 0 108 32.5t55 91.5t16 135v248q0 61 -6 93.5t-27 47t-66 19.5v20q19 -1 50.5 -2t59.5 -1q23 0 46.5 1t38.5 2zM359 989q45 0 79 -26.5t34 -72.5t-34 -73t-79 -27q-44 0 -78 27t-34 73t34 72.5t78 26.5z
M359 968q-30 0 -57 -20.5t-27 -58.5q0 -39 27 -58.5t57 -19.5q31 0 58 19.5t27 58.5q0 38 -27 58.5t-58 20.5z" />
    <glyph glyph-name="uring" unicode="&#x16f;" horiz-adv-x="614" 
d="M535 529v-420q0 -45 13.5 -66.5t46.5 -21.5v-21q-31 3 -62 3q-46 0 -85.5 -3t-74.5 -11v81q-24 -45 -65.5 -64.5t-94.5 -19.5q-44 0 -70.5 11t-40.5 29q-16 18 -23 48.5t-7 80.5v254q0 45 -13 66.5t-47 21.5v21q32 -3 62 -3q46 0 86 3.5t74 10.5v-422q0 -23 5 -39t17 -25
t32 -9q35 0 60 27t25 67v281q0 45 -13 66.5t-47 21.5v21q32 -3 62 -3q46 0 86 3.5t74 10.5zM292 799q45 0 79 -26.5t34 -72.5t-34 -73t-79 -27q-44 0 -78 27t-34 73t34 72.5t78 26.5zM292 778q-30 0 -57 -20.5t-27 -58.5q0 -39 27 -58.5t57 -19.5q31 0 58 19.5t27 58.5
q0 38 -27 58.5t-58 20.5z" />
    <glyph glyph-name="Uhungarumlaut" unicode="&#x170;" horiz-adv-x="691" 
d="M676 708v-20q-31 -5 -47 -19t-21 -43t-5 -82v-253q0 -64 -8.5 -118t-32.5 -94q-26 -43 -77 -68t-132 -25q-46 0 -95.5 10.5t-88.5 38.5q-33 26 -50.5 61t-23.5 82.5t-6 109.5v314q0 37 -5.5 54.5t-21 24t-46.5 7.5v20q27 -1 72 -2t94 -1t94 1t75 2v-20q-34 -1 -51.5 -7.5
t-23.5 -24t-6 -54.5v-393q0 -66 13 -107.5t42 -61t76 -19.5q69 0 108 32.5t55 91.5t16 135v248q0 61 -6 93.5t-27 47t-66 19.5v20q19 -1 50.5 -2t59.5 -1q23 0 46.5 1t38.5 2zM530 939q22 16 48 11.5t41 -26.5t9.5 -44.5t-28.5 -38.5q-27 -19 -69.5 -30t-107.5 -39l-10 11
q32 38 51 68t34 52t32 36zM311 939q22 16 48 11.5t41 -26.5t9.5 -44.5t-28.5 -38.5q-27 -19 -69.5 -30t-107.5 -39l-10 11q32 38 51 68t34 52t32 36z" />
    <glyph glyph-name="uhungarumlaut" unicode="&#x171;" horiz-adv-x="614" 
d="M535 529v-420q0 -45 13.5 -66.5t46.5 -21.5v-21q-31 3 -62 3q-46 0 -85.5 -3t-74.5 -11v81q-24 -45 -65.5 -64.5t-94.5 -19.5q-44 0 -70.5 11t-40.5 29q-16 18 -23 48.5t-7 80.5v254q0 45 -13 66.5t-47 21.5v21q32 -3 62 -3q46 0 86 3.5t74 10.5v-422q0 -23 5 -39t17 -25
t32 -9q35 0 60 27t25 67v281q0 45 -13 66.5t-47 21.5v21q32 -3 62 -3q46 0 86 3.5t74 10.5zM497 816q20 -15 23.5 -38t-11.5 -46q-19 -27 -55 -53t-91 -81l-13 7q18 50 26 86.5t14 62t18 43.5q14 23 40 29t49 -10zM319 816q21 -15 24.5 -38t-12.5 -46q-18 -27 -54 -53
t-92 -81l-12 7q18 50 25.5 86.5t14 62t18.5 43.5q14 23 40 29t48 -10z" />
    <glyph glyph-name="Uogonek" unicode="&#x172;" horiz-adv-x="691" 
d="M676 708v-20q-31 -5 -47 -19t-21 -43t-5 -82v-253q0 -64 -8.5 -118t-32.5 -94q-26 -43 -77 -68t-132 -25q-46 0 -95.5 10.5t-88.5 38.5q-33 26 -50.5 61t-23.5 82.5t-6 109.5v314q0 37 -5.5 54.5t-21 24t-46.5 7.5v20q27 -1 72 -2t94 -1t94 1t75 2v-20q-34 -1 -51.5 -7.5
t-23.5 -24t-6 -54.5v-393q0 -66 13 -107.5t42 -61t76 -19.5q69 0 108 32.5t55 91.5t16 135v248q0 61 -6 93.5t-27 47t-66 19.5v20q19 -1 50.5 -2t59.5 -1q23 0 46.5 1t38.5 2zM465 3q-61 -20 -86 -46t-25 -48q0 -20 10.5 -29.5t30.5 -9.5q17 0 35.5 7t29.5 18l13 -15
q-28 -36 -62 -52t-83 -16q-46 0 -70.5 18.5t-24.5 51.5q0 43 51.5 73.5t142.5 47.5h38z" />
    <glyph glyph-name="uogonek" unicode="&#x173;" horiz-adv-x="614" 
d="M535 529v-420q0 -45 13.5 -66.5t46.5 -21.5v-21q-31 3 -62 3q-46 0 -85.5 -3t-74.5 -11v81q-24 -45 -65.5 -64.5t-94.5 -19.5q-44 0 -70.5 11t-40.5 29q-16 18 -23 48.5t-7 80.5v254q0 45 -13 66.5t-47 21.5v21q32 -3 62 -3q46 0 86 3.5t74 10.5v-422q0 -23 5 -39t17 -25
t32 -9q35 0 60 27t25 67v281q0 45 -13 66.5t-47 21.5v21q32 -3 62 -3q46 0 86 3.5t74 10.5zM582 11q-4 -4 -8.5 -7t-13.5 -8q-41 -19 -56.5 -42.5t-15.5 -44.5q0 -20 10.5 -29.5t29.5 -9.5q18 0 36.5 7t28.5 18l14 -15q-28 -36 -62 -52t-83 -16q-47 0 -71 18.5t-24 51.5
q0 43 44.5 73.5t125.5 47.5z" />
    <glyph glyph-name="Wcircumflex" unicode="&#x174;" horiz-adv-x="989" 
d="M996 708v-20q-22 -10 -47 -39t-43 -90l-173 -560q-10 1 -21 1.5t-23 0.5q-10 0 -21.5 -0.5t-21.5 -1.5l-210 639q-9 28 -22.5 38.5t-30.5 11.5v20q31 -1 73 -2t85 -1q45 0 85 1t65 2v-20q-31 -1 -48 -7t-19.5 -23.5t9.5 -53.5l139 -425l-26 -51l107 341q26 82 25 129.5
t-23.5 68t-63.5 21.5v20q37 -1 66.5 -2t61.5 -1q21 0 41.5 1t35.5 2zM278 708v-20q-19 -3 -26 -16t-4.5 -31.5t8.5 -36.5l151 -435l-27 -39l124 349l14 -28l-155 -452q-10 1 -21.5 1.5t-22.5 0.5t-22 -0.5t-21 -1.5l-228 625q-13 36 -30 49.5t-31 14.5v20q32 -1 77 -2t86 -1
t74 1t54 2zM522 948q33 -45 89 -89.5t122 -74.5l-5 -15q-67 12 -132 29t-103 34q-32 -17 -86 -34t-109 -29l-5 15q65 29 121 73.5t90 90.5h18z" />
    <glyph glyph-name="wcircumflex" unicode="&#x175;" horiz-adv-x="792" 
d="M281 518v-21q-22 0 -37 -2.5t-20.5 -12.5t0.5 -32l92 -297l-15 -18l107 383l21 -10l-143 -509q-20 2 -40.5 2t-40.5 -2l-156 442q-14 40 -30.5 48t-27.5 8v21q36 -3 75 -4.5t85 -1.5q31 0 65.5 2t64.5 4zM794 518v-21q-19 -6 -36.5 -24.5t-33.5 -66.5l-129 -407
q-20 2 -40 2t-41 -2l-133 377l28 142q22 -1 45 -1t45 1l130 -401l-12 17l57 182q28 93 6 135t-71 46v21q14 -1 35 -2t41 -1.5t32 -0.5q19 0 42 1t35 3zM420 826q29 -57 77.5 -112.5t105.5 -91.5l-8 -14q-59 13 -114.5 31.5t-89.5 36.5q-27 -18 -72 -36.5t-92 -31.5l-8 14
q56 35 104.5 90.5t78.5 113.5h18z" />
    <glyph glyph-name="Ycircumflex" unicode="&#x176;" horiz-adv-x="633" 
d="M626 709v-20q-22 -10 -46.5 -38.5t-53.5 -85.5l-185 -366h-57l-234 433q-17 33 -32 44.5t-26 11.5v21q29 -3 60 -4.5t68 -1.5q48 0 103 2t101 4v-21q-25 0 -45.5 -3t-29 -12t1.5 -30l155 -297l-39 -51l94 188q39 77 42.5 121.5t-19 64t-62.5 20.5v20q36 -1 65.5 -2
t62.5 -1q21 0 41 1t35 2zM420 375v-269q0 -36 5.5 -54t21 -24t46.5 -8v-20q-28 2 -73.5 2.5t-89.5 0.5q-49 0 -93.5 -0.5t-70.5 -2.5v20q31 2 46.5 8t21 24t5.5 54v205l98 -62zM348 948q33 -45 89 -89.5t122 -74.5l-5 -15q-67 12 -132 29t-103 34q-32 -17 -86 -34t-109 -29
l-5 15q65 29 121 73.5t90 90.5h18z" />
    <glyph glyph-name="ycircumflex" unicode="&#x177;" horiz-adv-x="524" 
d="M519 518v-21q-19 -6 -36.5 -25t-33.5 -66l-133 -384l-44 -93l-229 512q-17 38 -33 47t-27 9v21q37 -3 76 -4.5t74 -1.5q44 0 78 2t64 4v-21q-19 0 -36 -2t-23.5 -11.5t3.5 -33.5l127 -304l-10 -7l61 177q31 91 10.5 134.5t-66.5 46.5v21q22 -2 52 -3t49 -1t42 1t35 3z
M316 22l-40 -114q-18 -51 -44 -72q-14 -11 -35.5 -17.5t-54.5 -6.5q-26 0 -54.5 8.5t-48 27.5t-19.5 51q0 33 24 52.5t65 19.5q37 0 59.5 -17t22.5 -51q0 -21 -14 -41t-44 -30q7 -1 15.5 -1.5t13.5 -0.5q31 0 55 19.5t38 60.5l35 106zM268 826q29 -57 77.5 -112.5
t105.5 -91.5l-8 -14q-59 13 -114.5 31.5t-89.5 36.5q-27 -18 -72 -36.5t-92 -31.5l-8 14q56 35 104.5 90.5t78.5 113.5h18z" />
    <glyph glyph-name="Ydieresis" unicode="&#x178;" horiz-adv-x="633" 
d="M626 709v-20q-22 -10 -46.5 -38.5t-53.5 -85.5l-185 -366h-57l-234 433q-17 33 -32 44.5t-26 11.5v21q29 -3 60 -4.5t68 -1.5q48 0 103 2t101 4v-21q-25 0 -45.5 -3t-29 -12t1.5 -30l155 -297l-39 -51l94 188q39 77 42.5 121.5t-19 64t-62.5 20.5v20q36 -1 65.5 -2
t62.5 -1q21 0 41 1t35 2zM420 375v-269q0 -36 5.5 -54t21 -24t46.5 -8v-20q-28 2 -73.5 2.5t-89.5 0.5q-49 0 -93.5 -0.5t-70.5 -2.5v20q31 2 46.5 8t21 24t5.5 54v205l98 -62zM464 926q32 0 56.5 -24.5t24.5 -56.5q0 -33 -24.5 -57t-57.5 -24t-57 24t-24 57t24 57t58 24z
M215 926q32 0 56.5 -24.5t24.5 -56.5q0 -33 -24.5 -57t-56.5 -24q-34 0 -58 24t-24 57t24 57t58 24z" />
    <glyph glyph-name="Zacute" unicode="&#x179;" horiz-adv-x="604" 
d="M559 708v-20l-322 -665h72q31 0 66.5 11.5t69.5 37.5t59 69.5t32 108.5h23q-3 -35 -3 -90q0 -24 1 -68t6 -92q-55 2 -124.5 2.5t-124.5 0.5q-66 0 -139 -0.5t-137 -2.5v20l323 665h-79q-45 0 -90 -19t-78 -64.5t-44 -127.5h-23q2 14 2.5 33t0.5 41q0 24 -1.5 68t-5.5 92
q49 -2 109 -2.5t108 -0.5q71 0 150 0.5t149 2.5zM387 936q22 12 48.5 6t38.5 -32q11 -22 2.5 -44.5t-31.5 -34.5q-23 -13 -50 -18t-65 -13t-96 -28l-7 12q48 40 74 69.5t44.5 50.5t41.5 32z" />
    <glyph glyph-name="zacute" unicode="&#x17a;" horiz-adv-x="473" 
d="M445 522l-237 -507h34q38 0 74 17t61.5 57t30.5 111h20q0 -76 1 -123.5t3 -80.5q-45 2 -94.5 3t-99.5 1q-51 0 -105.5 -1.5t-104.5 -3.5l237 507h-38q-38 0 -73 -16.5t-58.5 -57t-29.5 -111.5h-21q0 77 -1 124.5t-3 79.5q47 -2 96.5 -3t97.5 -1q53 0 107 1.5t103 3.5z
M362 819q19 -15 19.5 -40t-16.5 -46q-15 -19 -38.5 -34.5t-55.5 -37.5t-78 -62l-11 9q29 55 41.5 92t21.5 63t27 46q16 19 42.5 23t47.5 -13z" />
    <glyph glyph-name="Zdotaccent" unicode="&#x17b;" horiz-adv-x="604" 
d="M559 708v-20l-322 -665h72q31 0 66.5 11.5t69.5 37.5t59 69.5t32 108.5h23q-3 -35 -3 -90q0 -24 1 -68t6 -92q-55 2 -124.5 2.5t-124.5 0.5q-66 0 -139 -0.5t-137 -2.5v20l323 665h-79q-45 0 -90 -19t-78 -64.5t-44 -127.5h-23q2 14 2.5 33t0.5 41q0 24 -1.5 68t-5.5 92
q49 -2 109 -2.5t108 -0.5q71 0 150 0.5t149 2.5zM304 969q47 0 73.5 -21t26.5 -61t-26.5 -61t-73.5 -21t-73.5 21t-26.5 61t26.5 61t73.5 21z" />
    <glyph glyph-name="zdotaccent" unicode="&#x17c;" horiz-adv-x="473" 
d="M445 522l-237 -507h34q38 0 74 17t61.5 57t30.5 111h20q0 -76 1 -123.5t3 -80.5q-45 2 -94.5 3t-99.5 1q-51 0 -105.5 -1.5t-104.5 -3.5l237 507h-38q-38 0 -73 -16.5t-58.5 -57t-29.5 -111.5h-21q0 77 -1 124.5t-3 79.5q47 -2 96.5 -3t97.5 -1q53 0 107 1.5t103 3.5z
M252 779q47 0 73.5 -21t26.5 -61t-26.5 -61t-73.5 -21t-73.5 21t-26.5 61t26.5 61t73.5 21z" />
    <glyph glyph-name="Zcaron" unicode="&#x17d;" horiz-adv-x="604" 
d="M559 708v-20l-322 -665h72q31 0 66.5 11.5t69.5 37.5t59 69.5t32 108.5h23q-3 -35 -3 -90q0 -24 1 -68t6 -92q-55 2 -124.5 2.5t-124.5 0.5q-66 0 -139 -0.5t-137 -2.5v20l323 665h-79q-45 0 -90 -19t-78 -64.5t-44 -127.5h-23q2 14 2.5 33t0.5 41q0 24 -1.5 68t-5.5 92
q49 -2 109 -2.5t108 -0.5q71 0 150 0.5t149 2.5zM516 942l5 -15q-65 -29 -121 -73.5t-90 -90.5h-18q-33 45 -89 90t-122 74l5 15q67 -11 132 -28t103 -35q32 18 86 35t109 28z" />
    <glyph glyph-name="zcaron" unicode="&#x17e;" horiz-adv-x="473" 
d="M445 522l-237 -507h34q38 0 74 17t61.5 57t30.5 111h20q0 -76 1 -123.5t3 -80.5q-45 2 -94.5 3t-99.5 1q-51 0 -105.5 -1.5t-104.5 -3.5l237 507h-38q-38 0 -73 -16.5t-58.5 -57t-29.5 -111.5h-21q0 77 -1 124.5t-3 79.5q47 -2 96.5 -3t97.5 -1q53 0 107 1.5t103 3.5z
M426 826l8 -14q-56 -35 -104.5 -90.5t-78.5 -113.5h-18q-29 57 -77.5 113t-105.5 91l8 14q59 -12 115 -30.5t89 -37.5q28 19 72.5 37.5t91.5 30.5z" />
    <glyph glyph-name="longs" unicode="&#x17f;" horiz-adv-x="358" 
d="M22 0v21q33 0 46.5 15t13.5 57v404h-64v20h64q0 89 15 135t52 80q22 21 60.5 35.5t82.5 14.5q38 0 65.5 -9.5t47.5 -25.5q15 -11 25.5 -31.5t10.5 -47.5q0 -29 -21.5 -52t-55.5 -23q-37 0 -60 20.5t-23 56.5q0 27 16 49.5t48 31.5q-3 5 -11 8.5t-21 3.5q-18 0 -30 -6
t-20 -17q-10 -13 -14.5 -37t-4.5 -73v-527q0 -49 24 -65.5t66 -16.5v-21q-27 1 -75.5 2.5t-102.5 1.5q-39 0 -77 -1.5t-57 -2.5z" />
    <glyph glyph-name="uni018F" unicode="&#x18f;" horiz-adv-x="761" 
d="M365 -14q-87 0 -162.5 33.5t-120 103.5t-43.5 179h547l2 -19h-360q-6 -72 10 -135t52.5 -101.5t90.5 -38.5q64 0 105 64t50 218l-2 7q1 11 1.5 23t0.5 24q0 98 -20.5 164.5t-55.5 106t-78 56.5t-89 17q-33 0 -63 -8.5t-53 -25.5q-45 -29 -61 -76t-23 -116h-23
q0 93 -1 150t-3 96h23q5 -46 14.5 -54.5t30.5 3.5q16 10 43 25.5t71 28t109 12.5q102 0 184.5 -39.5t131 -120.5t48.5 -206q0 -126 -48.5 -208t-129 -122.5t-178.5 -40.5z" />
    <glyph glyph-name="florin" unicode="&#x192;" horiz-adv-x="581" 
d="M399 782q26 0 55 -5t55 -17.5t42.5 -33.5t16.5 -53q0 -34 -22 -57t-59 -23t-59.5 20.5t-22.5 53.5q0 62 60 84q-4 5 -15 8.5t-27 3.5q-17 0 -34.5 -8.5t-27.5 -24.5q-13 -22 -15.5 -69t-2.5 -147v-427q0 -84 -15 -135.5t-53 -87.5q-24 -24 -66.5 -38t-108.5 -14
q-20 0 -45 3.5t-47 12.5t-36.5 26.5t-14.5 43.5q0 32 24 51.5t64 19.5q37 0 59 -17.5t22 -50.5q0 -19 -11.5 -38t-38.5 -30q9 -1 17.5 0t15.5 3q17 1 32.5 9t23.5 23q12 21 14 60.5t2 122.5v463q0 89 15 136.5t52 81.5q24 22 64 36t87 14zM529 517v-20h-489v20h489z" />
    <glyph glyph-name="Ohorn" unicode="&#x1a0;" horiz-adv-x="810" 
d="M511 700q61 -3 103.5 3.5t78.5 20.5l-3 -8q-23 11 -43 32.5t-20 52.5q0 33 21.5 53t52.5 20t53 -20.5t22 -56.5q0 -27 -15.5 -50t-47.5 -37q-26 -13 -70.5 -22.5t-105.5 -8.5zM405 722q110 0 192 -43t127.5 -123.5t45.5 -195.5q0 -112 -46.5 -196t-129 -131t-190.5 -47
q-109 0 -191.5 43t-128 124t-45.5 195q0 112 47 196t129.5 131t189.5 47zM401 704q-53 0 -92 -45t-60.5 -124t-21.5 -183q0 -106 24.5 -184.5t66 -121t90.5 -42.5q53 0 92.5 45t60.5 124.5t21 182.5q0 107 -24 185t-65.5 120.5t-91.5 42.5z" />
    <glyph glyph-name="ohorn" unicode="&#x1a1;" horiz-adv-x="570" 
d="M396 481l-5 20q41 1 69.5 5.5t51.5 12.5l-3 -9q-19 11 -35.5 31t-16.5 48q0 29 20.5 48.5t52.5 19.5q29 0 50 -16.5t21 -49.5q0 -27 -15.5 -47.5t-44.5 -34.5q-26 -11 -63 -18t-82 -10zM285 532q75 0 131.5 -26.5t88 -86.5t31.5 -160t-31.5 -160t-88 -86.5t-131.5 -26.5
q-74 0 -130.5 26.5t-88.5 86.5t-32 160t32 160t88.5 86.5t130.5 26.5zM285 512q-35 0 -58.5 -59.5t-23.5 -193.5t23.5 -193.5t58.5 -59.5q36 0 59 59.5t23 193.5t-23 193.5t-59 59.5z" />
    <glyph glyph-name="Uhorn" unicode="&#x1af;" horiz-adv-x="691" 
d="M353 -14q-46 0 -95.5 10.5t-88.5 38.5q-33 26 -50.5 61t-23.5 82.5t-6 109.5v314q0 37 -5.5 54.5t-21 24t-46.5 7.5v20q27 -1 72 -2t94 -1t94 1t75 2v-20q-34 -1 -51.5 -7.5t-23.5 -24t-6 -54.5v-393q0 -66 13 -107.5t42 -61t76 -19.5q69 0 108 32.5t55 91.5t16 135v411
l2 -7q-25 0 -51.5 0.5t-50.5 3.5l5 20q21 -1 36 -2.5t37 -1.5q36 0 64 4t53 20l-2 -8q-23 11 -43 33t-20 53q0 32 21.5 52t51.5 20q31 0 53 -20.5t22 -55.5q0 -30 -17.5 -51.5t-44.5 -36.5q-26 -14 -51.5 -20.5t-50.5 -8.5l9 6v-400q0 -64 -8.5 -118t-32.5 -94
q-26 -43 -77 -68t-132 -25z" />
    <glyph glyph-name="uhorn" unicode="&#x1b0;" horiz-adv-x="614" 
d="M459 496l-4 20q41 3 69 10.5t51 20.5l-3 -8q-19 10 -35.5 30t-16.5 48q0 30 20.5 49.5t52.5 19.5q29 0 50.5 -16.5t21.5 -48.5q0 -26 -16.5 -46.5t-43.5 -36.5q-26 -15 -63.5 -27t-82.5 -15zM535 529v-420q0 -45 13.5 -66.5t46.5 -21.5v-21q-31 3 -62 3q-46 0 -85.5 -3
t-74.5 -11v81q-24 -45 -65.5 -64.5t-94.5 -19.5q-44 0 -70.5 11t-40.5 29q-16 18 -23 48.5t-7 80.5v254q0 45 -13 66.5t-47 21.5v21q32 -3 62 -3q46 0 86 3.5t74 10.5v-422q0 -23 5 -39t17 -25t32 -9q35 0 60 27t25 67v281q0 45 -13 66.5t-47 21.5v21q32 -3 62 -3
q46 0 86 3.5t74 10.5z" />
    <glyph glyph-name="uni01B7" unicode="&#x1b7;" horiz-adv-x="604" 
d="M559 708v-20l-165 -341l-24 50q61 -20 106 -47.5t70 -65t25 -87.5q0 -57 -34.5 -105t-99 -77t-155.5 -29q-58 0 -101.5 11.5t-67.5 25.5q-7 4 -16 9t-17 5q-10 0 -15 -11t-8 -33h-23q2 25 2.5 58.5t1 86.5t0.5 135h23q4 -69 24.5 -128t61.5 -95t104 -36q54 0 88 25.5
t49.5 66.5t15.5 85q0 82 -48 129t-131 62v20l139 283h-82q-45 0 -90 -19t-78 -64.5t-44 -127.5h-23q2 14 2.5 33t0.5 38q0 27 -1.5 71t-5.5 92q49 -2 109 -2.5t108 -0.5q71 0 150 0.5t149 2.5z" />
    <glyph glyph-name="uni01CD" unicode="&#x1cd;" horiz-adv-x="680" 
d="M383 709l242 -625q15 -35 31.5 -49t29.5 -15v-20q-32 2 -76.5 2.5t-90.5 0.5q-48 0 -91 -0.5t-69 -2.5v20q51 2 65 17.5t-6 66.5l-166 454l20 30l-146 -377q-30 -80 -29.5 -120.5t25 -54.5t64.5 -16v-20q-35 2 -64.5 2.5t-63.5 0.5q-20 0 -40.5 -0.5t-35.5 -2.5v20
q22 4 44.5 28t44.5 83l225 578q20 -2 43.5 -2t43.5 2zM435 288v-20h-298l10 20h288zM551 942l5 -15q-65 -29 -121 -73.5t-90 -90.5h-18q-33 45 -89 90t-122 74l5 15q67 -11 132 -28t103 -35q32 18 86 35t109 28z" />
    <glyph glyph-name="uni01CE" unicode="&#x1ce;" horiz-adv-x="524" 
d="M153 -7q-67 0 -97.5 35.5t-30.5 85.5q0 42 19.5 69.5t50.5 44.5t65 28.5t65 23t50 26t19 37.5v83q0 22 -6.5 41.5t-23 32t-45.5 12.5q-18 0 -35 -5t-30 -16q32 -11 47.5 -33t15.5 -49q0 -37 -25.5 -58.5t-60.5 -21.5q-38 0 -58.5 24t-20.5 58q0 30 15 50.5t44 37.5t70 25
t87 8q47 0 86.5 -9.5t67.5 -37.5q22 -23 28 -56t6 -84v-270q0 -25 4.5 -34.5t14.5 -9.5t18 5t15 11l11 -17q-22 -18 -52 -27.5t-65 -9.5q-62 0 -83 24t-22 55q-23 -37 -58 -58t-86 -21zM242 65q15 0 27.5 6.5t24.5 22.5v208q-11 -19 -29 -32.5t-36.5 -29t-31 -38.5
t-12.5 -61q0 -41 16.5 -58.5t40.5 -17.5zM438 826l8 -14q-56 -35 -104.5 -90.5t-78.5 -113.5h-18q-29 57 -77.5 113t-105.5 91l8 14q59 -12 115 -30.5t89 -37.5q28 19 72.5 37.5t91.5 30.5z" />
    <glyph glyph-name="uni01D3" unicode="&#x1d3;" horiz-adv-x="691" 
d="M676 708v-20q-31 -5 -47 -19t-21 -43t-5 -82v-253q0 -64 -8.5 -118t-32.5 -94q-26 -43 -77 -68t-132 -25q-46 0 -95.5 10.5t-88.5 38.5q-33 26 -50.5 61t-23.5 82.5t-6 109.5v314q0 37 -5.5 54.5t-21 24t-46.5 7.5v20q27 -1 72 -2t94 -1t94 1t75 2v-20q-34 -1 -51.5 -7.5
t-23.5 -24t-6 -54.5v-393q0 -66 13 -107.5t42 -61t76 -19.5q69 0 108 32.5t55 91.5t16 135v248q0 61 -6 93.5t-27 47t-66 19.5v20q19 -1 50.5 -2t59.5 -1q23 0 46.5 1t38.5 2zM571 942l5 -15q-65 -29 -121 -73.5t-90 -90.5h-18q-33 45 -89 90t-122 74l5 15q67 -11 132 -28
t103 -35q32 18 86 35t109 28z" />
    <glyph glyph-name="uni01D4" unicode="&#x1d4;" horiz-adv-x="614" 
d="M535 529v-420q0 -45 13.5 -66.5t46.5 -21.5v-21q-31 3 -62 3q-46 0 -85.5 -3t-74.5 -11v81q-24 -45 -65.5 -64.5t-94.5 -19.5q-44 0 -70.5 11t-40.5 29q-16 18 -23 48.5t-7 80.5v254q0 45 -13 66.5t-47 21.5v21q32 -3 62 -3q46 0 86 3.5t74 10.5v-422q0 -23 5 -39t17 -25
t32 -9q35 0 60 27t25 67v281q0 45 -13 66.5t-47 21.5v21q32 -3 62 -3q46 0 86 3.5t74 10.5zM466 826l8 -14q-56 -35 -104.5 -90.5t-78.5 -113.5h-18q-29 57 -77.5 113t-105.5 91l8 14q59 -12 115 -30.5t89 -37.5q28 19 72.5 37.5t91.5 30.5z" />
    <glyph glyph-name="uni01E4" unicode="&#x1e4;" horiz-adv-x="745" 
d="M414 722q69 0 113 -19t79 -46q11 -9 20 -9q19 0 25 60h23q-2 -39 -3 -96t-1 -150h-23q-7 66 -23 112.5t-61 79.5q-23 19 -54.5 29.5t-62.5 10.5q-56 0 -94.5 -30.5t-62.5 -80t-34.5 -110t-10.5 -121.5q0 -180 46.5 -263t129.5 -83q20 0 35 4.5t25 11.5q13 9 18 21t5 30
v127q0 47 -8 70.5t-29.5 32t-63.5 9.5v20q22 -1 53 -1.5t65 -1t63 -0.5q45 0 82.5 1t61.5 2v-20q-27 -2 -35 -16t-8 -70v-226h-20q-1 17 -8 37t-23 20q-7 0 -20 -4t-41 -18q-37 -20 -79.5 -34.5t-86.5 -14.5q-181 0 -273.5 95.5t-92.5 265.5q0 113 48 197t132.5 131
t193.5 47zM394 176v20h351v-20h-351z" />
    <glyph glyph-name="uni01E5" unicode="&#x1e5;" horiz-adv-x="552" 
d="M590 -79v-20h-640v20h640zM219 -188q-65 0 -114 10.5t-76 31t-27 49.5q0 30 28 54.5t86 38.5l9 -16q-17 -17 -24 -33.5t-7 -32.5q0 -41 37 -63t102 -22q45 0 78 12.5t51 35.5t18 54q0 29 -21.5 49t-86.5 20h-58q-43 0 -74 11t-47.5 31t-16.5 50q0 45 35 76.5t97 58.5
l9 -8q-15 -9 -28.5 -21t-13.5 -32q0 -32 38 -32h103q90 0 147.5 -31.5t57.5 -105.5q0 -50 -32 -92t-98.5 -67.5t-171.5 -25.5zM232 213q-90 0 -148.5 39t-58.5 121q0 83 58.5 121t148.5 38q89 0 148 -38t59 -121q0 -82 -59 -121t-148 -39zM232 231q22 0 35.5 31t13.5 111
t-13.5 110.5t-35.5 30.5q-23 0 -36 -30.5t-13 -110.5t13 -111t36 -31zM391 445l-21 7q16 41 49.5 66.5t73.5 25.5q33 0 49.5 -18t16.5 -47t-15.5 -44.5t-36.5 -15.5q-18 0 -33 12.5t-17 38t18 64.5l6 -6q-37 -13 -56.5 -32t-33.5 -51z" />
    <glyph glyph-name="Gcaron" unicode="&#x1e6;" horiz-adv-x="745" 
d="M414 722q69 0 113 -19t79 -46q11 -9 20 -9q19 0 25 60h23q-2 -39 -3 -96t-1 -150h-23q-7 66 -23 112.5t-61 79.5q-23 19 -54.5 29.5t-62.5 10.5q-56 0 -94.5 -30.5t-62.5 -80t-34.5 -110t-10.5 -121.5q0 -180 46.5 -263t129.5 -83q20 0 35 4.5t25 11.5q13 9 18 21t5 30
v99q0 47 -8 70.5t-29.5 32t-63.5 9.5v20q22 -1 53 -1.5t65 -1t63 -0.5q45 0 82.5 1t61.5 2v-20q-27 -2 -35 -16t-8 -70v-198h-20q-1 17 -8 37t-23 20q-7 0 -20 -4t-41 -18q-37 -20 -79.5 -34.5t-86.5 -14.5q-181 0 -273.5 95.5t-92.5 265.5q0 113 48 197t132.5 131t193.5 47
zM607 942l5 -15q-65 -29 -121 -73.5t-90 -90.5h-18q-33 45 -89 90t-122 74l5 15q67 -11 132 -28t103 -35q32 18 86 35t109 28z" />
    <glyph glyph-name="gcaron" unicode="&#x1e7;" horiz-adv-x="562" 
d="M219 -188q-65 0 -114 10.5t-76 31t-27 49.5q0 30 28 54.5t86 38.5l9 -16q-17 -17 -24 -33.5t-7 -32.5q0 -41 37 -63t102 -22q45 0 78 12.5t51 35.5t18 54q0 29 -21.5 49t-86.5 20h-58q-43 0 -74 11t-47.5 31t-16.5 50q0 45 35 76.5t97 58.5l9 -8q-15 -9 -28.5 -21
t-13.5 -32q0 -32 38 -32h103q90 0 147.5 -31.5t57.5 -105.5q0 -50 -32 -92t-98.5 -67.5t-171.5 -25.5zM232 213q-90 0 -148.5 39t-58.5 121q0 83 58.5 121t148.5 38q89 0 148 -38t59 -121q0 -82 -59 -121t-148 -39zM232 231q22 0 35.5 31t13.5 111t-13.5 110.5t-35.5 30.5
q-23 0 -36 -30.5t-13 -110.5t13 -111t36 -31zM391 445l-21 7q16 41 49.5 66.5t73.5 25.5q33 0 49.5 -18t16.5 -47t-15.5 -44.5t-36.5 -15.5q-18 0 -33 12.5t-17 38t18 64.5l6 -6q-37 -13 -56.5 -32t-33.5 -51zM426 826l8 -14q-56 -35 -104.5 -90.5t-78.5 -113.5h-18
q-29 57 -77.5 113t-105.5 91l8 14q59 -12 115 -30.5t89 -37.5q28 19 72.5 37.5t91.5 30.5z" />
    <glyph glyph-name="uni01E8" unicode="&#x1e8;" horiz-adv-x="734" 
d="M714 708v-19q-33 -8 -72 -30.5t-83 -72.5l-185 -216l69 94l237 -383q14 -22 28.5 -36t38.5 -25v-20q-39 2 -84 2.5t-84 0.5q-22 0 -54 -0.5t-81 -2.5v20q44 2 52 11t-7 34l-146 240q-12 21 -21.5 31t-18.5 14.5t-24 5.5v20q44 2 81 27t84 80l47 55q40 46 44.5 79t-17 52
t-60.5 20v19q40 -1 74 -2t84 -1q60 0 98 3zM358 708v-20q-31 -1 -47 -7.5t-21 -24t-5 -54.5v-496q0 -36 5.5 -54t21 -24t46.5 -8v-20q-28 2 -71.5 2.5t-87.5 0.5q-51 0 -96 -0.5t-72 -2.5v20q31 2 46.5 8t21 24t5.5 54v496q0 37 -5.5 54.5t-21 24t-46.5 7.5v20q27 -1 72 -2
t96 -1q44 0 87.5 1t71.5 2zM626 942l5 -15q-65 -29 -121 -73.5t-90 -90.5h-18q-33 45 -89 90t-122 74l5 15q67 -11 132 -28t103 -35q32 18 86 35t109 28z" />
    <glyph glyph-name="uni01E9" unicode="&#x1e9;" horiz-adv-x="597" 
d="M240 782v-689q0 -42 13 -57t45 -15v-21q-19 1 -57 2.5t-78 1.5q-41 0 -82.5 -1.5t-62.5 -2.5v21q33 0 46.5 15t13.5 57v569q0 45 -12.5 66.5t-47.5 21.5v21q32 -3 62 -3q46 0 86 3.5t74 10.5zM570 518v-20q-34 -8 -68 -30.5t-69 -57.5l-56 -57l8 16l166 -296
q10 -17 20.5 -31t25.5 -21v-21q-15 1 -47.5 2.5t-65.5 1.5q-38 0 -76.5 -1.5t-58.5 -2.5v21q20 0 27 9t-2 25l-93 182q-9 17 -19.5 22t-25.5 5v19q17 1 30.5 5t25.5 15l76 73q35 33 35.5 59.5t-22 43.5t-57.5 19v20q28 -1 61.5 -2t57.5 -1q20 0 44.5 0.5t47 1t35.5 1.5z
M491 1066l8 -14q-56 -35 -104.5 -90.5t-78.5 -113.5h-18q-29 57 -77.5 113t-105.5 91l8 14q59 -12 115 -30.5t89 -37.5q28 19 72.5 37.5t91.5 30.5z" />
    <glyph glyph-name="uni01EE" unicode="&#x1ee;" horiz-adv-x="604" 
d="M559 708v-20l-165 -341l-24 50q61 -20 106 -47.5t70 -65t25 -87.5q0 -57 -34.5 -105t-99 -77t-155.5 -29q-58 0 -101.5 11.5t-67.5 25.5q-7 4 -16 9t-17 5q-10 0 -15 -11t-8 -33h-23q2 25 2.5 58.5t1 86.5t0.5 135h23q4 -69 24.5 -128t61.5 -95t104 -36q54 0 88 25.5
t49.5 66.5t15.5 85q0 82 -48 129t-131 62v20l139 283h-82q-45 0 -90 -19t-78 -64.5t-44 -127.5h-23q2 14 2.5 33t0.5 38q0 27 -1.5 71t-5.5 92q49 -2 109 -2.5t108 -0.5q71 0 150 0.5t149 2.5zM516 942l5 -15q-65 -29 -121 -73.5t-90 -90.5h-18q-33 45 -89 90t-122 74l5 15
q67 -11 132 -28t103 -35q32 18 86 35t109 28z" />
    <glyph glyph-name="uni01EF" unicode="&#x1ef;" horiz-adv-x="465" 
d="M118 206q68 -1 106 -31t38 -100q0 -60 -25 -103.5t-64.5 -72t-86.5 -43t-91 -17.5v-20q76 0 152.5 17.5t140 50t102.5 78.5t39 104q0 43 -22.5 74t-62 50.5t-91.5 25.5l30 -27l154 330q-49 -2 -103 -3.5t-112 -1.5q-43 0 -92.5 1t-96.5 3q2 -32 3 -79.5t1 -124.5h21
q6 71 29.5 111.5t58.5 57t73 16.5h38zM418 826l8 -14q-56 -35 -104.5 -90.5t-78.5 -113.5h-18q-29 57 -77.5 113t-105.5 91l8 14q59 -12 115 -30.5t89 -37.5q28 19 72.5 37.5t91.5 30.5z" />
    <glyph glyph-name="uni01F4" unicode="&#x1f4;" horiz-adv-x="745" 
d="M414 722q69 0 113 -19t79 -46q11 -9 20 -9q19 0 25 60h23q-2 -39 -3 -96t-1 -150h-23q-7 66 -23 112.5t-61 79.5q-23 19 -54.5 29.5t-62.5 10.5q-56 0 -94.5 -30.5t-62.5 -80t-34.5 -110t-10.5 -121.5q0 -180 46.5 -263t129.5 -83q20 0 35 4.5t25 11.5q13 9 18 21t5 30
v99q0 47 -8 70.5t-29.5 32t-63.5 9.5v20q22 -1 53 -1.5t65 -1t63 -0.5q45 0 82.5 1t61.5 2v-20q-27 -2 -35 -16t-8 -70v-198h-20q-1 17 -8 37t-23 20q-7 0 -20 -4t-41 -18q-37 -20 -79.5 -34.5t-86.5 -14.5q-181 0 -273.5 95.5t-92.5 265.5q0 113 48 197t132.5 131t193.5 47
zM478 936q22 12 48.5 6t38.5 -32q11 -22 2.5 -44.5t-31.5 -34.5q-23 -13 -50 -18t-65 -13t-96 -28l-7 12q48 40 74 69.5t44.5 50.5t41.5 32z" />
    <glyph glyph-name="uni01F5" unicode="&#x1f5;" horiz-adv-x="562" 
d="M219 -188q-65 0 -114 10.5t-76 31t-27 49.5q0 30 28 54.5t86 38.5l9 -16q-17 -17 -24 -33.5t-7 -32.5q0 -41 37 -63t102 -22q45 0 78 12.5t51 35.5t18 54q0 29 -21.5 49t-86.5 20h-58q-43 0 -74 11t-47.5 31t-16.5 50q0 45 35 76.5t97 58.5l9 -8q-15 -9 -28.5 -21
t-13.5 -32q0 -32 38 -32h103q90 0 147.5 -31.5t57.5 -105.5q0 -50 -32 -92t-98.5 -67.5t-171.5 -25.5zM232 213q-90 0 -148.5 39t-58.5 121q0 83 58.5 121t148.5 38q89 0 148 -38t59 -121q0 -82 -59 -121t-148 -39zM232 231q22 0 35.5 31t13.5 111t-13.5 110.5t-35.5 30.5
q-23 0 -36 -30.5t-13 -110.5t13 -111t36 -31zM391 445l-21 7q16 41 49.5 66.5t73.5 25.5q33 0 49.5 -18t16.5 -47t-15.5 -44.5t-36.5 -15.5q-18 0 -33 12.5t-17 38t18 64.5l6 -6q-37 -13 -56.5 -32t-33.5 -51zM362 819q19 -15 19.5 -40t-16.5 -46q-15 -19 -38.5 -34.5
t-55.5 -37.5t-78 -62l-11 9q29 55 41.5 92t21.5 63t27 46q16 19 42.5 23t47.5 -13z" />
    <glyph glyph-name="Oslashacute" unicode="&#x1fe;" horiz-adv-x="810" 
d="M405 722q110 0 192 -43t127.5 -123.5t45.5 -195.5q0 -112 -46.5 -196t-129.5 -131t-190 -47q-109 0 -191.5 43t-128 124t-45.5 195q0 112 47.5 196t129.5 131t189 47zM401 704q-53 0 -92 -45t-60.5 -124t-21.5 -183q0 -106 24.5 -184.5t65.5 -121t91 -42.5q53 0 92.5 45
t60.5 124.5t21 182.5q0 107 -24 185t-65.5 120.5t-91.5 42.5zM565 638l15 -20l-340 -543l-18 18zM208 93l18 -18l-111 -156l-21 14zM669 781l19 -13l-101 -150l-15 20zM486 936q22 12 48.5 6t38.5 -32q11 -22 2.5 -44.5t-31.5 -34.5q-23 -13 -50 -18t-65 -13t-96 -28l-7 12
q48 40 74 69.5t44.5 50.5t41.5 32z" />
    <glyph glyph-name="oslashacute" unicode="&#x1ff;" horiz-adv-x="570" 
d="M285 532q75 0 131.5 -26.5t88 -86.5t31.5 -160t-31.5 -160t-88 -86.5t-131.5 -26.5q-74 0 -130.5 26.5t-88.5 86.5t-32 160t32 160t88.5 86.5t130.5 26.5zM285 512q-35 0 -58.5 -59.5t-23.5 -193.5t23.5 -193.5t58.5 -59.5q36 0 59 59.5t23 193.5t-23 193.5t-59 59.5z
M390 466l15 -20l-218 -383l-16 21zM147 75l15 -20l-89 -128l-19 13zM497 591l19 -13l-91 -132l-15 20zM396 819q19 -15 19.5 -40t-16.5 -46q-15 -19 -38.5 -34.5t-55.5 -37.5t-78 -62l-11 9q29 55 41.5 92t21.5 63t27 46q16 19 42.5 23t47.5 -13z" />
    <glyph glyph-name="uni0218" unicode="&#x218;" horiz-adv-x="598" 
d="M293 721q62 0 96 -12.5t58 -26.5q12 -7 19.5 -10.5t14.5 -3.5q16 0 22 44h23q-1 -20 -2.5 -47t-2 -71.5t-0.5 -117.5h-23q-4 54 -25 104t-57.5 83t-89.5 33q-46 0 -76 -25.5t-30 -72.5q0 -38 19 -65.5t57.5 -55.5t97.5 -69q47 -31 84 -62t59.5 -70t22.5 -94
q0 -66 -36 -109.5t-95 -65t-129 -21.5q-65 0 -103.5 12t-65.5 25q-22 14 -34 14q-16 0 -22 -44h-23q2 25 2.5 58.5t1 86.5t0.5 135h23q4 -68 22.5 -127t57 -95.5t102.5 -36.5q54 0 88 27t34 78q0 62 -41.5 103t-106.5 84q-47 31 -88 63t-65.5 71.5t-24.5 95.5q0 64 33 105
t87.5 60.5t115.5 19.5zM304 -50q38 0 62.5 -20.5t24.5 -58.5q0 -48 -30.5 -78.5t-93.5 -35.5l-3 21q39 5 60 17.5t26 34.5q-7 -7 -19 -11t-32 -4q-36 0 -56.5 17t-20.5 49q0 33 21.5 51t60.5 18z" />
    <glyph glyph-name="uni0219" unicode="&#x219;" horiz-adv-x="467" 
d="M226 532q44 0 76 -10t47 -19q35 -22 42 28h21q-2 -29 -3 -69.5t-1 -108.5h-21q-4 37 -17.5 73t-39.5 59.5t-68 23.5q-27 0 -45.5 -16t-18.5 -44q0 -30 18 -53t46.5 -44t57.5 -45q48 -37 81 -74t33 -96q0 -45 -27 -79t-71 -53t-98 -19q-33 0 -57.5 6.5t-40.5 16.5
q-15 7 -26.5 12t-22.5 7q-10 1 -17 -9t-11 -26h-21q2 32 3 78t1 122h21q6 -54 22.5 -95t44.5 -64.5t66 -23.5q25 0 45 15t20 48q0 44 -28 73.5t-69 64.5q-32 27 -59.5 53t-45 57t-17.5 70q0 45 25.5 76.5t66.5 48t88 16.5zM232 -50q38 0 62.5 -20.5t24.5 -58.5
q0 -48 -30.5 -78.5t-93.5 -35.5l-3 21q39 5 60 17.5t26 34.5q-7 -7 -19 -11t-32 -4q-36 0 -56.5 17t-20.5 49q0 33 21.5 51t60.5 18z" />
    <glyph glyph-name="uni021A" unicode="&#x21a;" horiz-adv-x="683" 
d="M659 708q-4 -55 -5.5 -106t-1.5 -78q0 -22 1 -41t2 -33h-23q-20 89 -48 140.5t-63.5 73t-76.5 21.5h-12v-571q0 -41 8.5 -61t32 -26.5t68.5 -6.5v-20q-33 1 -88.5 2t-115.5 1q-59 0 -111 -1t-84 -2v20q45 0 69 6.5t32 26.5t8 61v571h-11q-42 0 -77 -21.5t-63 -72.5
t-49 -141h-23q2 14 2.5 33t0.5 41q0 27 -1.5 78t-5.5 106q47 -1 103.5 -2t112.5 -1h102h102.5t112.5 1t102 2zM336 -50q38 0 62.5 -20.5t24.5 -58.5q0 -48 -30.5 -78.5t-93.5 -35.5l-3 21q39 5 60 17.5t26 34.5q-7 -7 -19 -11t-32 -4q-36 0 -56.5 17t-20.5 49q0 33 21.5 51
t60.5 18z" />
    <glyph glyph-name="uni021B" unicode="&#x21b;" horiz-adv-x="351" 
d="M240 681v-163h108v-20h-108v-409q0 -25 9 -35.5t27 -10.5q15 0 31.5 10t30.5 34l16 -10q-19 -41 -52.5 -66t-87.5 -25q-33 0 -58.5 8.5t-42.5 25.5q-22 22 -28.5 54.5t-6.5 84.5v339h-80v20h80v125q47 0 86.5 9t75.5 29zM217 -50q38 0 62.5 -20.5t24.5 -58.5
q0 -48 -30.5 -78.5t-93.5 -35.5l-3 21q39 5 60 17.5t26 34.5q-7 -7 -19 -11t-32 -4q-36 0 -56.5 17t-20.5 49q0 33 21.5 51t60.5 18z" />
    <glyph glyph-name="uni021E" unicode="&#x21e;" horiz-adv-x="815" 
d="M457 0v20q31 2 46.5 8t21 24t5.5 54v496q0 37 -5.5 54.5t-21 24t-46.5 7.5v20q29 -1 75 -2t92 -1q49 0 91.5 1t68.5 2v-20q-31 -1 -47 -7.5t-21 -24t-5 -54.5v-496q0 -36 5.5 -54t21 -24t46.5 -8v-20q-26 2 -68.5 2.5t-91.5 0.5q-46 0 -92 -0.5t-75 -2.5zM31 0v20
q31 2 46.5 8t21 24t5.5 54v496q0 37 -5.5 54.5t-21 24t-46.5 7.5v20q27 -1 72 -2t96 -1q44 0 87.5 1t71.5 2v-20q-31 -1 -47 -7.5t-21 -24t-5 -54.5v-496q0 -36 5.5 -54t21 -24t46.5 -8v-20q-28 2 -71.5 2.5t-87.5 0.5q-51 0 -96 -0.5t-72 -2.5zM210 346v20h395v-20h-395z
M622 942l5 -15q-65 -29 -121 -73.5t-90 -90.5h-18q-33 45 -89 90t-122 74l5 15q67 -11 132 -28t103 -35q32 18 86 35t109 28z" />
    <glyph glyph-name="uni021F" unicode="&#x21f;" horiz-adv-x="615" 
d="M240 782v-334q25 46 66.5 65t95.5 19q44 0 70.5 -11t40.5 -28q16 -19 23 -49t7 -81v-270q0 -42 13.5 -57t46.5 -15v-21q-19 1 -58.5 2.5t-77.5 1.5q-40 0 -78 -1.5t-58 -2.5v21q28 0 39 15t11 57v318q0 23 -5 39.5t-16.5 25t-33.5 8.5q-35 0 -60.5 -26t-25.5 -68v-297
q0 -42 11.5 -57t38.5 -15v-21q-18 1 -54 2.5t-74 1.5q-40 0 -81.5 -1.5t-62.5 -2.5v21q33 0 46.5 15t13.5 57v569q0 45 -12.5 66.5t-47.5 21.5v21q32 -3 62 -3q46 0 86 3.5t74 10.5zM475 1069l8 -14q-56 -35 -104.5 -90.5t-78.5 -113.5h-18q-29 57 -77.5 113t-105.5 91l8 14
q59 -12 115 -30.5t89 -37.5q28 19 72.5 37.5t91.5 30.5z" />
    <glyph glyph-name="uni0237" unicode="&#x237;" horiz-adv-x="307" 
d="M-22 -188v19q44 1 72.5 33.5t28.5 105.5v439q0 45 -13 66.5t-47 21.5v21q32 -3 62 -3q46 0 86 3.5t74 10.5v-442q0 -85 -16 -136t-55 -87q-25 -23 -71 -37.5t-121 -14.5z" />
    <glyph glyph-name="uni0259" unicode="&#x259;" horiz-adv-x="504" 
d="M219 -14q-88 0 -138 52t-50 171h321l1 -19h-186q-2 -49 4 -90.5t19.5 -66.5t35.5 -25q30 0 51 43t26 146l-4 7q2 11 2 22.5v24.5q0 69 -18.5 110t-46.5 58t-58 17q-25 0 -59.5 -12.5t-66.5 -60.5l-17 6q11 39 37.5 76.5t67.5 62t99 24.5q66 0 118 -27.5t82.5 -87
t30.5 -155.5q0 -95 -33 -156t-90 -90.5t-128 -29.5z" />
    <glyph glyph-name="uni0292" unicode="&#x292;" horiz-adv-x="465" 
d="M118 206q68 -1 106 -31t38 -100q0 -60 -25 -103.5t-64.5 -72t-86.5 -43t-91 -17.5v-20q76 0 152.5 17.5t140 50t102.5 78.5t39 104q0 43 -22.5 74t-62 50.5t-91.5 25.5l30 -27l154 330q-49 -2 -103 -3.5t-112 -1.5q-43 0 -92.5 1t-96.5 3q2 -32 3 -79.5t1 -124.5h21
q6 71 29.5 111.5t58.5 57t73 16.5h38z" />
    <glyph glyph-name="uni02BC" unicode="&#x2bc;" horiz-adv-x="255" 
d="M119 722q25 0 44.5 -9.5t30.5 -26.5q11 -14 17.5 -38t6.5 -51q0 -50 -26 -93.5t-80 -68.5l-9 18q27 12 48.5 35.5t26.5 49.5q8 25 2 48q-24 -27 -66 -27q-37 0 -60 21.5t-23 60.5q0 36 24.5 58.5t63.5 22.5z" />
    <glyph glyph-name="circumflex" unicode="&#x2c6;" horiz-adv-x="484" 
d="M251 826q29 -57 77.5 -112.5t105.5 -91.5l-8 -14q-59 13 -114.5 31.5t-89.5 36.5q-27 -18 -72 -36.5t-92 -31.5l-8 14q56 35 104.5 90.5t78.5 113.5h18z" />
    <glyph glyph-name="caron" unicode="&#x2c7;" horiz-adv-x="484" 
d="M426 826l8 -14q-56 -35 -104.5 -90.5t-78.5 -113.5h-18q-29 57 -77.5 113t-105.5 91l8 14q59 -12 115 -30.5t89 -37.5q28 19 72.5 37.5t91.5 30.5z" />
    <glyph glyph-name="breve" unicode="&#x2d8;" horiz-adv-x="572" 
d="M395 788l17 -9q-12 -37 -35.5 -74.5t-62.5 -62.5t-97 -25t-97 25t-62.5 62.5t-35.5 74.5l17 9q22 -22 65 -43t113 -21q71 0 113.5 21t64.5 43z" />
    <glyph glyph-name="dotaccent" unicode="&#x2d9;" horiz-adv-x="526" 
d="M102 779q47 0 73.5 -21t26.5 -61t-26.5 -61t-73.5 -21t-73.5 21t-26.5 61t26.5 61t73.5 21z" />
    <glyph glyph-name="ring" unicode="&#x2da;" horiz-adv-x="539" 
d="M134 799q45 0 79 -26.5t34 -72.5t-34 -73t-79 -27q-44 0 -78 27t-34 73t34 72.5t78 26.5zM134 778q-30 0 -57 -20.5t-27 -58.5q0 -39 27 -58.5t57 -19.5q31 0 58 19.5t27 58.5q0 38 -27 58.5t-58 20.5z" />
    <glyph glyph-name="ogonek" unicode="&#x2db;" horiz-adv-x="538" 
d="M213 11q-4 -4 -8.5 -7t-13.5 -8q-41 -19 -56.5 -42.5t-15.5 -44.5q0 -20 10.5 -29.5t29.5 -9.5q18 0 36.5 7t28.5 18l14 -15q-28 -36 -62 -52t-83 -16q-47 0 -71 18.5t-24 51.5q0 43 44.5 73.5t125.5 47.5z" />
    <glyph glyph-name="tilde" unicode="&#x2dc;" horiz-adv-x="572" 
d="M141 792q32 0 54 -10t40 -23t37 -23t44 -10q21 0 40.5 12.5t36.5 40.5l14 -7q-17 -81 -51 -116t-75 -35q-32 0 -54.5 10t-40.5 23.5t-37 23.5t-44 10q-21 0 -40.5 -12.5t-36.5 -41.5l-14 7q17 81 51.5 116t75.5 35z" />
    <glyph glyph-name="hungarumlaut" unicode="&#x2dd;" horiz-adv-x="600" 
d="M362 816q20 -15 23.5 -38t-11.5 -46q-19 -27 -55 -53t-91 -81l-13 7q18 50 26 86.5t14 62t18 43.5q14 23 40 29t49 -10zM184 816q21 -15 24.5 -38t-12.5 -46q-18 -27 -54 -53t-92 -81l-12 7q18 50 25.5 86.5t14 62t18.5 43.5q14 23 40 29t48 -10z" />
    <glyph glyph-name="gravecomb" unicode="&#x300;" 
d="M23 819q21 18 47.5 13.5t42.5 -23.5q18 -20 27 -46t21.5 -63t41.5 -92l-11 -9q-45 40 -77.5 62t-55.5 37.5t-39 34.5q-17 21 -16.5 45.5t19.5 40.5z" />
    <glyph glyph-name="acutecomb" unicode="&#x301;" 
d="M200 819q19 -15 19.5 -40t-16.5 -46q-15 -19 -38.5 -34.5t-55.5 -37.5t-78 -62l-11 9q29 55 41.5 92t21.5 63t27 46q16 19 42.5 23t47.5 -13z" />
    <glyph glyph-name="uni0302" unicode="&#x302;" 
d="M210 826q29 -57 77.5 -112.5t105.5 -91.5l-8 -14q-59 13 -114.5 31.5t-89.5 36.5q-27 -18 -72 -36.5t-92 -31.5l-8 14q56 35 104.5 90.5t78.5 113.5h18z" />
    <glyph glyph-name="tildecomb" unicode="&#x303;" 
d="M136 792q32 0 54 -10t40 -23t37 -23t44 -10q21 0 40.5 12.5t36.5 40.5l14 -7q-17 -81 -51 -116t-75 -35q-32 0 -54.5 10t-40.5 23.5t-37 23.5t-44 10q-21 0 -40.5 -12.5t-36.5 -41.5l-14 7q17 81 51.5 116t75.5 35z" />
    <glyph glyph-name="uni0304" unicode="&#x304;" 
d="M353 712v-25h-344v25h344z" />
    <glyph glyph-name="uni0306" unicode="&#x306;" 
d="M392 788l17 -9q-12 -37 -35.5 -74.5t-62.5 -62.5t-97 -25t-97 25t-62.5 62.5t-35.5 74.5l17 9q22 -22 65 -43t113 -21q71 0 113.5 21t64.5 43z" />
    <glyph glyph-name="uni0307" unicode="&#x307;" 
d="M99 779q47 0 73.5 -21t26.5 -61t-26.5 -61t-73.5 -21t-73.5 21t-26.5 61t26.5 61t73.5 21z" />
    <glyph glyph-name="uni0308" unicode="&#x308;" 
d="M312 766q32 0 56.5 -24.5t24.5 -56.5q0 -34 -24.5 -57.5t-57.5 -23.5t-57 24t-24 57t24 57t58 24zM79 766q32 0 56.5 -24.5t24.5 -56.5q0 -34 -24.5 -57.5t-56.5 -23.5q-34 0 -58 24t-24 57t24 57t58 24z" />
    <glyph glyph-name="hookabovecomb" unicode="&#x309;" 
d="M140 598v55q41 19 58.5 40.5t17.5 51.5q0 35 -20 52t-51 17q-14 0 -27.5 -3t-19.5 -7q24 -7 37.5 -21t13.5 -36q0 -25 -17 -39.5t-41 -14.5q-26 0 -41 15.5t-15 38.5q0 24 12.5 40t28.5 25q18 11 43 16.5t55 5.5q64 0 103.5 -23t39.5 -61q0 -43 -45.5 -68.5t-111.5 -37.5
v-46h-20z" />
    <glyph glyph-name="uni030A" unicode="&#x30a;" 
d="M131 799q45 0 79 -26.5t34 -72.5t-34 -73t-79 -27q-44 0 -78 27t-34 73t34 72.5t78 26.5zM131 778q-30 0 -57 -20.5t-27 -58.5q0 -39 27 -58.5t57 -19.5q31 0 58 19.5t27 58.5q0 38 -27 58.5t-58 20.5z" />
    <glyph glyph-name="uni030B" unicode="&#x30b;" 
d="M362 816q20 -15 23.5 -38t-11.5 -46q-19 -27 -55 -53t-91 -81l-13 7q18 50 26 86.5t14 62t18 43.5q14 23 40 29t49 -10zM184 816q21 -15 24.5 -38t-12.5 -46q-18 -27 -54 -53t-92 -81l-12 7q18 50 25.5 86.5t14 62t18.5 43.5q14 23 40 29t48 -10z" />
    <glyph glyph-name="uni030C" unicode="&#x30c;" 
d="M385 826l8 -14q-56 -35 -104.5 -90.5t-78.5 -113.5h-18q-29 57 -77.5 113t-105.5 91l8 14q59 -12 115 -30.5t89 -37.5q28 19 72.5 37.5t91.5 30.5z" />
    <glyph glyph-name="dotbelowcomb" unicode="&#x323;" 
d="M98 -189q-37 0 -58 17.5t-21 51.5q0 32 21 51t61 19q38 0 58.5 -17.5t20.5 -51.5q0 -33 -21.5 -51.5t-60.5 -18.5z" />
    <glyph glyph-name="uni0326" unicode="&#x326;" 
d="M103 -50q38 0 62.5 -20.5t24.5 -58.5q0 -48 -30.5 -78.5t-93.5 -35.5l-3 21q39 5 60 17.5t26 34.5q-7 -7 -19 -11t-32 -4q-36 0 -56.5 17t-20.5 49q0 33 21.5 51t60.5 18z" />
    <glyph glyph-name="uni0327" unicode="&#x327;" 
d="M102 1l-18 -63q17 7 35.5 10t39.5 3q36 0 53.5 -15.5t17.5 -40.5q0 -29 -20 -47.5t-53.5 -27t-75.5 -8.5q-27 0 -49.5 3.5t-39.5 9.5l6 18q7 -1 19.5 -3t26.5 -2q23 0 45.5 9t22.5 30q0 26 -31 26q-8 0 -18.5 -1.5t-17.5 -5.5l30 105h27z" />
    </font>
</defs>
</svg>
