<?xml version="1.0" standalone="no"?>
<!DOCTYPE svg PUBLIC "-//W3C//DTD SVG 1.1//EN" "http://www.w3.org/Graphics/SVG/1.1/DTD/svg11.dtd" >
<svg xmlns="http://www.w3.org/2000/svg" xmlns:xlink="http://www.w3.org/1999/xlink" version="1.1">
<metadata>
Created by FontForge 20170731 at Tue Mar 19 18:39:57 2019
 By Aleksey,,,
Copyright 2017 The Playfair Display Project Authors (https://github.com/clauseggers/Playfair-Display), with Reserved Font Name "Playfair Display".
</metadata>
<defs>
<font id="PlayfairDisplay-BoldItalic" horiz-adv-x="0" >
  <font-face 
    font-family="Playfair Display"
    font-weight="700"
    font-style="italic"
    font-stretch="normal"
    units-per-em="1000"
    panose-1="0 0 0 0 0 0 0 0 0 0"
    ascent="800"
    descent="-200"
    x-height="525"
    cap-height="708"
    bbox="-370 -243 1196 1181"
    underline-thickness="20"
    underline-position="-130"
    slope="-14"
    unicode-range="U+000D-FB02"
  />
<missing-glyph horiz-adv-x="562" 
d="M60 772h442v-772h-442v772zM96 30h370v712h-370v-712z" />
    <glyph glyph-name="IJ" unicode="IJ" horiz-adv-x="846" 
d="M828 366l-2 -10l-2 -10h-387l2 10l2 10h387zM315 484q50 0 84.5 9.5t66.5 27.5l8 -17q-34 -19 -73 -30t-92 -11q-54 0 -102 14t-77.5 45.5t-29.5 81.5q0 59 45 97t128 38q65 0 112.5 -15t89.5 -35.5t88 -35.5t107 -15q47 0 98.5 10t99.5 29q21 32 41 49t35 4
q12 -10 -1 -27t-66 -37q-65 -57 -100.5 -143.5t-64.5 -202.5l-61 -255q-16 -68 -51.5 -125.5t-94.5 -92.5t-147 -35q-59 0 -99.5 17t-41.5 58q0 32 21.5 54t62.5 22q32 0 55 -15.5t23 -44.5q1 -24 -14 -42t-40 -29q7 -2 14 -2.5t14 -0.5q30 0 50.5 17t35 49t26.5 76.5
t26 98.5l54 205q20 76 49 131t67 97t85 78t102 74q-44 -12 -78 -27.5t-65.5 -29.5t-65 -22.5t-74.5 -8.5q-45 0 -83.5 7.5t-74.5 17.5t-74 17.5t-81 7.5q-37 0 -58.5 -13.5t-21.5 -42.5q0 -25 18.5 -42.5t51 -26t73.5 -8.5zM235 481h159l-113 -375q-16 -52 -5 -68t64 -18
l-4 -20q-29 2 -73.5 2.5t-89.5 0.5q-48 0 -89.5 -0.5t-67.5 -2.5l5 20q33 2 50.5 8t28.5 24t22 54z" />
    <glyph glyph-name="ij" unicode="ij" horiz-adv-x="637" 
d="M273 92q22 49 31.5 108t18.5 119t30 111q24 58 67 79.5t89 21.5q48 0 68.5 -20.5t22.5 -53t-8 -66.5l-76 -276q-19 -70 -41 -120.5t-48.5 -84t-61.5 -54.5q-37 -28 -75.5 -36t-66.5 -8q-49 0 -72 15.5t-23 43.5q0 30 22.5 51.5t53.5 21.5q28 0 43.5 -16t15.5 -37
q0 -16 -10 -34t-28 -30q38 5 60.5 28.5t38.5 79.5l140 497q7 25 0.5 37.5t-22.5 12.5q-23 0 -42.5 -18t-35.5 -60q-16 -45 -24 -102t-18.5 -116t-34.5 -112q-25 -54 -64 -71t-82 -17q-74 0 -99.5 41.5t-0.5 117.5l98 287q10 27 6.5 38.5t-17.5 11.5q-18 0 -33 -18t-31 -61
l-20 -51h-19l28 76q21 59 58 81t81 22q47 0 67 -21t21 -53t-11 -66l-105 -306q-8 -25 -0.5 -40.5t30.5 -15.5q22 0 43 14.5t36 48.5zM183 679q0 43 29.5 68.5t73.5 25.5q35 0 54 -16t19 -45q0 -39 -29.5 -66t-73.5 -27q-35 0 -54 16t-19 44zM509 679q0 43 29.5 68.5
t73.5 25.5q36 0 55 -16t19 -45q0 -39 -30 -66t-74 -27q-35 0 -54 16t-19 44z" />
    <glyph glyph-name="fi" unicode="fi" horiz-adv-x="603" 
d="M55 496l6 20h429l-8 -20h-427zM603 741q-18 12 -37 18.5t-51 6.5q-38 0 -68 -8.5t-52 -22.5q-36 -23 -57 -65.5t-39 -108.5l-201 -735q-42 -1 -77 -4t-68 -10l190 690q22 80 54 134.5t81 85.5q51 34 109.5 47t127.5 13q30 0 60.5 -7t46.5 -27zM460 684q2 43 32 64.5
t71 21.5q37 0 56 -18.5t17 -44.5q-2 -39 -32 -63.5t-71 -24.5q-36 0 -55.5 17.5t-17.5 47.5zM446 85q-8 -27 -4 -38.5t17 -11.5q14 0 29.5 15t33.5 64l19 48h19l-26 -73q-14 -40 -37.5 -62.5t-50 -31.5t-50.5 -9q-43 0 -64 20.5t-22 56.5t13 82l109 371q41 1 77.5 4.5
t67.5 10.5z" />
    <glyph glyph-name="fl" unicode="fl" horiz-adv-x="612" 
d="M454 85q-8 -26 -2.5 -38t18.5 -12q11 0 27 14.5t34 64.5l18 48h19l-25 -73q-15 -41 -37 -63t-47 -31t-50 -9q-42 0 -64.5 20.5t-25 56t11.5 82.5l157 522q10 34 -1.5 51t-60.5 17l6 19q71 1 126 11.5t106 29.5zM55 496l6 20h319l-6 -20h-319zM428 735q-19 0 -34.5 -5
t-27.5 -13q-20 -14 -33.5 -43.5t-25.5 -75.5l-209 -772q-42 -1 -76.5 -4t-67.5 -10l187 690q19 71 44 119t64 78q35 28 81.5 41.5t99.5 13.5h44l-1 -19h-45z" />
    <glyph glyph-name="f_f" unicode="ff" horiz-adv-x="661" 
d="M52 497l6 20h337l-6 -20h-337zM109 -174q-42 -1 -76.5 -4t-67.5 -10l180 670q20 74 51 126t65 79q38 28 82.5 41.5t93.5 13.5q48 0 80.5 -16t48.5 -34l-11 -16q-13 17 -35 28.5t-55 11.5q-41 0 -71.5 -20t-53 -60t-39.5 -101zM375 497l6 20h331l-6 -20h-331zM739 764
q-16 0 -28.5 -5.5t-23.5 -14.5q-20 -17 -33.5 -56.5t-28.5 -93.5l-206 -768q-42 -1 -76.5 -4t-67.5 -10l187 696q22 85 50 140.5t68 87.5q28 23 64 34.5t76 11.5q63 0 98 -26t35 -70q0 -31 -25.5 -59t-66.5 -28q-30 0 -47 14t-17 40q0 33 20.5 59t55.5 39q-4 5 -13 9t-21 4z
" />
    <glyph glyph-name="f_f_i" unicode="ffi" horiz-adv-x="914" 
d="M52 496l6 20h337l-6 -20h-337zM108 -174q-42 -1 -77 -4t-68 -10l182 670q20 74 51 126t66 79q36 28 79 41.5t90 13.5q57 0 92 -18t54 -40l-10 -15q-15 20 -40.5 33.5t-62.5 13.5q-22 0 -42 -6t-36 -17q-28 -19 -48 -56.5t-37 -101.5zM366 496l6 20h428l-7 -20h-427z
M913 741q-17 12 -36 18.5t-51 6.5q-39 0 -68.5 -8.5t-51.5 -22.5q-36 -23 -57.5 -65.5t-39.5 -108.5l-201 -735q-42 -1 -76.5 -4t-67.5 -10l189 690q22 80 54 134.5t82 85.5q51 34 109.5 47t127.5 13q30 0 60 -7t46 -27zM771 684q2 43 31.5 64.5t70.5 21.5q37 0 56.5 -18.5
t17.5 -44.5q-2 -39 -32 -63.5t-72 -24.5q-35 0 -54.5 17.5t-17.5 47.5zM756 85q-7 -27 -3.5 -38.5t17.5 -11.5q13 0 29 15t34 64l18 48h19l-25 -73q-14 -40 -37.5 -62.5t-50.5 -31.5t-50 -9q-43 0 -64 20.5t-22 56.5t13 82l109 371q41 1 77.5 4.5t67.5 10.5z" />
    <glyph glyph-name="f_f_l" unicode="ffl" horiz-adv-x="925" 
d="M52 496l6 20h337l-6 -20h-337zM108 -174q-42 -1 -77 -4t-68 -10l182 670q20 74 51 126t66 79q36 28 79 41.5t90 13.5q57 0 92 -18t54 -40l-10 -15q-15 20 -40.5 33.5t-62.5 13.5q-23 0 -44 -6t-38 -20q-27 -20 -45.5 -57t-35.5 -98zM766 85q-7 -26 -1.5 -38t18.5 -12
q11 0 27 14.5t33 64.5l18 48h19l-25 -73q-14 -41 -36 -63t-47 -31t-50 -9q-42 0 -64.5 20.5t-25 56t11.5 82.5l157 522q10 34 -2 51t-61 17l7 19q71 1 126 11.5t106 29.5zM368 496l6 20h318l-6 -20h-318zM740 735q-18 0 -34 -5t-27 -13q-21 -14 -34 -43.5t-25 -75.5
l-209 -772q-42 -1 -77 -4t-68 -10l188 690q18 71 43.5 119t63.5 78q35 28 81.5 41.5t100.5 13.5h44l-1 -19h-46z" />
    <glyph glyph-name="T_h.liga" unicode="Th" horiz-adv-x="1178" 
d="M755 145q37 113 71 188t68 118.5t71.5 61.5t80.5 18q42 0 62.5 -20t22.5 -53.5t-13 -77.5l-98 -295q-8 -23 -5 -36.5t19 -13.5q13 0 28.5 14.5t33.5 64.5l18 48h19l-25 -73q-22 -63 -60 -83t-74 -20q-64 0 -83 41t7 118l89 270q6 18 9 33t-1.5 24t-18.5 9
q-32 0 -73.5 -55.5t-85 -161t-83.5 -254.5zM799 767q42 3 78.5 10t70.5 18l-217 -795h-14.5h-35h-41.5h-35.5h-14.5zM399 689l16 -1.5t39 -4t45.5 -5t38.5 -3.5l16 -1l-148 -558q-14 -54 0.5 -73.5t74.5 -22.5l-4 -20q-31 2 -81 2.5t-104 0.5q-52 0 -99.5 -0.5t-76.5 -2.5
l4 20q42 2 66 10.5t37.5 29t23.5 56.5zM815 686q-36 -19 -76.5 -25.5t-90.5 -6.5q-53 0 -116 8.5l-126 17t-117 8.5q-34 0 -64.5 -3.5t-48.5 -13.5q26 -7 43.5 -29t17.5 -52q0 -34 -21.5 -59t-56.5 -25t-53.5 23.5t-18.5 55.5q0 24 13.5 51.5t51.5 45.5q24 12 49.5 17
t48.5 6t36 1q67 0 130 -8t123.5 -16t117.5 -8q53 0 86 7t67 24z" />
    <glyph glyph-name="f_b.liga" unicode="fb" horiz-adv-x="866" 
d="M55 496l6 20h319l-6 -20h-319zM438 735q-43 0 -73.5 -23t-50.5 -88l-216 -798q-42 -1 -76.5 -4t-67.5 -10l190 700q23 81 60 134.5t95 80.5t143 27zM658 478q-20 0 -43.5 -25.5t-47 -69.5t-44.5 -100t-35 -117l18 102q50 141 98.5 202t109.5 61q60 0 91.5 -39.5
t31.5 -114.5q0 -46 -13 -99.5t-39 -105t-64 -93.5t-86.5 -67.5t-108.5 -25.5q-28 0 -51 12t-34 32l7 16q11 -17 23 -24t28 -7q30 0 58 25.5t52.5 68t43 94.5t28.5 105.5t10 100.5q0 39 -8.5 54t-24.5 15zM452 29q-33 -1 -70 -14.5t-71 -30.5l-15 7q7 14 12 28.5t9 30.5
l170 617q8 34 -2 51t-50 17l6 19q67 1 120 11.5t101 29.5z" />
    <glyph glyph-name="f_f_b.liga" unicode="ffb" horiz-adv-x="1180" 
d="M52 496l6 20h337l-6 -20h-337zM108 -174q-42 -1 -77 -4t-68 -10l182 670q20 74 51 126t66 79q35 28 78.5 41.5t90.5 13.5q54 0 91 -17t57 -38l-10 -15q-16 19 -42 31.5t-63 12.5q-42 0 -72 -19t-52 -59t-39 -103zM369 496l6 20h319l-6 -20h-319zM751 735q-43 0 -73.5 -23
t-49.5 -88l-216 -798q-42 -1 -76.5 -4t-68.5 -10l191 700q23 81 60 134.5t95 80.5t143 27zM972 478q-20 0 -43.5 -25.5t-47 -69.5t-44.5 -100t-35 -117l18 102q50 141 98.5 202t108.5 61q61 0 92.5 -39.5t31.5 -114.5q0 -46 -13.5 -99.5t-39.5 -105t-63.5 -93.5t-86 -67.5
t-108.5 -25.5q-29 0 -51.5 12t-33.5 32l7 16q10 -17 22.5 -24t28.5 -7q30 0 58 25.5t52.5 68t43 94.5t28.5 105.5t10 100.5q0 39 -9 54t-24 15zM765 29q-33 -1 -69.5 -14.5t-70.5 -30.5l-15 7q7 14 12 28.5t9 30.5l170 617q8 34 -2.5 51t-50.5 17l7 19q67 1 120 11.5
t101 29.5z" />
    <glyph glyph-name="f_f_h.liga" unicode="ffh" horiz-adv-x="1198" 
d="M52 496l6 20h337l-6 -20h-337zM108 -174q-42 -1 -77 -4t-68 -10l182 670q20 74 51 126t66 79q36 29 79 42t90 13q57 0 92 -18t54 -40l-10 -15q-15 20 -40.5 33.5t-62.5 13.5q-42 0 -72 -19t-51.5 -59t-39.5 -103zM367 496l6 20h318l-6 -20h-318zM775 145q38 113 72 188
t67.5 118.5t71 61.5t80.5 18t63 -20.5t22 -54.5t-12 -76l-98 -295q-9 -25 -5 -37.5t18 -12.5q13 0 29 14.5t34 64.5l18 48h19l-25 -73q-22 -63 -60 -83t-75 -20q-64 0 -82.5 41t6.5 118l90 270q5 17 8 32t-1 24.5t-18 9.5q-25 0 -56.5 -39t-65 -105.5t-65 -150.5t-56.5 -176
zM752 0h-141l188 667q8 34 -2 51t-50 17l6 19q68 1 121 11.5t101 29.5zM749 735q-43 0 -74 -22.5t-49 -88.5l-216 -798q-42 -1 -77 -4t-68 -10l190 700q33 121 102 181.5t196 60.5z" />
    <glyph glyph-name="f_f_j.liga" unicode="ffj" horiz-adv-x="905" 
d="M52 496l6 20h337l-6 -20h-337zM108 -174q-42 -1 -77 -4t-68 -10l182 670q20 74 51.5 126t65.5 79q35 29 78.5 42t90.5 13q57 0 92 -18t54 -40l-10 -15q-15 20 -40.5 33.5t-62.5 13.5q-42 0 -72 -19t-51.5 -59t-39.5 -103zM788 115q-19 -70 -40.5 -120.5t-48 -84
t-61.5 -54.5q-37 -28 -76 -36t-67 -8q-48 0 -71.5 15.5t-23.5 43.5q0 30 22.5 51.5t54.5 21.5q27 0 43 -16t16 -37q0 -16 -10 -34t-29 -30q38 5 60.5 28.5t38.5 79.5l163 581q42 1 78 4.5t67 10.5zM366 496l6 20h429l-8 -20h-427zM912 745q-14 9 -33 14.5t-47 5.5
q-65 0 -108 -23.5t-69.5 -69t-44.5 -111.5l-152 -561h-141l137 502q22 80 55.5 134t81.5 86q51 34 111.5 47t129.5 13q33 0 59.5 -7t39.5 -21zM778 684q2 43 31.5 64.5t70.5 21.5q37 0 56 -18.5t17 -44.5q-2 -39 -31.5 -63.5t-71.5 -24.5q-36 0 -55.5 17.5t-16.5 47.5z" />
    <glyph glyph-name="f_f_k.liga" unicode="ffk" horiz-adv-x="1181" 
d="M52 496l6 20h337l-6 -20h-337zM108 -174q-42 -1 -77 -4t-68 -10l182 670q20 74 51 126t66 79q36 29 79 42t90 13q57 0 92 -18t54 -40l-10 -15q-15 20 -40.5 33.5t-62.5 13.5q-42 0 -72 -19t-51.5 -59t-39.5 -103zM367 496l6 20h318l-6 -20h-318zM749 735q-43 0 -74 -22.5
t-49 -88.5l-216 -798q-42 -1 -77 -4t-68 -10l190 700q33 121 102 181.5t196 60.5zM752 0h-14.5h-35h-42h-35.5h-14l188 667q10 34 0 51t-50 17l4 19q48 1 85 5.5t70 13.5t67 22zM1022 77q-4 -24 0 -33t15 -9q14 0 29.5 15.5t32.5 63.5l17 48h19l-24 -73q-15 -41 -38 -63.5
t-50.5 -31t-55.5 -8.5q-49 0 -70.5 29.5t-9.5 85.5l18 77q13 54 -6 78t-82 30v4q44 3 87.5 -0.5t77 -17.5t50 -43.5t5.5 -77.5zM1069 511q-13 0 -23 -4t-20 -11q-17 -14 -28.5 -40t-22.5 -55.5t-27.5 -55.5t-44.5 -42.5t-74 -15.5l-10 -1l2 11q45 3 71 20.5t41.5 42.5
t25.5 53t21.5 53.5t30.5 41.5q17 13 33.5 18t29.5 5q49 0 71 -27.5t21 -64.5q0 -37 -23 -61.5t-60 -24.5q-33 0 -49 17.5t-16 40.5q1 31 21 55t46 37q-3 4 -7.5 6t-8.5 2z" />
    <glyph glyph-name="f_h.liga" unicode="fh" horiz-adv-x="887" 
d="M55 496l6 20h319l-6 -20h-319zM464 145q37 113 71 188t68 118.5t71.5 61.5t80.5 18t63 -20.5t21.5 -54.5t-12.5 -76l-98 -295q-8 -25 -4 -37.5t18 -12.5q13 0 28.5 14.5t33.5 64.5l18 48h19l-25 -73q-22 -63 -60 -83t-74 -20q-65 0 -83.5 41t7.5 118l89 270q6 17 9 32
t-1 24.5t-19 9.5q-24 0 -55.5 -39t-65 -105.5t-65 -150.5t-56.5 -176zM440 0h-141l188 667q8 34 -1.5 51t-49.5 17l6 19q68 1 120.5 11.5t100.5 29.5zM438 735q-43 0 -74 -22.5t-50 -88.5l-216 -798q-42 -1 -76.5 -4t-67.5 -10l190 700q33 121 101.5 181.5t196.5 60.5z" />
    <glyph glyph-name="f_idieresis.liga" unicode="f&#xef;" horiz-adv-x="599" 
d="M55 496l6 20h429l-7 -20h-428zM471 729q-8 13 -25 22.5t-36 9.5q-26 0 -46 -8.5t-34 -22.5q-19 -19 -27 -47.5t-10 -60t-3 -61.5t-7 -52l-185 -683q-42 -1 -76.5 -4t-67.5 -10l187 690q21 76 47.5 132.5t69.5 91.5q30 24 66.5 36t80.5 12q31 0 54 -10t34 -27zM443 85
q-9 -27 -4.5 -38.5t16.5 -11.5q15 0 30.5 15.5t32.5 63.5l18 48h19l-25 -73q-14 -41 -37.5 -63.5t-50 -31t-49.5 -8.5q-59 0 -74.5 43.5t5.5 115.5l109 371q41 1 77.5 4.5t67.5 10.5zM355 676q0 40 26.5 62t60.5 22q32 0 48.5 -18.5t16.5 -47.5q0 -42 -27 -63t-60 -21
t-49 18t-16 48zM583 676q0 40 26.5 62t59.5 22t49 -18.5t16 -47.5q0 -42 -27 -63t-60 -21q-32 0 -48 18t-16 48z" />
    <glyph glyph-name="f_igrave.liga" unicode="f&#xec;" horiz-adv-x="599" 
d="M55 496l6 20h429l-7 -20h-428zM474 662q-25 28 -44 42t-42 14t-37.5 -17t-25.5 -49t-24 -78l-203 -748q-42 -1 -76.5 -4t-67.5 -10l187 690q24 88 57.5 139.5t75.5 74.5t89 23q35 0 61 -15t51 -47zM443 85q-9 -27 -4.5 -38.5t16.5 -11.5q15 0 30.5 15.5t32.5 63.5l18 48
h19l-25 -73q-14 -41 -37.5 -63.5t-50 -31t-49.5 -8.5q-59 0 -74.5 44t5.5 115l109 371q41 1 77.5 4.5t67.5 10.5zM530 599q-38 48 -67 76.5t-49 48.5t-34 42q-13 23 -9 45t22 33q21 13 44.5 4.5t36.5 -29.5q14 -22 20.5 -49.5t16 -66.5t31.5 -97z" />
    <glyph glyph-name="f_j.liga" unicode="fj" horiz-adv-x="594" 
d="M477 115q-19 -70 -40.5 -120.5t-48.5 -84t-61 -54.5q-38 -28 -76.5 -36t-66.5 -8q-49 0 -72 15.5t-23 43.5q0 30 22.5 51.5t54.5 21.5q27 0 42.5 -16t15.5 -37q0 -16 -10 -34t-28 -30q38 5 60.5 28.5t38.5 79.5l163 581q41 1 77.5 4.5t67.5 10.5zM55 496l6 20h429l-8 -20
h-427zM601 745q-14 9 -33 14.5t-47 5.5q-65 0 -108 -23.5t-69.5 -69t-44.5 -111.5l-153 -561h-140l137 502q22 80 55.5 134t81.5 86q51 34 111.5 47t129.5 13q32 0 59 -7t40 -21zM466 684q2 43 32 64.5t71 21.5q37 0 56 -18.5t17 -44.5q-2 -39 -32 -63.5t-71 -24.5
q-36 0 -55.5 17.5t-17.5 47.5z" />
    <glyph glyph-name="f_k.liga" unicode="fk" horiz-adv-x="869" 
d="M55 496l6 20h319l-6 -20h-319zM438 735q-43 0 -74 -22.5t-50 -88.5l-216 -798q-42 -1 -76.5 -4t-67.5 -10l190 700q33 121 101.5 181.5t196.5 60.5zM440 0h-14.5h-35h-41.5h-35.5h-14.5l188 667q10 34 0.5 51t-49.5 17l4 19q48 1 85 5.5t70 13.5t66 22zM711 77
q-5 -24 -1 -33t16 -9q13 0 28.5 15.5t32.5 63.5l18 48h19l-25 -73q-14 -41 -37.5 -63.5t-51 -31t-54.5 -8.5q-50 0 -71 29.5t-9 85.5l17 77q14 54 -5 78t-83 30v4q44 3 87.5 -0.5t77.5 -17.5t50 -43.5t6 -77.5zM757 511q-13 0 -23 -4t-19 -11q-18 -14 -29 -40t-22.5 -55.5
t-28 -55.5t-44.5 -42.5t-74 -15.5l-10 -1l2 11q45 3 71.5 20.5t41.5 42.5t25.5 53t21.5 53.5t31 41.5q16 13 32.5 18t29.5 5q49 0 71.5 -27.5t21.5 -64.5q0 -37 -23.5 -61.5t-60.5 -24.5q-32 0 -48 17.5t-16 40.5q0 31 20.5 55t45.5 37q-3 4 -7 6t-9 2z" />
    <glyph glyph-name=".notdef" horiz-adv-x="562" 
d="M60 772h442v-772h-442v772zM96 30h370v712h-370v-712z" />
    <glyph glyph-name=".null" 
 />
    <glyph glyph-name="nonmarkingreturn" horiz-adv-x="333" 
 />
    <glyph glyph-name="CR" unicode="&#xd;" 
 />
    <glyph glyph-name="space" unicode=" " horiz-adv-x="255" 
 />
    <glyph glyph-name="exclam" unicode="!" horiz-adv-x="314" 
d="M119 199q20 78 27.5 153.5t11 145t9.5 128.5q1 26 7 54t18 51t31 37t48 14q35 0 52.5 -21t14.5 -59q-5 -47 -28 -103.5t-55.5 -120.5t-64.5 -134.5t-53 -147.5zM24 46q0 40 28.5 67t68.5 27q32 0 50 -16t18 -45q0 -36 -29 -64.5t-69 -28.5q-31 0 -49 16t-18 44z" />
    <glyph glyph-name="quotedbl" unicode="&#x22;" horiz-adv-x="391" 
d="M275 683q0 -30 -18 -59.5t-42 -62.5t-43 -73h-14q-1 42 -5 70l-7 49t-1 43q2 33 24 56.5t55 23.5q24 0 37 -13t14 -34zM437 683q0 -30 -18 -59.5t-42 -62.5t-43 -73h-14q-1 42 -5 70l-7 49t-1 43q2 33 24 56.5t55 23.5q24 0 37 -13t14 -34z" />
    <glyph glyph-name="numbersign" unicode="#" horiz-adv-x="625" 
d="M626 454l-8 -20h-501l8 20h501zM540 267l-10 -20h-500l9 20h501zM320 101h-24l232 501h24zM133 101h-24l232 501h24z" />
    <glyph glyph-name="dollar" unicode="$" horiz-adv-x="610" 
d="M414 840l-270 -972h-22l270 972h22zM506 840l-270 -972h-22l270 972h22zM382 701q-49 0 -84.5 -26t-35.5 -80q0 -40 27.5 -77t69 -73.5t83 -74.5t69.5 -80t28 -92q0 -61 -28 -102t-71.5 -65t-93.5 -34.5t-95 -10.5q-67 0 -107.5 15t-74.5 36q-30 20 -48 49.5t-18 67.5
q0 42 21 72.5t56 30.5q34 0 53 -24.5t19 -60.5q0 -40 -16.5 -73t-30.5 -54q23 -18 57.5 -27.5t78.5 -9.5q75 0 108 28.5t33 80.5q0 41 -26 77t-63.5 70.5t-76 72t-64 80t-25.5 93.5q0 58 22 99t58.5 65.5t80 36t84.5 11.5q67 0 108 -15t74 -36q30 -18 48 -48t18 -69
q0 -42 -20.5 -72.5t-56.5 -30.5q-34 0 -52.5 24.5t-18.5 60.5q0 40 16.5 73t29.5 54q-23 18 -58 28t-78 10z" />
    <glyph glyph-name="percent" unicode="%" horiz-adv-x="796" 
d="M329 746q-28 0 -49.5 -24.5t-35.5 -62t-21.5 -76.5t-7.5 -69q0 -64 34 -64q28 0 49.5 24.5t35.5 62t21.5 77t7.5 69.5q0 63 -34 63zM112 551q0 50 29 98t80.5 80t115.5 32q61 0 95 -30.5t34 -85.5q0 -49 -29 -97.5t-79.5 -80.5t-115.5 -32q-60 0 -95 30t-35 86zM589 297
q-27 0 -48.5 -24.5t-36 -62t-22 -76.5t-7.5 -69q0 -64 34 -64q28 0 49.5 24.5t36 62t21.5 77t7 69.5q0 63 -34 63zM372 102q0 50 29.5 98t80.5 80t115 32q61 0 95 -30t34 -86q0 -49 -28.5 -97.5t-79 -80.5t-116.5 -32q-60 0 -95 30.5t-35 85.5zM838 824l15 -13l-833 -866
l-15 13z" />
    <glyph glyph-name="ampersand" unicode="&#x26;" horiz-adv-x="863" 
d="M564 211q-11 -24 -41.5 -48.5t-82.5 -24.5q-29 0 -56.5 11t-45.5 36t-18 66q0 62 45 105.5t130 71.5q36 12 81.5 26.5t93 30.5t88.5 31q29 11 56.5 24t46 32.5t18.5 50.5q0 38 -28.5 60.5t-70.5 22.5q-20 0 -29 -6q44 -18 44 -59q0 -33 -28.5 -52.5t-61.5 -19.5
q-31 0 -51.5 17.5t-20.5 45.5t17.5 47t44.5 29q20 9 42 11.5t39 2.5q58 0 97 -29.5t39 -103.5q0 -78 -48.5 -124.5t-141.5 -79.5q-37 -14 -81.5 -29t-90 -30t-83.5 -28q-26 -9 -47.5 -20.5t-34 -27.5t-12.5 -38q0 -29 22 -42t49 -13q30 0 51.5 11t34.5 25.5t19 25.5z
M454 570q23 0 39 13.5t16 35.5q0 24 -20 38.5t-52 14.5q-36 0 -67 -18t-50 -50t-19 -75q0 -12 3 -25t8 -26q18 3 36 4.5t27 1.5q36 0 36 -21q0 -11 -10 -16t-21 -5q-19 0 -38.5 8.5t-30.5 13.5q-53 -19 -88 -77.5t-35 -129.5q0 -61 27.5 -102t78.5 -62t120 -21t130 20.5
t99.5 61.5t38.5 104q0 38 -18 74t-64 58l12 10q44 -23 67.5 -62t23.5 -89q0 -48 -22.5 -94.5t-67.5 -84.5t-113 -61t-159 -23q-90 0 -160.5 25t-111 73.5t-40.5 120.5q0 65 33.5 119t94 92.5t141.5 55.5q-45 16 -66.5 44t-21.5 60q0 42 29.5 70t74 42t91.5 14
q63 0 94.5 -22.5t31.5 -57.5q0 -36 -25.5 -53t-51.5 -17v18z" />
    <glyph glyph-name="quotesingle" unicode="'" horiz-adv-x="228" 
d="M275 683q0 -30 -18 -59.5t-42 -62.5t-43 -73h-14q-1 42 -5 70l-7 49t-1 43q2 33 24 56.5t55 23.5q24 0 37 -13t14 -34z" />
    <glyph glyph-name="parenleft" unicode="(" horiz-adv-x="396" 
d="M241 -182q-62 57 -108 117t-71.5 130t-25.5 158q0 84 35 165.5t98.5 157.5t149 142t186.5 118l10 -13q-103 -74 -180 -161.5t-119.5 -196t-42.5 -244.5q0 -104 21 -190t65 -170z" />
    <glyph glyph-name="parenright" unicode=")" horiz-adv-x="397" 
d="M165 806q62 -57 108 -117t71.5 -130t25.5 -158q0 -84 -35 -165.5t-98.5 -157.5t-149 -142t-186.5 -118l-10 13q103 74 180 161.5t119.5 196t42.5 244.5q0 104 -21 190t-65 170z" />
    <glyph glyph-name="asterisk" unicode="*" horiz-adv-x="484" 
d="M302 518q31 56 53.5 92.5t28.5 64.5q8 30 -4.5 42t-30.5 12t-36 -12t-26 -42q-6 -28 0 -66t12 -91h3zM301 519q-30 44 -47 74.5t-38 44.5q-22 15 -42 8t-32 -23q-13 -15 -14.5 -34.5t20.5 -34.5q20 -14 59 -20t91 -18zM300 518q-61 -11 -100.5 -17t-68.5 -20
q-29 -15 -36.5 -34t-2.5 -35q5 -15 21.5 -22.5t47.5 7.5q26 14 59 46t80 73v2zM299 517q-32 -55 -54.5 -91t-29.5 -65q-7 -30 5.5 -42t30.5 -12t36.5 12t25.5 42q6 29 0.5 66.5t-10.5 90.5zM457 413q13 15 15 34.5t-21 34.5q-20 14 -59 20t-90 18l-4 -3q30 -44 47 -74.5
t39 -44.5q22 -15 41.5 -8t31.5 23zM507 624q-5 15 -21.5 22.5t-46.5 -7.5q-27 -14 -59.5 -45.5t-79.5 -73.5l-1 -3q62 13 101.5 18.5t67.5 19.5q30 15 37.5 34t1.5 35z" />
    <glyph glyph-name="plus" unicode="+" horiz-adv-x="575" 
d="M58 370h233l67 236h36l-67 -236h232l-9 -30h-232l-67 -235h-36l67 235h-233z" />
    <glyph glyph-name="comma" unicode="," horiz-adv-x="287" 
d="M167 68q0 -63 -39.5 -118t-109.5 -86l-5 16q43 22 74 57t34 78q-13 -13 -29 -21t-33 -8q-62 0 -62 54q0 27 14 50t37.5 36.5t52.5 13.5q32 0 49 -18.5t17 -53.5z" />
    <glyph glyph-name="hyphen" unicode="-" horiz-adv-x="506" 
d="M75 306h361l-22 -83h-361z" />
    <glyph glyph-name="period" unicode="." horiz-adv-x="279" 
d="M-1 46q0 40 28.5 67t68.5 27q32 0 50 -16t18 -45q0 -36 -29 -64.5t-69 -28.5q-32 0 -49.5 16t-17.5 44z" />
    <glyph glyph-name="slash" unicode="/" horiz-adv-x="461" 
d="M-44 -14l548 736h33l-548 -736h-33z" />
    <glyph glyph-name="zero" unicode="0" horiz-adv-x="621" 
d="M381 531q93 0 145 -48.5t52 -133.5q0 -67 -28 -132t-77 -117t-113.5 -83t-136.5 -31q-91 0 -145 48t-54 135q0 68 28.5 132t78 116.5t114 83t136.5 30.5zM365 513q-42 0 -78 -31.5t-62.5 -84.5t-40.5 -118t-14 -130q0 -78 20 -111.5t49 -33.5q44 0 79 33t60.5 87
t39.5 119t14 128q0 77 -19 109.5t-48 32.5z" />
    <glyph glyph-name="one" unicode="1" horiz-adv-x="371" 
d="M351 528l-157 -528h-141l125 422q-26 -10 -56.5 -20t-76.5 -22l3 21q110 28 173.5 62t109.5 65h20z" />
    <glyph glyph-name="two" unicode="2" horiz-adv-x="535" 
d="M318 531q75 0 118 -28t43 -77q0 -38 -25 -73t-64.5 -66.5t-85 -59.5t-87 -52.5t-70.5 -45.5q25 0 55.5 -7t64 -14t64.5 -7q38 0 61.5 12t23.5 36q0 30 -36 49l11 13q29 -15 42 -35.5t13 -49.5q0 -32 -15.5 -62.5t-49.5 -50t-90 -19.5q-49 0 -94 14t-102 16
q-38 2 -63.5 -4.5t-56.5 -19.5l5 21q25 20 68.5 51.5t93 71t94.5 85t73.5 94.5t28.5 99q0 40 -20 60.5t-56 20.5q-39 0 -79 -22.5t-66.5 -58t-26.5 -74.5q0 -24 13.5 -36t44.5 -12q28 0 48.5 10.5t43.5 30.5l12 -14q-28 -26 -57 -37t-54 -11t-50 13t-25 55q0 44 32.5 86.5
t89.5 70t130 27.5z" />
    <glyph glyph-name="three" unicode="3" horiz-adv-x="517" 
d="M310 532q75 0 119 -27t44 -73q0 -35 -21.5 -64.5t-56 -53t-75 -39.5t-78.5 -25q54 -1 97 -13.5t68 -39.5t25 -70q0 -51 -33.5 -94.5t-89.5 -77t-124.5 -57t-139 -36t-132.5 -13.5l5 18q59 4 123 23t120 53.5t90 84t34 115.5q0 40 -15.5 64.5t-45.5 26.5q-16 -7 -30.5 -12
t-27.5 -5q-8 0 -14 3t-3 12q3 14 22 17t45 1q52 22 88 62.5t36 95.5q0 42 -24.5 66t-68.5 24q-36 0 -70.5 -17.5t-57 -44.5t-22.5 -57q0 -24 13.5 -36t44.5 -12q34 0 62 15l11 -15q-21 -11 -41.5 -16t-38.5 -5q-25 0 -50 13t-25 55q0 37 31.5 72t85.5 58.5t120 23.5z" />
    <glyph glyph-name="four" unicode="4" horiz-adv-x="535" 
d="M428 531l3 -23l-466 -452l12 25h486l-10 -35h-511l6 21zM454 531l-181 -672h-141l138 512l158 160h26z" />
    <glyph glyph-name="five" unicode="5" horiz-adv-x="472" 
d="M432 538l12 -7q-24 -64 -61.5 -102t-87.5 -38q-21 0 -45 10t-46.5 19t-41.5 6l-93 -200q32 17 70 26t85 9q89 0 130 -32t41 -87q0 -56 -32 -101t-84.5 -80t-116.5 -58.5t-129 -36t-121 -14.5l5 18q53 0 110.5 18t107 52.5t80.5 85t31 114.5q0 42 -21.5 66.5t-72.5 24.5
q-15 0 -39 -4.5t-59 -22.5l-10 5l138 309q29 2 52 -4.5t48 -13.5t58 -7q30 0 53 9.5t39 35.5z" />
    <glyph glyph-name="six" unicode="6" horiz-adv-x="567" 
d="M546 722l6 -20q-67 -18 -134 -67t-122.5 -124.5t-89 -173.5t-33.5 -214q0 -70 13.5 -93.5t38.5 -23.5q33 0 61.5 30t48.5 76.5t31 97.5t11 93q0 49 -14.5 68.5t-35.5 19.5q-23 0 -47.5 -23t-43.5 -80l-16 5q15 55 40.5 86.5t57 45t65.5 13.5q61 0 101.5 -38t40.5 -113
q0 -59 -25.5 -113t-70.5 -96.5t-103.5 -67t-125.5 -24.5q-83 0 -127.5 44.5t-44.5 139.5q0 88 34.5 166.5t91.5 145t125.5 116.5t138 82t128.5 42z" />
    <glyph glyph-name="seven" unicode="7" horiz-adv-x="503" 
d="M199 522q44 0 80.5 -10.5t74.5 -22t84 -13.5q29 -1 54 6.5t45 33.5h27q-59 -68 -109 -126t-91.5 -115t-73 -123.5t-53.5 -151.5q-7 -26 -9.5 -39t-3.5 -20.5t-4 -19.5q-6 -28 -28.5 -48.5t-60.5 -20.5q-31 0 -44.5 13.5t-14.5 34.5t4 44q13 55 51 114.5t90 118.5
t108.5 115.5t108.5 106.5t87 89l7.5 2l7.5 2q-51 -33 -89 -57.5t-71 -37.5t-69 -13q-35 0 -59.5 8t-46.5 15.5t-50 7.5q-30 0 -51.5 -14t-21.5 -45q0 -38 32 -63t89 -38l-5 -16q-68 14 -110 47.5t-42 96.5q0 34 16 66t50.5 52.5t90.5 20.5z" />
    <glyph glyph-name="eight" unicode="8" horiz-adv-x="575" 
d="M418 722q70 0 118 -26t48 -81q0 -37 -22 -70t-58 -60.5t-76.5 -50t-77.5 -38.5l-4 8q28 22 51.5 56.5t37.5 76t14 85.5q0 82 -56 82q-29 0 -54.5 -19.5t-41.5 -51.5t-16 -71q0 -45 22 -79t54.5 -63t64.5 -59t54 -66.5t22 -85.5t-24.5 -90t-67 -70.5t-97.5 -46t-115 -16.5
q-54 0 -98.5 14t-71.5 42.5t-27 74.5q0 43 24 81t64 70t88.5 57t96.5 43l4 -8q-57 -37 -96 -106.5t-39 -150.5q0 -44 16.5 -71.5t58.5 -27.5q38 0 72 22t55 60.5t21 85.5q0 49 -21 85t-52 66t-62 59.5t-52 64t-21 81.5q0 59 37.5 102.5t98 67.5t128.5 24z" />
    <glyph glyph-name="nine" unicode="9" horiz-adv-x="554" 
d="M344 531q83 0 127.5 -44.5t44.5 -139.5q0 -85 -34 -161t-90 -140.5t-123.5 -113.5t-135.5 -80t-125 -40l-6 20q65 17 130 65t119 122t87 169t33 206q0 70 -13.5 93.5t-38.5 23.5q-34 0 -62 -30t-48.5 -76.5t-31 -97t-10.5 -93.5q0 -48 14 -68t35 -20q23 0 48 23t43 80
l17 -5q-16 -54 -41 -86t-56.5 -45.5t-66.5 -13.5q-60 0 -100.5 38t-40.5 113q0 59 25.5 113t70.5 96.5t103.5 67t125.5 24.5z" />
    <glyph glyph-name="colon" unicode=":" horiz-adv-x="311" 
d="M114 437q0 40 28.5 67t68.5 27q32 0 50 -16t18 -45q0 -36 -29 -64.5t-69 -28.5q-32 0 -49.5 16t-17.5 44zM14 46q0 40 28.5 67t68.5 27q32 0 50 -16t18 -45q0 -36 -29 -64.5t-69 -28.5q-32 0 -49.5 16t-17.5 44z" />
    <glyph glyph-name="semicolon" unicode=";" horiz-adv-x="318" 
d="M119 437q0 40 28.5 67t68.5 27q32 0 50 -16t18 -45q0 -36 -29 -64.5t-69 -28.5q-32 0 -49.5 16t-17.5 44zM179 68q0 -63 -39.5 -118t-109.5 -86l-5 16q43 22 74 57t34 78q-13 -13 -29 -21t-33 -8q-62 0 -62 54q0 27 14 50t37.5 36.5t52.5 13.5q32 0 49 -18.5t17 -53.5z
" />
    <glyph glyph-name="less" unicode="&#x3c;" horiz-adv-x="594" 
d="M600 582l10 -29l-487 -202l331 -174l-16 -32l-390 210z" />
    <glyph glyph-name="equal" unicode="=" horiz-adv-x="650" 
d="M63 270l9 30h501l-9 -30h-501zM103 410l9 30h501l-9 -30h-501z" />
    <glyph glyph-name="greater" unicode="&#x3e;" horiz-adv-x="595" 
d="M58 155l-10 29l460 192l-370 198l16 29l429 -231z" />
    <glyph glyph-name="question" unicode="?" horiz-adv-x="486" 
d="M300 760q-19 0 -45.5 -6.5t-40.5 -23.5q26 0 48 -18t22 -47q-1 -29 -23 -50t-54 -21q-29 0 -50 18t-21 50q0 33 19.5 56t50.5 37t67.5 20.5t69.5 6.5q51 0 94.5 -14t70 -41t26.5 -69q0 -44 -41.5 -91t-136.5 -119q-61 -44 -96.5 -73t-50 -52t-14.5 -51q0 -27 16.5 -46
t51.5 -19q21 0 42.5 7t34.5 19q-17 6 -32.5 21.5t-15.5 41.5q0 27 19.5 46t49.5 19q23 0 40.5 -15.5t17.5 -41.5q0 -31 -18 -53t-47 -36t-61.5 -21t-60.5 -7q-65 0 -109 27.5t-44 84.5q0 40 22.5 73t60 63.5t80.5 64.5q70 55 105.5 91.5t35.5 83.5q0 38 -20.5 61.5
t-62.5 23.5zM111 46q0 40 28 67t68 27q32 0 50 -16t18 -45q0 -36 -29 -64.5t-69 -28.5q-31 0 -48.5 16t-17.5 44z" />
    <glyph glyph-name="at" unicode="@" horiz-adv-x="863" 
d="M589 58q20 0 57 19.5t75.5 58t65.5 97.5t27 138q0 90 -39 146t-106 82.5t-153 26.5q-105 0 -191.5 -40t-148 -106.5t-95 -150t-33.5 -171.5q0 -78 26.5 -133.5t72 -90t104.5 -50.5t124 -16t126 15.5t114 45.5l6 -13q-43 -28 -106 -46.5t-139 -18.5q-69 0 -131.5 17
t-111.5 52.5t-77 94t-28 141.5q0 90 33.5 176.5t97.5 157t154 112.5t203 42q93 0 165 -29t112.5 -89.5t40.5 -154.5q0 -84 -30 -148t-77.5 -108t-100 -66.5t-96.5 -22.5q-39 0 -57 14.5t-21 37t2 46.5t10 43l88 297q31 0 64.5 3t61.5 11l-106 -361q-9 -32 -5 -45.5t22 -13.5
zM492 224q-22 -73 -48.5 -116.5t-59 -62.5t-71.5 -19q-51 0 -82.5 30t-31.5 92q0 53 21.5 110.5t58.5 107.5t85 81t101 31q45 0 60 -27t9 -77l-10 -7q1 18 -1 35.5t-10.5 29t-26.5 11.5q-25 0 -53 -26t-52 -68.5t-39 -94.5t-15 -105q0 -38 9.5 -56.5t31.5 -18.5
q33 0 61.5 42.5t56.5 123.5z" />
    <glyph glyph-name="A" unicode="A" horiz-adv-x="653" 
d="M60 143q-31 -43 -32 -69.5t22 -39t62 -14.5l-5 -20q-42 2 -72.5 2.5t-57.5 0.5q-23 0 -38 -0.5t-31 -2.5l4 20q25 7 50 29.5t63 76.5l417 587q13 -1 26.5 -1t24.5 1l40 -629q3 -36 18.5 -49.5t30.5 -14.5l-4 -20q-25 2 -66.5 2.5t-78.5 0.5q-45 0 -85 -0.5t-65 -2.5l4 20
q48 2 68.5 17.5t17.5 66.5l-24 460l34 36zM153 288h292l-8 -20h-302z" />
    <glyph glyph-name="B" unicode="B" horiz-adv-x="679" 
d="M441 707q116 0 168 -36t52 -96q0 -52 -33.5 -95.5t-94 -71.5t-141.5 -36q113 -5 169 -48.5t56 -107.5q0 -52 -24.5 -92.5t-69 -68t-104.5 -41.5t-131 -14q-31 0 -71.5 1.5t-103.5 1.5q-38 0 -82.5 -0.5t-72.5 -2.5l4 20q34 2 53 8t30 24t20 54l132 496q8 31 8.5 49.5
t-14 27t-53.5 9.5l5 20q18 -1 44.5 -1.5t55 -1t52.5 -0.5q46 0 79 1t67 1zM255 359l4 17h71q57 0 95.5 31t58.5 80.5t20 103.5q0 44 -16.5 70.5t-60.5 26.5q-30 0 -43.5 -14t-24.5 -57l-135 -511q-6 -22 -8 -41t8 -30.5t40 -11.5q61 0 102 29t62.5 77t21.5 105
q0 54 -25.5 89.5t-89.5 35.5h-80z" />
    <glyph glyph-name="C" unicode="C" horiz-adv-x="693" 
d="M746 708q-15 -39 -31 -94.5t-33 -135.5h-22q8 51 7.5 89t-16.5 66q-19 35 -49 50t-69 15q-50 0 -96 -27t-85 -74.5t-68.5 -109t-46 -131.5t-16.5 -142q0 -102 36.5 -150t98.5 -48q37 0 78 17t72 49q27 28 46.5 64t43.5 94h22q-25 -91 -38.5 -146.5t-20.5 -93.5h-22
q3 21 3 34q0 21 -8 25t-25 -8q-41 -28 -87.5 -46.5t-108.5 -18.5q-136 0 -202 64.5t-66 183.5q0 70 22.5 140t65 132.5t102 111t132.5 76.5t156 28q62 0 94 -19.5t55 -45.5q13 -15 26 -3t29 54h21z" />
    <glyph glyph-name="D" unicode="D" horiz-adv-x="771" 
d="M756 469q0 -65 -19 -132t-58.5 -127t-98 -107.5t-138 -75t-179.5 -27.5q-24 0 -62.5 1.5t-88.5 1.5q-23 0 -51.5 -0.5t-55 -1t-43.5 -1.5l3 20q32 2 50.5 8t29.5 24t20 54l131 496q11 43 3.5 63.5t-61.5 22.5l3 20q18 -1 46 -2t59.5 -1h58.5q18 1 46 1.5l56 1t47 0.5
q145 0 223.5 -60t78.5 -179zM263 18q80 0 142 42.5t104 113.5t63.5 156.5t21.5 170.5q0 92 -38 140.5t-124 48.5q-25 0 -38 -6.5t-21 -24.5t-18 -55l-131 -500q-12 -48 -9 -67t48 -19z" />
    <glyph glyph-name="E" unicode="E" horiz-adv-x="626" 
d="M225 346l5 20h198l-5 -20h-198zM330 366q38 0 64 19t44.5 46.5t28.5 54.5h23q-16 -46 -23 -73.5t-14 -56.5q-5 -18 -9 -35t-8.5 -38.5t-11.5 -56.5h-22q2 27 -2.5 54.5t-22 46.5t-58.5 19zM598 528q4 59 -5 93.5t-34.5 49t-70.5 14.5h-31q-33 0 -51.5 -5.5t-29 -23
t-20.5 -54.5l-132 -496q-15 -55 -3.5 -69t60.5 -14h37q54 0 91 17t66.5 55.5t58.5 104.5h23q-5 -13 -11 -32t-11 -40q-5 -19 -13 -54.5t-13 -73.5q-51 2 -114 2.5t-113 0.5h-90t-118 -0.5t-117 -2.5l5 20q34 2 53 8t29.5 24t20.5 54l132 496q14 55 2.5 69.5t-61.5 16.5l5 20
q55 -1 117 -2t118 -1h90q45 0 101.5 0.5t101.5 2.5q-13 -35 -22 -63t-16 -55q-4 -18 -7.5 -34t-5.5 -28h-22z" />
    <glyph glyph-name="F" unicode="F" horiz-adv-x="588" 
d="M230 342l5 20h208l-4 -20h-209zM588 498q9 71 0 111.5t-37 58t-77 17.5h-23q-31 0 -48 -5.5t-27.5 -23t-19.5 -54.5l-132 -496q-10 -36 -7 -54t23.5 -24t61.5 -8l-4 -20q-31 2 -79.5 2.5t-98.5 0.5t-93 -0.5t-70 -2.5l5 20q34 2 53 8t29.5 24t20.5 54l132 496
q14 55 2.5 69.5t-61.5 16.5l5 20q55 -1 117 -2t118 -1h90q45 0 101.5 0.5t101.5 2.5q-13 -36 -22 -65t-17 -57q-7 -26 -12.5 -48t-8.5 -40h-23zM338 362q36 0 61.5 17.5t44 45t31.5 57.5h22q-15 -46 -22 -73.5t-15 -56.5q-6 -29 -13.5 -62t-17.5 -86h-22q2 40 -3.5 71.5
t-23 49t-53.5 17.5z" />
    <glyph glyph-name="G" unicode="G" horiz-adv-x="739" 
d="M340 6q22 0 42.5 6t34.5 15q18 12 26 28.5t15 44.5l23 88q11 41 8.5 61t-22 27t-61.5 8l5 20q31 -1 80 -2t90 -1q44 0 81 1t60 2l-5 -20q-22 -1 -34.5 -7t-21 -24t-18.5 -55l-53 -198h-20q2 26 -4.5 41.5t-23.5 15.5q-19 0 -40.5 -10.5t-43.5 -21.5q-38 -20 -73 -29.5
t-72 -9.5q-130 0 -202.5 60t-72.5 169q0 68 22.5 139t64 137t101 118t133 82.5t159.5 30.5q65 0 100.5 -19t63.5 -46q15 -15 28 -5t29 56h22q-15 -39 -31 -94.5t-33 -135.5h-22q2 20 3.5 38.5t1.5 36.5q0 21 -2.5 38.5t-11.5 34.5q-20 38 -59.5 58t-94.5 20
q-62 0 -111.5 -35.5t-88 -94t-64 -128t-38.5 -139t-13 -125.5q0 -90 35.5 -133t107.5 -43z" />
    <glyph glyph-name="H" unicode="H" horiz-adv-x="810" 
d="M239 346l7 20h353l-8 -20h-352zM617 602q15 55 3 69.5t-62 16.5l5 20q27 -1 70 -2t86 -1q49 0 93 1t72 2l-5 -20q-34 -1 -53 -7.5t-29.5 -24t-20.5 -54.5l-132 -496q-14 -55 -3 -69.5t62 -16.5l-4 -20q-27 2 -71 2.5t-93 0.5q-43 0 -86.5 -0.5t-70.5 -2.5l4 20q34 2 53 8
t30 24t20 54zM224 106q-14 -55 -3 -69.5t62 -16.5l-4 -20q-28 2 -70.5 2.5t-86.5 0.5q-50 0 -93 -0.5t-70 -2.5l5 20q33 2 51.5 8t29.5 24t20 54l132 496q14 55 2.5 69.5t-61.5 16.5l5 20q25 -1 69 -2t94 -1q44 0 85.5 1t72.5 2l-5 -20q-34 -1 -53 -7.5t-29.5 -24
t-20.5 -54.5z" />
    <glyph glyph-name="I" unicode="I" horiz-adv-x="390" 
d="M224 106q-14 -55 -3 -69.5t62 -16.5l-4 -20q-29 2 -73.5 2.5t-89.5 0.5q-48 0 -89.5 -0.5t-67.5 -2.5l5 20q33 2 51.5 8t29.5 24t20 54l132 496q14 55 2.5 69.5t-61.5 16.5l5 20q24 -1 66 -2t91 -1q45 0 88.5 1t75.5 2l-5 -20q-34 -1 -53 -7.5t-29.5 -24t-20.5 -54.5z
" />
    <glyph glyph-name="J" unicode="J" horiz-adv-x="683" 
d="M641 366l-3 -20h-387l3 20h387zM430 567q-42 0 -77.5 12.5t-68.5 25t-68 12.5q-28 0 -44.5 -14t-16.5 -43q1 -32 27.5 -51.5t85.5 -25.5l-1.5 -9.5l-1.5 -9.5q-74 6 -123.5 40.5t-50.5 101.5q-1 58 35 95.5t107 37.5q48 0 84 -15t67.5 -35.5t67 -35.5t84.5 -15
q40 0 84 10t85 29q21 32 41 49t35 4q12 -10 -1 -27t-66 -37q-71 -57 -115 -150t-74 -209l-62 -242q-17 -68 -53 -126t-95.5 -92.5t-147.5 -34.5q-59 0 -99.5 17t-40.5 58q0 32 22 54t62 22q33 0 55 -15.5t23 -44.5q0 -24 -14.5 -42t-40.5 -29q7 -2 14 -2.5t14 -0.5
q30 0 50.5 17t35.5 49t28.5 76.5t27.5 98.5l54 192q27 101 74 170t111 121t141 102q-38 -12 -69 -27.5t-59.5 -29.5t-58.5 -22.5t-67 -8.5z" />
    <glyph glyph-name="K" unicode="K" horiz-adv-x="740" 
d="M224 106q-14 -55 -3 -69.5t62 -16.5l-4 -20q-28 2 -70.5 2.5t-86.5 0.5q-50 0 -93 -0.5t-70 -2.5l5 20q33 2 51.5 8t29.5 24t20 54l132 496q14 55 2.5 69.5t-61.5 16.5l5 20q25 -1 69 -2t94 -1q44 0 85.5 1t72.5 2l-5 -20q-34 -1 -53 -7.5t-29.5 -24t-20.5 -54.5zM587 59
q20 0 33 15.5t23 44.5l17 51h20l-26 -77q-19 -56 -54.5 -81.5t-79.5 -25.5q-64 0 -93 34.5t-21 91.5l19 140q4 36 2 57.5t-10.5 34t-23.5 21.5l2 10q73 -4 114 -21t56 -53.5t8 -99.5l-11 -105q-2 -16 4 -26.5t21 -10.5zM407 360q-54 -14 -73.5 -11t-17.5 20q3 16 21 19.5
t70 -10.5v-18zM625 681q-22 -23 -35.5 -62t-26.5 -82.5t-32.5 -82t-51.5 -63t-85 -23.5l2 10q49 5 77.5 31t45.5 64t28.5 80.5t25 79.5t37.5 60q17 18 35.5 23.5t35.5 5.5q45 0 70 -25.5t24 -65.5q0 -33 -23 -65t-68 -32q-28 0 -47.5 17.5t-18.5 49.5q0 29 20 56.5t54 42.5
q-2 2 -6.5 2.5t-9.5 0.5q-19 0 -30.5 -5.5t-20.5 -16.5z" />
    <glyph glyph-name="L" unicode="L" horiz-adv-x="605" 
d="M562 210q-6 -16 -12 -37t-12 -45q-5 -19 -13 -54.5t-14 -73.5q-51 2 -114 2.5t-113 0.5h-90t-119 -0.5t-118 -2.5l5 20q34 2 53 8t29.5 24t20.5 54l132 496q14 55 2.5 69.5t-61.5 16.5l5 20q26 -1 70.5 -2t94.5 -1q44 0 85 1t71 2l-5 -20q-34 -1 -53 -7.5t-30 -24
t-21 -54.5l-132 -496q-14 -55 -3 -69t61 -14h40q45 0 84.5 18t73.5 59t61 110h22z" />
    <glyph glyph-name="M" unicode="M" horiz-adv-x="917" 
d="M752 705h78q45 0 87 1t74 2l-5 -20q-34 -1 -53 -7.5t-29.5 -24t-20.5 -54.5l-132 -496q-14 -55 -2.5 -69.5t61.5 -16.5l-4 -20q-32 2 -73.5 2.5t-86.5 0.5q-48 0 -91.5 -0.5t-68.5 -2.5l4 20q35 2 53.5 8t29.5 24t20 54l145 539l-415 -650h-22l-81 614l-126 -480
q-8 -32 -7.5 -56t19 -37.5t63.5 -15.5l-4 -20q-18 2 -52 2.5t-60 0.5t-52 -0.5t-43 -2.5l5 20q52 2 74 31.5t34 77.5l127 473q14 55 2.5 69.5t-61.5 16.5l5 20q23 -1 59.5 -2t77.5 -1q24 0 48 1t42 2l57 -511z" />
    <glyph glyph-name="N" unicode="N" horiz-adv-x="825" 
d="M525 -5l-254 556v8t-0.5 17.5t-1 17.5l-0.5 8q8 37 5.5 54.5t-20 24t-56.5 7.5l5 20q16 -1 39.5 -2t49.5 -1q47 0 81 3l212 -486l-4 -23t-9.5 -56.5t-11 -67.5t-9.5 -57l-4 -23h-22zM832 735q-26 0 -47 -15t-37 -38q-46 -68 -94 -239t-107 -448l-14 28q18 84 40.5 182.5
t47.5 193.5t52.5 172t56.5 119q19 27 45 45.5t63 18.5q46 0 70.5 -25t24.5 -60q0 -38 -25.5 -64.5t-65.5 -26.5q-33 0 -51 16.5t-18 42.5q0 34 22 59.5t53 34.5q-2 2 -6.5 3t-9.5 1zM21 -55q27 0 48 14.5t36 39.5q29 46 58.5 144t60 237t61.5 305l17 -21q-20 -102 -42 -208
t-45.5 -201t-47 -165.5t-46.5 -100.5q-18 -24 -42.5 -43.5t-64.5 -19.5q-45 0 -69.5 25t-24.5 60q0 39 26 65t65 26q34 0 51.5 -16.5t17.5 -42.5q0 -34 -22 -59t-54 -35q3 -2 7 -3t10 -1z" />
    <glyph glyph-name="O" unicode="O" horiz-adv-x="777" 
d="M486 704q-53 0 -101.5 -42t-87 -113t-61 -158.5t-22.5 -177.5q0 -98 30.5 -153.5t77.5 -55.5q53 0 101.5 42t87 113t61 158.5t22.5 177.5q0 98 -30.5 153.5t-77.5 55.5zM42 226q0 66 21 136t60 134t94.5 115t125.5 81t152 30q127 0 199.5 -62.5t72.5 -178.5
q0 -66 -21 -135.5t-60.5 -133.5t-95.5 -115t-125.5 -81t-151.5 -30q-127 0 -199 62.5t-72 177.5z" />
    <glyph glyph-name="P" unicode="P" horiz-adv-x="643" 
d="M230 284l5 20h45q66 0 111.5 24.5t73 64.5t39.5 88.5t12 97.5q0 53 -22.5 81t-74.5 28q-31 0 -40.5 -17t-23.5 -69l-132 -496q-7 -29 -7 -47.5t15 -27.5t51 -11l-4 -20q-30 2 -70 2.5t-84 0.5q-50 0 -95 -0.5t-71 -2.5l4 20q34 2 53 8t30 24t20 54l132 496q7 31 7 49
t-14 27t-52 10l5 20q25 -1 70 -2t89 -1q36 0 72.5 1t73.5 1q120 0 177.5 -39t57.5 -112q0 -78 -52 -139.5t-145 -97t-216 -35.5h-40z" />
    <glyph glyph-name="Q" unicode="Q" horiz-adv-x="831" 
d="M310 243q-63 0 -112 21.5t-76 61t-27 95.5q0 65 34.5 120t94.5 95.5t135.5 63t156.5 22.5q89 0 156.5 -25t105.5 -70.5t38 -107.5q0 -65 -39 -134.5t-105 -137t-147 -127t-165 -105t-161 -71.5t-133 -26q-48 0 -76 20t-28 61q0 49 40 80.5t100 31.5q51 0 97.5 -21.5
t92 -53.5t92.5 -63.5t98 -53.5t109 -22q53 0 83.5 21t45.5 50q-27 -22 -64 -22q-33 0 -55.5 19.5t-22.5 53.5q0 35 25.5 59.5t65.5 24.5q35 0 58.5 -21t23.5 -63q0 -37 -21 -74t-59.5 -67t-88.5 -48t-110 -18q-68 0 -120.5 23t-93.5 57t-76 68.5t-68.5 57.5t-71.5 23
q-26 0 -42.5 -13t-16.5 -36q0 -27 24 -42t67 -15q30 0 68.5 10.5t79.5 26t78 33.5q70 34 132.5 85t110.5 115.5t75.5 139.5t27.5 156q0 95 -39 149t-112 54q-53 0 -96 -27t-73.5 -72t-46.5 -99.5t-16 -109.5q0 -60 23.5 -92t78.5 -32q42 0 76 18t56.5 47.5t30.5 61.5
q3 12 4 24.5t0 23.5q-11 -33 -37.5 -46.5t-50.5 -13.5q-33 0 -52.5 21t-19.5 53q0 40 27.5 66t67.5 26q42 0 66 -30t24 -80q0 -58 -31.5 -103t-87 -71t-128.5 -26z" />
    <glyph glyph-name="R" unicode="R" horiz-adv-x="711" 
d="M276 355q29 -2 48.5 -3.5t34 -3t28.5 -2.5q57 -5 101.5 -17t67.5 -40t16 -81l-14 -103q-3 -32 4 -51t27 -19t34.5 18.5t26.5 53.5l5 14h23l-4 -13q-18 -62 -54.5 -92t-98.5 -30q-69 0 -98.5 33t-22.5 83l15 114q5 41 -3 68.5t-40 41.5t-98 14zM260 340l5 18h33
q66 0 116 26t79 76.5t29 122.5q0 54 -23 79.5t-70 25.5q-29 0 -43.5 -13.5t-25.5 -52.5l-136 -516q-8 -30 -9.5 -48.5t13.5 -27t54 -10.5l-4 -20q-30 2 -70.5 2.5t-85.5 0.5q-48 0 -93 -0.5t-71 -2.5l4 20q34 2 53 8t30 24t20 54l131 496q9 31 9 49t-14.5 27t-52.5 10l5 20
q18 -1 44 -1.5t54.5 -1t52.5 -0.5q46 0 81.5 1t68.5 1q122 0 180.5 -34t58.5 -105q0 -69 -48.5 -119.5t-134.5 -79t-200 -28.5z" />
    <glyph glyph-name="S" unicode="S" horiz-adv-x="587" 
d="M620 715q-10 -26 -27 -75.5t-32 -128.5h-20q6 29 6 56q0 58 -36 94.5t-107 36.5q-50 0 -85.5 -25.5t-35.5 -83.5q0 -42 23.5 -81t58.5 -75.5t70 -74.5t59 -80.5t24 -91.5q0 -54 -26.5 -92t-68.5 -62t-90 -35t-91 -11q-47 0 -77.5 6t-52.5 16.5t-43 23.5q-11 7 -20 11
t-15 4q-13 0 -21 -12t-21 -42h-20q14 32 30 84t38 156h20q-5 -17 -7.5 -38.5t-1.5 -40.5q3 -71 44.5 -108.5t118.5 -37.5q68 0 98.5 28t30.5 77q0 51 -22 91t-53 76.5t-63 72.5t-53.5 77t-21.5 92t22 88.5t59 62.5t80 37t85 12q59 0 96 -14.5t62 -29.5q9 -6 18.5 -11
t14.5 -5q14 0 33 53h20z" />
    <glyph glyph-name="T" unicode="T" horiz-adv-x="681" 
d="M781 858q36 0 56.5 -21.5t20.5 -48.5q0 -32 -18.5 -56t-50.5 -39q-30 -14 -72 -21.5t-95 -7.5q-48 0 -107 6t-117.5 12t-108.5 6q-34 0 -65 -3.5t-48 -13.5q26 -7 43 -29t17 -52q0 -34 -21.5 -59t-56.5 -25t-53.5 23.5t-18.5 55.5q0 24 13.5 51.5t51.5 45.5q24 12 50 17
t49 6t35 1q62 0 121 -5.5t115.5 -11t109.5 -5.5q39 0 65.5 4t48.5 12l-2 -8q-15 12 -28 34t-13 50q0 36 21.5 59t57.5 23zM411 689l15.5 -1.5t38.5 -3.5l46 -4t39 -3.5l16 -1.5l-149 -559q-14 -54 0.5 -73.5t74.5 -22.5l-4 -20q-31 2 -81 2.5t-104 0.5q-52 0 -99.5 -0.5
t-76.5 -2.5l4 20q42 2 66.5 10.5t38 29t22.5 56.5z" />
    <glyph glyph-name="U" unicode="U" horiz-adv-x="694" 
d="M643 544q15 55 15.5 84.5t-17 42.5t-58.5 17l5 20q19 -1 49.5 -2t57.5 -1q24 0 48 1t40 2l-5 -20q-33 -4 -52.5 -16.5t-32 -39.5t-25.5 -76l-68 -265q-36 -138 -98 -212q-36 -42 -89.5 -67.5t-115.5 -25.5q-75 0 -123 21t-72 58q-27 39 -26.5 92t21.5 131l83 314
q14 55 2.5 69.5t-61.5 16.5l6 20q25 -1 70 -2t95 -1q44 0 84 1t71 2l-6 -20q-34 -1 -53 -7.5t-29.5 -24t-20.5 -54.5l-88 -331q-22 -82 -23.5 -137.5t20 -84t69.5 -28.5q75 0 125 33.5t82 92.5t51 133z" />
    <glyph glyph-name="V" unicode="V" horiz-adv-x="661" 
d="M622 565q44 67 25.5 93.5t-78.5 29.5l5 20q14 -1 37.5 -1.5t49.5 -1t44 -0.5q23 0 41 1t34 2l-5 -20q-20 -5 -38 -15.5t-37.5 -32t-43.5 -58.5l-382 -587q-13 1 -25.5 1t-25.5 -1l-79 629q-4 36 -21 49.5t-31 14.5l5 20q26 -1 66 -2t78 -1q48 0 87.5 1t65.5 2l-5 -20
q-48 -2 -67 -16t-13 -68l52 -461l-29 -24z" />
    <glyph glyph-name="W" unicode="W" horiz-adv-x="982" 
d="M573 497l-303 -502h-52l-79 629q-4 37 -21 50t-32 14l5 20q25 -1 63 -2t77 -1q40 0 73.5 1t56.5 2l-5 -20q-32 -2 -44.5 -17.5t-7.5 -66.5l50 -449l-30 -31l243 399zM938 565q26 48 25.5 74t-22 36.5t-62.5 12.5l5 20q14 -1 37.5 -1.5t50 -1t43.5 -0.5q23 0 41.5 1
t34.5 2l-5 -20q-20 -5 -39 -15t-38 -31t-41 -60l-315 -587h-52l-87 629q-5 37 -18 50t-25 14l5 20q23 -1 58.5 -2t71.5 -1q48 0 89 1t67 2l-5 -20q-50 -2 -67.5 -17t-10.5 -67l56 -441l-30 -27z" />
    <glyph glyph-name="X" unicode="X" horiz-adv-x="741" 
d="M498 125q4 -30 17 -49t40 -19q24 0 40 14.5t28 47.5l17 51h20l-26 -77q-21 -57 -55.5 -82t-83.5 -25q-55 0 -87 20.5t-47 56t-21 79.5l-54 444q-4 32 -16.5 51t-39.5 19q-23 0 -39.5 -16t-28.5 -51l-17 -51h-20l26 77q20 58 57 82.5t89 24.5t82 -19.5t45.5 -54.5
t21.5 -82zM710 703q-33 0 -65 -23q-46 -36 -111 -138.5t-122 -263.5l13 76q23 65 56.5 130t71.5 118.5t72 83.5q45 36 91 36q45 0 67.5 -27.5t21.5 -65.5q-1 -40 -26 -67.5t-63 -27.5q-31 0 -48 18.5t-17 48.5q1 33 22 60t54 38q-3 2 -7 3t-10 1zM55 5q19 0 34.5 6t31.5 17
q32 22 75 71t89 123.5t85 173.5l-15 -76q-24 -58 -60.5 -116.5t-76 -106.5t-77.5 -77q-45 -34 -93 -34q-44 0 -66.5 27.5t-21.5 65.5q1 40 25.5 67.5t63.5 27.5q32 0 48.5 -18.5t15.5 -48.5q0 -33 -21 -59.5t-54 -38.5q3 -2 7 -3t10 -1z" />
    <glyph glyph-name="Y" unicode="Y" horiz-adv-x="734" 
d="M392 106q-13 -55 3.5 -69.5t67.5 -16.5l-5 -20q-19 1 -47.5 1.5t-61.5 1t-63 0.5q-48 0 -91.5 -0.5t-69.5 -2.5l5 20q34 2 53 8t30 24t20 54l69 274l65 -63l69 19l34 80zM714 703q-16 0 -30 -5.5t-30 -17.5q-28 -20 -68 -72.5t-81 -137t-76 -200.5l-136 -5q-4 47 -11 99
t-17 102.5t-23.5 92t-30.5 65.5t-39 24q-18 0 -29 -13.5t-17 -33.5l-21 -63h-11h-11l25 77q20 59 56.5 83t84.5 24q68 0 105 -42t55 -122t31 -193q34 96 76 170.5t88 124.5q23 25 53 43.5t65 18.5q46 0 70 -26t23 -62q-1 -37 -26 -62.5t-65 -25.5q-33 0 -51 17t-18 44
q1 34 22.5 58.5t53.5 33.5q-3 2 -7 3t-10 1z" />
    <glyph glyph-name="Z" unicode="Z" horiz-adv-x="658" 
d="M162 346l7 20h353l-8 -20h-352zM450 212l2 9.5l2 9.5q32 -5 61.5 -18t49 -36.5t19.5 -61.5q0 -56 -39 -92.5t-106 -36.5q-43 0 -75.5 13.5t-61.5 31t-60.5 31t-73.5 13.5q-29 0 -53.5 -7.5t-52.5 -19.5q-22 -32 -48 -49t-40 -4q-12 11 2 33t67 42l580 570
q-47 -41 -99 -65.5t-104 -24.5q-47 0 -82 11t-64 22t-61 11q-22 0 -33.5 -10t-11.5 -30q0 -21 17 -35.5t56 -22.5l-2.5 -9.5l-2.5 -9.5q-31 6 -61 18.5t-49.5 36.5t-19.5 61q0 56 39 92.5t106 36.5q43 0 75.5 -13.5t61.5 -31t60.5 -31t73.5 -13.5q29 0 53.5 7.5t52.5 19.5
q23 32 48 49t40 4q12 -10 -2 -32.5t-67 -42.5l-580 -570q47 41 99 65.5t105 24.5q48 0 82.5 -11t63.5 -22t61 -11q21 0 33 10t12 30q0 21 -17 35.5t-56 22.5z" />
    <glyph glyph-name="bracketleft" unicode="[" horiz-adv-x="362" 
d="M-22 -181l237 953h230l-4 -19h-81l-229 -915h81l-4 -19h-230z" />
    <glyph glyph-name="backslash" unicode="\" horiz-adv-x="491" 
d="M162 722l228 -736h-33l-226 736h31z" />
    <glyph glyph-name="bracketright" unicode="]" horiz-adv-x="363" 
d="M385 772l-237 -953h-230l4 19h81l229 915h-81l4 19h230z" />
    <glyph glyph-name="asciicircum" unicode="^" horiz-adv-x="528" 
d="M266 394q-37 -24 -89.5 -46.5t-104.5 -37.5l-4 14q77 34 143.5 89t106.5 115h18q9 -60 45.5 -115t98.5 -88l-8 -15q-57 13 -111 35.5t-95 48.5z" />
    <glyph glyph-name="underscore" unicode="_" horiz-adv-x="698" 
d="M-26 -49h550l-30 -99h-549z" />
    <glyph glyph-name="grave" unicode="`" horiz-adv-x="324" 
d="M348 599q-38 48 -67 76.5t-49.5 48.5t-33.5 42q-14 23 -9.5 45t22.5 33q21 13 44.5 4.5t36.5 -29.5q14 -22 20.5 -49.5t16 -66.5t31.5 -97z" />
    <glyph glyph-name="a" unicode="a" horiz-adv-x="558" 
d="M175 40q16 0 35 17t39 49.5t39 79.5t35 109l-22 -109q-38 -112 -86 -156t-104 -44t-84 33t-28 90q0 54 18.5 113t50 114t71 99t84 70t87.5 26q33 0 51 -26t11 -81l-11 -6q5 36 -3.5 56t-28.5 20q-26 0 -57 -35.5t-59.5 -93t-47 -127t-18.5 -136.5q0 -34 7 -48t21 -14z
M387 516q43 1 78 4.5t67 10.5l-131 -446q-3 -13 -4.5 -24.5t3 -18.5t15.5 -7q13 0 29 15.5t33 63.5l18 48h19l-25 -73q-22 -61 -59.5 -82t-72.5 -21q-52 0 -74 31q-15 22 -13.5 54.5t13.5 74.5z" />
    <glyph glyph-name="b" unicode="b" horiz-adv-x="547" 
d="M338 478q-20 0 -43.5 -25.5t-47 -69.5t-44 -100t-35.5 -117l18 102q50 141 98.5 202t109.5 61t92.5 -39.5t31.5 -114.5q0 -46 -13.5 -99.5t-39.5 -105t-63.5 -93.5t-86.5 -67.5t-108 -25.5q-29 0 -52 12t-34 32l7 16q11 -17 23 -24t28 -7q30 0 58.5 25.5t52.5 68
t42.5 94.5t29 105.5t10.5 100.5q0 39 -9 54t-25 15zM132 29q-33 -1 -70 -14.5t-71 -30.5l-15 7q7 14 12.5 28.5t8.5 30.5l181 617q9 34 -2.5 50t-60.5 16l6 21q71 1 126 11.5t105 29.5z" />
    <glyph glyph-name="c" unicode="c" horiz-adv-x="463" 
d="M358 511q-37 0 -73 -31.5t-64.5 -84.5t-45.5 -119t-17 -136q0 -53 21 -76.5t55 -23.5q32 0 65 19t67 69l20 -8q-20 -33 -51.5 -64t-73 -50.5t-93.5 -19.5q-70 0 -115 37.5t-45 116.5q0 62 24 130t68.5 127.5t107.5 96.5t141 37q55 0 88.5 -27.5t33.5 -68.5
q0 -27 -13 -52.5t-35.5 -42t-50.5 -16.5q-24 0 -40.5 15.5t-16.5 42.5q0 41 27.5 70.5t63.5 38.5q-8 10 -19.5 15t-28.5 5z" />
    <glyph glyph-name="d" unicode="d" horiz-adv-x="579" 
d="M424 85q-9 -24 -4.5 -37t18.5 -13q13 0 28.5 15.5t32.5 63.5l17 48h19l-24 -73q-21 -62 -58.5 -82.5t-73.5 -20.5q-62 0 -79 46q-9 19 -8 47.5t12 65.5l139 522q10 34 -2 50t-61 16l6 21q71 1 127 11.5t107 29.5zM184 36q17 0 40 22t49 65.5t50 107t43 145.5l-15 -108
q-33 -96 -65.5 -159t-71 -93t-91.5 -30q-50 0 -84.5 33.5t-34.5 106.5q0 46 14.5 100.5t43 107.5t69 98t92.5 72t114 27q32 0 47.5 -14.5t18.5 -40.5l-8 -20q-4 26 -14 39t-30 13q-32 0 -67 -35.5t-65 -94.5t-48.5 -130.5t-18.5 -142.5q0 -34 7.5 -51.5t24.5 -17.5z" />
    <glyph glyph-name="e" unicode="e" horiz-adv-x="469" 
d="M131 217q41 16 78 36t63 44q39 35 62.5 81.5t23.5 100.5q0 20 -4 26.5t-12 6.5q-27 0 -60 -34t-62.5 -89t-48 -120t-18.5 -126q0 -56 21.5 -76.5t55.5 -20.5q27 0 67 18t79 64l16 -8q-21 -33 -55 -64t-79 -50.5t-98 -19.5q-67 0 -112 35.5t-45 105.5q0 53 17.5 109
t49.5 108.5t77 95t100 67t117 24.5q44 0 74 -19.5t30 -59.5q0 -39 -21.5 -73t-57.5 -62t-80.5 -50t-91 -38t-87.5 -25z" />
    <glyph glyph-name="f" unicode="f" horiz-adv-x="341" 
d="M55 497l6 20h331l-6 -20h-331zM420 764q-16 0 -29 -5.5t-24 -14.5q-19 -17 -33 -56.5t-28 -93.5l-206 -768q-42 -1 -77 -4t-68 -10l187 696q22 85 50.5 140.5t67.5 87.5q29 23 64.5 34.5t76.5 11.5q63 0 97.5 -26t34.5 -70q0 -31 -25.5 -59t-66.5 -28q-29 0 -46.5 14
t-17.5 40q0 33 20.5 59t56.5 39q-5 5 -13.5 9t-20.5 4z" />
    <glyph glyph-name="g" unicode="g" horiz-adv-x="472" 
d="M223 226l46 5q-59 -26 -94 -45t-35 -35q0 -9 11.5 -15.5t33.5 -13.5l84 -28q29 -9 55 -22.5t42.5 -34t16.5 -51.5q0 -37 -24 -69t-66.5 -56.5t-97 -38t-116.5 -13.5q-51 0 -92 9.5t-65.5 26.5t-24.5 40q0 19 17 35t44 27.5t59 19t63 10.5l4 -15q-34 -19 -48 -39t-14 -40
q0 -28 21.5 -42.5t57.5 -14.5q37 0 77 14t67.5 38.5t27.5 53.5q0 18 -14 25t-38 14l-142 41q-25 7 -42.5 23.5t-17.5 41.5q0 28 23.5 51t69.5 46.5t111 51.5zM266 512q-23 0 -41 -21.5t-29.5 -55.5t-17 -72t-5.5 -71t8.5 -46t23.5 -13q25 0 42.5 20.5t29 53t16.5 70t5 72.5
q0 26 -6 44.5t-26 18.5zM284 530q65 0 108 -26.5t43 -86.5q0 -48 -30.5 -94.5t-85.5 -77t-131 -30.5q-64 0 -107 27t-43 85q0 33 15.5 68.5t46 66t76.5 49.5t108 19zM362 478l-19 7q15 39 48.5 64.5t72.5 25.5q31 0 48 -17t17 -47q0 -28 -15 -43t-32 -15q-16 0 -30.5 12
t-18.5 37t12 63l8 -5q-38 -14 -57 -32.5t-34 -49.5z" />
    <glyph glyph-name="h" unicode="h" horiz-adv-x="570" 
d="M123 0h-141l198 667q10 34 -2 50t-61 16l6 21q71 1 127 11.5t106 29.5zM148 145q40 115 74.5 190t67.5 118t68 60.5t75 17.5q49 0 69.5 -21t20.5 -55.5t-13 -74.5l-98 -295q-9 -27 -4 -38.5t18 -11.5t28.5 14.5t33.5 64.5l18 48h19l-25 -73q-22 -63 -60 -83t-74 -20
q-48 0 -69.5 21.5t-21.5 58t15 79.5l89 270q6 17 8.5 32t-1 24.5t-17.5 9.5q-25 0 -56.5 -39t-65.5 -105.5t-65.5 -150.5t-55.5 -176z" />
    <glyph glyph-name="i" unicode="i" horiz-adv-x="322" 
d="M177 684q2 43 31.5 66t70.5 23q37 0 56.5 -17.5t17.5 -48.5q-2 -39 -32 -63.5t-72 -24.5q-35 0 -54.5 17.5t-17.5 47.5zM139 432q17 50 -11 50q-18 0 -33 -18t-31 -61l-20 -51h-19l28 76q21 59 58 81t81 22q47 0 67 -22t20.5 -54t-10.5 -64l-105 -306q-9 -27 -4.5 -38.5
t18.5 -11.5q13 0 28.5 15t34.5 64l18 48h19l-26 -73q-21 -61 -59 -82t-76 -21q-43 0 -65.5 19t-24.5 55t14 85z" />
    <glyph glyph-name="j" unicode="j" horiz-adv-x="301" 
d="M-138 -188l4 18q50 1 87.5 38.5t56.5 113.5l126 450q8 27 5 38.5t-17 11.5q-17 0 -32 -17.5t-31 -61.5l-19 -51h-19l27 76q20 59 59 81t80 22q48 0 67 -21t18.5 -53.5t-9.5 -65.5l-83 -297q-20 -83 -50 -137t-78 -91q-31 -24 -78 -39t-114 -15zM172 681q0 43 29.5 68.5
t73.5 25.5q36 0 55 -16t19 -45q0 -39 -30 -66t-74 -27q-34 0 -53.5 16t-19.5 44z" />
    <glyph glyph-name="k" unicode="k" horiz-adv-x="552" 
d="M123 0h-141l198 667q10 34 -2 50t-61 16l6 21q71 1 127 11.5t106 29.5zM394 77q-5 -24 -1 -33t16 -9q13 0 28.5 15.5t32.5 63.5l18 48h19l-25 -73q-14 -41 -37.5 -63.5t-51 -31t-55.5 -8.5q-49 0 -70 29.5t-9 85.5l17 77q13 54 -5.5 78t-82.5 30v4q44 3 87.5 -0.5
t77 -17.5t50 -43.5t6.5 -77.5zM440 511q-13 0 -23 -4t-19 -11q-18 -14 -29 -40t-22.5 -55.5t-28 -55.5t-44.5 -42.5t-74 -15.5l-10 -1l2 11q45 3 71 20.5t41.5 42.5t26 53t21.5 53.5t31 41.5q16 13 32.5 18t29.5 5q49 0 71.5 -27.5t21.5 -64.5t-24 -61.5t-60 -24.5
q-32 0 -48.5 17.5t-15.5 40.5q0 31 20 55t46 37q-3 4 -7 6t-9 2z" />
    <glyph glyph-name="l" unicode="l" horiz-adv-x="300" 
d="M142 85q-7 -26 -1.5 -38t18.5 -12q11 0 27 14.5t33 64.5l18 48h19l-25 -73q-14 -41 -36 -63t-47 -31t-50 -9q-43 0 -65 20.5t-24.5 56t10.5 82.5l157 522q10 34 -2 50t-61 16l7 21q72 1 126.5 11.5t105.5 29.5z" />
    <glyph glyph-name="m" unicode="m" horiz-adv-x="856" 
d="M156 0h-141l122 432q4 13 4.5 24.5t-2.5 18.5t-15 7q-17 0 -32 -18t-31 -61l-19 -51h-19l27 76q21 59 58 81t77 22q45 0 63 -22t18 -54t-9 -64zM398 415q8 25 8.5 42.5t-16.5 17.5q-23 0 -49 -27.5t-53.5 -77.5t-54.5 -119t-51 -151l5 69q42 133 82 212.5t86 114.5
t104 35q44 0 61.5 -20.5t17.5 -55t-12 -75.5l-107 -380h-143zM665 415q9 26 8.5 43t-14.5 17q-25 0 -60 -41.5t-74 -127t-80 -216.5l2 54q36 114 68.5 189t66 118.5t69.5 61.5t77 18q43 0 62 -20.5t19.5 -54.5t-13.5 -76l-98 -295q-10 -29 -4.5 -39.5t17.5 -10.5
q13 0 29 14.5t34 64.5l18 48h19l-25 -73q-22 -63 -60 -83t-75 -20q-29 0 -49 9.5t-31 26.5q-13 20 -11.5 51t15.5 72z" />
    <glyph glyph-name="n" unicode="n" horiz-adv-x="603" 
d="M157 0h-141l121 432q5 14 6.5 25.5t-2.5 18t-15 6.5q-18 0 -32.5 -16.5t-31.5 -62.5l-19 -51h-19l27 76q20 57 52.5 80t76.5 23q48 0 67 -21.5t19 -54t-8 -64.5zM189 169q39 109 72.5 179.5t66 110.5t66.5 56t73 16q48 0 69 -21t21 -55.5t-13 -74.5l-98 -295
q-10 -28 -5 -39t18 -11t29 14.5t34 64.5l18 48h19l-25 -73q-22 -63 -60 -83t-74 -20q-57 0 -80 33q-13 20 -12.5 50.5t15.5 75.5l90 270q6 16 8 31t-1 25t-17 10q-24 0 -55 -38t-64.5 -102t-64.5 -145t-55 -167z" />
    <glyph glyph-name="o" unicode="o" horiz-adv-x="529" 
d="M331 511q-23 0 -48.5 -27.5t-50 -73.5t-44 -103t-31 -117.5t-11.5 -115.5q0 -36 8.5 -52t25.5 -16q23 0 48 26.5t49 71.5t43.5 101.5t31.5 117.5t12 118q0 42 -8.5 56t-24.5 14zM12 151q0 57 20 123t60.5 124.5t101 95.5t142.5 37q77 0 119.5 -42t42.5 -123
q0 -57 -20 -123t-60.5 -124.5t-101 -95.5t-142.5 -37q-77 0 -119.5 42t-42.5 123z" />
    <glyph glyph-name="p" unicode="p" horiz-adv-x="583" 
d="M374 478q-20 0 -43.5 -25.5t-47 -69.5t-44.5 -100t-35 -117l18 102q48 141 97.5 202t109.5 61q61 0 92.5 -39.5t31.5 -114.5q0 -46 -12.5 -99.5t-37.5 -105t-61.5 -93.5t-83.5 -67.5t-104 -25.5q-32 0 -58.5 12t-38.5 32l7 16q10 -17 22.5 -24t28.5 -7q30 0 58 24
t52.5 64t43 89.5t28.5 102t10 100.5q0 49 -9 66t-24 17zM204 658q42 3 78.5 10t70.5 18l-216 -761q-14 -52 7 -68t70 -17l-6 -21q-23 1 -66 2.5t-92 1.5q-40 0 -80 -1.5t-61 -2.5l6 21q36 0 52 13.5t26 48.5zM11 350q36 39 68 77.5t62 91.5t62 133l3 -16
q-33 -104 -79.5 -171t-104.5 -128z" />
    <glyph glyph-name="q" unicode="q" horiz-adv-x="551" 
d="M381 -87q-11 -39 5 -55t56 -18l-6 -21q-23 1 -66 2.5t-89 1.5q-42 0 -84 -1.5t-63 -2.5l6 21q48 1 69 17.5t31 52.5l155 577q33 1 70 14.5t70 30.5l16 -7q-7 -13 -12 -28t-10 -31zM188 45q18 0 40 20.5t43.5 55.5t40.5 81t31 96l-19 -102q-45 -113 -90.5 -161.5
t-101.5 -48.5q-61 0 -92.5 39.5t-31.5 114.5q0 46 14.5 99.5t41.5 105t65.5 93.5t86.5 67.5t103 25.5q29 0 52 -12t34 -32l-7 -16q-10 17 -22 24t-29 7q-30 0 -58.5 -26.5t-52.5 -70t-42.5 -96t-29 -105t-10.5 -96.5q0 -34 9 -48.5t25 -14.5z" />
    <glyph glyph-name="r" unicode="r" horiz-adv-x="470" 
d="M156 0h-141l122 432q7 27 4.5 38.5t-15.5 11.5q-18 0 -33 -17.5t-32 -61.5l-19 -51h-19l27 76q21 59 57.5 81t80.5 22t60.5 -22t16.5 -54t-8 -64zM412 509q-20 0 -43 -12t-47 -43t-50.5 -86t-54 -140.5t-56.5 -206.5l22 135q32 110 58 182t52.5 114.5t56 60.5t67.5 18
q39 0 60 -23t21 -58q0 -42 -27 -73t-68 -31q-29 0 -45 15.5t-16 44.5q0 36 24.5 64t58.5 36l-6 2t-7 1z" />
    <glyph glyph-name="s" unicode="s" horiz-adv-x="420" 
d="M74 14q8 -4 17 -5.5t22 -1.5q37 0 60.5 22.5t23.5 63.5q0 33 -14 67.5t-42 75.5q-23 36 -42.5 70t-19.5 78q0 64 48 105.5t134 41.5q37 0 71.5 -9t57.5 -31t23 -64q0 -24 -15 -49t-46 -25q-25 0 -40 18.5t-15 48.5q0 27 9.5 48.5t21.5 34.5q-13 8 -35 8q-36 0 -56.5 -22
t-21.5 -63q0 -34 18 -63.5t42 -68.5q30 -49 44.5 -84t14.5 -71q0 -43 -22.5 -77.5t-65 -55t-100.5 -20.5q-42 0 -80 11t-61.5 36.5t-23.5 68.5q0 28 14.5 50t41.5 22t42 -22.5t15 -55.5q0 -26 -7.5 -47z" />
    <glyph glyph-name="t" unicode="t" horiz-adv-x="353" 
d="M402 517l-3 -20h-347l5 20h345zM164 85q-7 -26 1.5 -38t25.5 -12q21 0 42 21t37 65l15 41h19l-20 -58q-20 -60 -58.5 -89t-91.5 -29q-70 0 -91 46t-2 113l150 521q43 1 78 4t67 10z" />
    <glyph glyph-name="u" unicode="u" horiz-adv-x="597" 
d="M393 351q-37 -110 -71 -181.5t-66.5 -111t-66.5 -56t-72 -16.5q-63 0 -82 40t5 111l97 295q10 29 4.5 39.5t-17.5 10.5q-13 0 -29 -14.5t-34 -64.5l-18 -48h-19l25 73q22 63 60 83t74 20q45 0 67 -19.5t24 -55t-14 -84.5l-90 -270q-22 -66 10 -66q24 0 55 38.5t64.5 104
t64.5 148.5t54 172zM442 85q-7 -25 -6 -37.5t17 -12.5q18 0 33.5 17.5t30.5 61.5l19 51h19l-27 -76q-20 -59 -57 -81t-77 -22q-27 0 -45.5 9t-28.5 25q-10 19 -8.5 45.5t9.5 60.5l101 391q41 1 77.5 4t67.5 10z" />
    <glyph glyph-name="v" unicode="v" horiz-adv-x="525" 
d="M467 329q-40 20 -69.5 55t-28.5 81q1 32 19 49t46 17q38 0 54 -31t13 -84q-3 -56 -17.5 -116.5t-40 -116.5t-64 -100.5t-89 -70.5t-114.5 -26q-55 0 -86 18.5t-43.5 47t-11.5 58.5q1 61 36 125t95.5 128.5t136.5 126.5q-25 -3 -45 -16t-37 -28t-33.5 -26t-34.5 -11
q-17 0 -29.5 9.5t-27.5 9.5q-14 0 -22.5 -11t-17.5 -37l-8 -27h-19l22 73q17 62 42.5 84t51.5 22q19 0 32.5 -8.5t29 -16.5t40.5 -8q16 0 34.5 4.5t38.5 16.5l10 19l21 -10q-48 -69 -83.5 -143t-56 -143.5t-22.5 -127.5q-2 -44 9 -64t36 -20q37 0 70 18.5t60 50t48 70t35 80
t20 79.5z" />
    <glyph glyph-name="w" unicode="w" horiz-adv-x="680" 
d="M298 55q-30 -30 -70 -49.5t-92 -19.5q-68 0 -101 36t-33 86q0 48 27 94.5t73.5 93.5t108 96t128.5 100l5 -2q-29 -2 -52 -15t-42.5 -28t-37 -26.5t-37.5 -11.5q-19 0 -31 9.5t-27 9.5q-14 0 -22.5 -11t-16.5 -37l-9 -27h-19l22 73q20 61 44.5 81.5t50.5 20.5
q20 0 35 -7.5t33 -14.5t46 -7q16 0 35.5 4.5t41.5 16.5l11 19l21 -10q-64 -66 -117.5 -140t-85.5 -147.5t-32 -137.5q0 -38 12 -56t39 -18q44 0 85 40zM453 47q35 0 61.5 19t45.5 50.5t30 70t15 78.5t1 75q-28 11 -58 28t-51.5 42.5t-21.5 62.5q0 23 15.5 40.5t43.5 17.5
q25 0 42.5 -17t28 -44t16 -57t6.5 -56q4 -47 -2.5 -99t-23.5 -100t-45 -87t-67.5 -62t-91.5 -23q-33 0 -63.5 12t-50 42t-19.5 83q0 46 16 88t41 75.5t52.5 53t51.5 19.5q17 0 25 -11t10.5 -26.5t2.5 -28.5q0 -60 -28 -118.5t-85 -106.5l-6 18q44 39 70 94t26 110
q0 21 -4 34t-13 13q-13 0 -28 -24t-25 -61.5t-10 -79.5q0 -34 10 -62t30.5 -45.5t52.5 -17.5z" />
    <glyph glyph-name="x" unicode="x" horiz-adv-x="565" 
d="M366 84q5 -26 13 -36t21 -10q14 0 28.5 16.5t32.5 69.5l13 37h19l-25 -73q-14 -42 -36 -64t-48 -30t-50 -8q-44 0 -74.5 21t-36.5 77l-40 349q-4 26 -13 34t-22 8t-27 -14.5t-33 -67.5l-13 -37h-19l25 73q15 42 37 64t49 30t52 8q47 0 75 -21.5t34 -84.5zM415 460
q-37 -43 -61 -98.5t-37 -99.5l-10 0.5l-10 0.5q4 17 16.5 52t33 76.5t49.5 78.5q28 35 55.5 48t54.5 13q32 0 52.5 -17t20.5 -49q0 -31 -21 -51.5t-54 -20.5q-28 0 -52.5 16t-36.5 51zM122 57q38 43 65 98t41 100l9.5 -1l9.5 -1q-8 -28 -22 -63.5t-34.5 -72t-47.5 -70.5
q-29 -34 -57 -47.5t-54 -13.5q-35 0 -54 17t-19 46q0 34 22.5 54.5t53.5 20.5q33 0 54.5 -19t32.5 -48z" />
    <glyph glyph-name="y" unicode="y" horiz-adv-x="482" 
d="M307 61l-107 -121l-80 491q-5 27 -10 37t-16 10q-10 0 -20 -13.5t-27 -60.5l-18 -49h-19l25 73q21 61 53 82t70 21q41 0 66 -22.5t34 -85.5zM68 -139q47 23 97 62.5t102 106.5q56 69 98 149.5t62 154.5q-37 21 -65 54.5t-27 74.5q0 32 18 50t49 18q35 0 50.5 -24
t15.5 -67q0 -47 -16 -103t-44 -115.5t-63 -115.5t-74 -102q-31 -39 -69.5 -73t-81 -61t-88.5 -43q-22 -8 -40 -11.5t-31 -3.5q-32 0 -50.5 14.5t-18.5 41.5q0 26 19.5 44t49.5 18q32 0 58.5 -18.5t48.5 -50.5z" />
    <glyph glyph-name="z" unicode="z" horiz-adv-x="464" 
d="M33 56q32 15 60.5 34t54.5 34t49 15q24 0 40 -8t31.5 -16t34.5 -8t28 10.5t9 24.5q0 23 -17 37.5t-41 19.5l6 15q54 -12 80 -38t26 -69q0 -47 -30.5 -82.5t-96.5 -35.5q-30 0 -54 8t-45 19t-44.5 19t-55.5 8q-27 0 -48.5 -8.5t-42.5 -34.5h-29l486 467
q-27 -12 -51.5 -28.5t-47.5 -31.5t-44 -25.5t-41 -10.5q-23 0 -39.5 8t-31 16t-34.5 8q-18 0 -27.5 -9t-9.5 -26q0 -21 15 -34t43 -23l-6 -15q-51 12 -78.5 37.5t-27.5 66.5q0 31 15.5 59.5t47.5 47t80 18.5q32 0 54.5 -8t43 -18t43.5 -18t53 -8q29 0 50 9.5t42 33.5h29z
" />
    <glyph glyph-name="braceleft" unicode="{" horiz-adv-x="361" 
d="M214 -188q-77 -1 -118.5 14t-56 44.5t-10.5 73t18 99.5q16 67 24.5 111.5t8.5 72.5q-1 31 -12.5 44t-34.5 15h-5l3 18h5q31 2 53.5 24t41.5 73.5t42 145.5q23 95 58.5 145.5t89.5 70t133 19.5l-5 -19q-24 0 -41 -6.5t-30.5 -28t-27.5 -64.5t-33 -117q-23 -91 -58.5 -141
t-85 -74.5t-115.5 -36.5q58 -13 91 -34t46.5 -51.5t11 -72t-15.5 -94.5q-15 -61 -22.5 -100t-6.5 -62q0 -31 14 -40t43 -10z" />
    <glyph glyph-name="bar" unicode="|" horiz-adv-x="369" 
d="M238 858v-1053h-88v1053h88z" />
    <glyph glyph-name="braceright" unicode="}" horiz-adv-x="361" 
d="M148 782q77 1 118.5 -14t56 -44.5t10.5 -73t-18 -99.5q-16 -67 -24.5 -111.5t-8.5 -72.5q1 -31 12.5 -44t34.5 -15h5l-3 -18h-5q-31 -2 -53.5 -24t-41.5 -73.5t-42 -145.5q-23 -95 -58.5 -145.5t-89.5 -70t-133 -19.5l5 19q24 0 41 6.5t30.5 28t27.5 64.5t33 117
q23 91 58.5 141t85 74.5t115.5 36.5q-58 13 -91 34t-46.5 51.5t-11 72t15.5 94.5q15 61 22.5 100t6.5 62q0 31 -14 40t-43 10z" />
    <glyph glyph-name="asciitilde" unicode="~" horiz-adv-x="645" 
d="M401 213q-38 0 -67 12t-54.5 27t-52.5 27t-62 12q-29 0 -55.5 -13t-46.5 -45l-14 5q28 72 81.5 113.5t119.5 41.5q38 0 67 -12t54.5 -27t52.5 -27t62 -12q29 0 55.5 13t46.5 45l14 -5q-28 -71 -81 -113t-120 -42z" />
    <glyph glyph-name="uni00A0" unicode="&#xa0;" horiz-adv-x="255" 
 />
    <glyph glyph-name="exclamdown" unicode="&#xa1;" horiz-adv-x="296" 
d="M160 316q-18 -73 -23.5 -144.5t-6 -138t-5.5 -124.5q-1 -46 -26.5 -71.5t-71.5 -25.5q-34 0 -53 17.5t-16 50.5q4 38 26 85.5t51.5 103.5t58.5 119t48 131zM112 437q0 40 28.5 67t68.5 27q32 0 50 -16t18 -46q0 -36 -29 -64t-69 -28q-32 0 -49.5 16t-17.5 44z" />
    <glyph glyph-name="cent" unicode="&#xa2;" horiz-adv-x="477" 
d="M378 708l-239 -889h-22l239 889h22zM360 511q-38 0 -74 -31.5t-64.5 -84.5t-45.5 -119t-17 -136q0 -53 21 -76.5t55 -23.5q32 0 65 19t67 69l20 -8q-20 -33 -51.5 -64t-73 -50.5t-93.5 -19.5q-69 0 -114 37.5t-45 116.5q0 62 23.5 130t68 127.5t107.5 96.5t142 37
q54 0 87.5 -27.5t33.5 -68.5q0 -27 -13 -52.5t-35.5 -42t-50.5 -16.5q-24 0 -40.5 15.5t-16.5 42.5q0 41 28 70.5t63 38.5q-8 10 -19 15t-28 5z" />
    <glyph glyph-name="sterling" unicode="&#xa3;" horiz-adv-x="672" 
d="M452 317l-6 -20h-391l6 20h391zM479 417l-6 -20h-391l6 20h391zM526 721q-43 1 -70.5 -21t-45.5 -61t-33 -91l-45 -172q-12 -49 -32.5 -83t-46.5 -59.5t-54 -48.5t-56 -50t-53 -64q43 37 89.5 59t95.5 22q45 0 78.5 -10t62 -19.5t58.5 -9.5q21 0 36.5 11t15.5 32
q0 20 -16.5 34.5t-53.5 21.5l5 18q32 -4 61.5 -17.5t48 -36t18.5 -56.5q0 -36 -19.5 -67t-54 -49t-80.5 -18q-42 0 -74 12.5t-61 29.5t-61 29.5t-74 12.5q-20 0 -40.5 -3t-41.5 -12q-21 -35 -47.5 -52t-50.5 -17q-13 0 -13 10q0 16 24 39.5t75 33.5q17 34 34.5 76t36.5 113
l48 181q22 83 65 150.5t110 107t163 39.5q56 0 87 -27t31 -64q0 -45 -26 -73t-65 -28q-30 0 -48.5 16t-18.5 47q0 36 21.5 63t56.5 35q-2 7 -13.5 11.5t-26.5 4.5z" />
    <glyph glyph-name="currency" unicode="&#xa4;" horiz-adv-x="658" 
d="M217 300q0 -37 15.5 -64.5t42 -43t57.5 -15.5q32 0 58 15.5t41.5 43t15.5 64.5t-15.5 65t-41.5 43.5t-58 15.5q-31 0 -57.5 -15.5t-42 -43.5t-15.5 -65zM83 138l58 58q-13 23 -20.5 49t-7.5 55q0 55 29 104l-59 58l85 85l58 -58q23 14 49.5 21.5t55.5 7.5q28 0 54.5 -7.5
t49.5 -21.5l59 59l85 -85l-59 -59q14 -23 21.5 -49t7.5 -55t-7.5 -55.5t-21.5 -49.5l58 -58l-85 -85l-59 59q-23 -13 -49 -20.5t-54 -7.5q-59 0 -104 28l-58 -58z" />
    <glyph glyph-name="yen" unicode="&#xa5;" horiz-adv-x="776" 
d="M569 217l-5 -20h-431l5 20h431zM591 297l-5 -20h-431l5 20h431zM409 106q-13 -55 3.5 -69.5t67.5 -16.5l-5 -20q-18 1 -47 1.5t-62 1t-63 0.5q-48 0 -91.5 -0.5t-69.5 -2.5l5 20q34 2 53 8t30 24t20 54l69 274l65 -63l69 19l34 80zM732 703q-16 0 -30 -5.5t-30 -17.5
q-29 -20 -68.5 -72.5t-80.5 -137t-76 -200.5l-137 -5q-4 47 -10.5 99t-16.5 102.5t-23.5 92t-30.5 65.5t-39 24q-18 0 -29 -13.5t-17 -33.5l-22 -63h-11h-11l26 77q20 59 56 83t85 24q68 0 104.5 -42t55 -122t31.5 -193q33 96 75.5 170.5t87.5 124.5q23 25 53.5 43.5
t65.5 18.5q45 0 69 -26t23 -62q0 -37 -25.5 -62.5t-64.5 -25.5q-34 0 -51.5 17t-17.5 44q0 34 22 58.5t53 33.5q-3 2 -7 3t-9 1z" />
    <glyph glyph-name="brokenbar" unicode="&#xa6;" horiz-adv-x="372" 
d="M152 -195v521h88v-521h-88zM240 858v-474h-88v474h88z" />
    <glyph glyph-name="section" unicode="&#xa7;" horiz-adv-x="576" 
d="M506 740q-3 8 -15 13t-27 7.5t-30 2.5q-34 0 -64.5 -13.5t-50 -41.5t-19.5 -70q0 -29 15 -52t41 -45t58 -50q56 -47 90.5 -84t34.5 -86q0 -55 -30.5 -96t-76.5 -70t-95 -50l-7 12q21 13 39.5 27.5t31 34t15.5 46.5q4 28 -7 51t-38.5 49.5t-74.5 62.5q-66 53 -102.5 94.5
t-36.5 93.5q0 50 24.5 88t65 64.5t89 40t95.5 13.5q21 0 48 -4t52.5 -13.5t42 -27.5t16.5 -46q0 -36 -27.5 -65t-67.5 -29q-29 0 -45 15.5t-16 39.5q0 30 22 53.5t50 34.5zM143 -169q34 0 64 13.5t49.5 41.5t19.5 71q0 29 -15 52t-40.5 44.5t-58.5 49.5q-56 48 -90 84.5
t-34 85.5q0 55 30 95.5t76.5 70.5t94.5 50l7 -12q-20 -12 -40.5 -29.5t-34 -40t-13.5 -50.5q0 -35 30 -68.5t92 -82.5q66 -53 103 -94.5t37 -93.5q0 -50 -25 -88t-65 -64.5t-88.5 -40t-95.5 -13.5q-22 0 -49 4t-52 13.5t-41 27.5t-16 46q0 37 27 65.5t67 28.5q29 0 44.5 -14
t15.5 -37q0 -33 -21 -56.5t-50 -35.5q5 -11 27 -17t45 -6z" />
    <glyph glyph-name="dieresis" unicode="&#xa8;" horiz-adv-x="480" 
d="M157 676q0 40 26 62t60 22q32 0 48.5 -18.5t16.5 -47.5q0 -42 -27 -63t-60 -21t-48.5 18t-15.5 48zM384 676q0 40 26.5 62t59.5 22t49 -18.5t16 -47.5q0 -42 -26.5 -63t-59.5 -21t-49 18t-16 48z" />
    <glyph glyph-name="copyright" unicode="&#xa9;" horiz-adv-x="911" 
d="M81 384q0 83 31 155t85.5 126.5t127 85.5t154.5 31q83 0 155 -31t126.5 -85.5t85.5 -126.5t31 -155q0 -82 -31 -154.5t-85.5 -127t-126.5 -85.5t-155 -31q-82 0 -154.5 31t-127 85.5t-85.5 127t-31 154.5zM121 384q0 -76 28 -142t77 -116.5t114 -79t139 -28.5t139 28.5
t114 79t77 116.5t28 142t-28 142t-77 116.5t-114 79t-139 28.5t-139 -28.5t-114 -79t-77 -116.5t-28 -142zM537 176q19 0 41.5 8t46 29t43.5 63l18 -7q-11 -36 -36 -73t-65 -60.5t-98 -23.5q-65 0 -117.5 28.5t-84 88t-31.5 153.5q0 90 32 151.5t88.5 92.5t127.5 31
q43 0 84 -13t68.5 -40.5t27.5 -70.5q0 -35 -22.5 -57.5t-56.5 -22.5q-35 0 -56 20.5t-21 54.5q0 31 19 52.5t47 28.5q-10 10 -29 17.5t-41 7.5q-33 0 -59.5 -20.5t-42 -72t-15.5 -146.5q0 -84 19.5 -132t50 -67.5t62.5 -19.5z" />
    <glyph glyph-name="ordfeminine" unicode="&#xaa;" horiz-adv-x="532" 
d="M451 450q-6 -19 -4 -30t16 -11t25 10t19 34l9 25h19l-13 -36q-15 -44 -45 -63t-72 -19q-29 0 -48 11t-24 37.5t8 72.5l66 232q73 0 130 9zM256 407q20 0 45.5 32t48.5 83t33 105l-12 -79q-23 -74 -51.5 -115t-59.5 -57t-64 -16q-47 0 -72 24t-25 69q0 46 23 93t60.5 87
t83.5 64.5t92 24.5q17 0 31.5 -9.5t9.5 -45.5l-7 -16q1 26 -6.5 36.5t-17.5 10.5q-19 0 -42.5 -20.5t-44.5 -55t-35 -77.5t-14 -87q0 -51 24 -51z" />
    <glyph glyph-name="guillemotleft" unicode="&#xab;" horiz-adv-x="586" 
d="M368 531q-15 -32 -38.5 -71.5t-51.5 -79.5t-57 -73.5t-52 -53.5q21 -25 41 -73t34 -100.5t17 -93.5h-18q-47 74 -101 140t-123 121l3 12q92 58 171.5 126.5t156.5 145.5h18zM558 507q-12 -29 -33 -65.5t-46 -72.5t-50.5 -66.5t-46.5 -49.5q18 -23 35.5 -66t30 -91.5
t15.5 -85.5h-18q-44 67 -93.5 127.5t-113.5 109.5l3 12q84 53 157 115.5t142 132.5h18z" />
    <glyph glyph-name="logicalnot" unicode="&#xac;" horiz-adv-x="646" 
d="M86 340l9 30h501l-59 -205h-36l50 175h-465z" />
    <glyph glyph-name="uni00AD" unicode="&#xad;" horiz-adv-x="506" 
 />
    <glyph glyph-name="registered" unicode="&#xae;" horiz-adv-x="685" 
d="M398 782q77 0 140.5 -37.5t101 -101t37.5 -140.5t-37.5 -140.5t-101 -101t-140.5 -37.5t-140.5 37.5t-101 101t-37.5 140.5t37.5 140.5t101 101t140.5 37.5zM332 523q34 0 48.5 -1t22 -2.5t18.5 -3.5q53 -4 72.5 -18t24.5 -41l15 -65q2 -12 5 -18t10 -6t11 6l8 -10
q-8 -9 -21 -13.5t-31 -4.5q-32 0 -48.5 11t-20.5 32l-15 73q-3 19 -10.5 29t-26 13.5t-60.5 3.5zM398 750q-66 0 -120 -33.5t-85.5 -89.5t-31.5 -124q0 -67 31.5 -123.5t85.5 -90t120 -33.5t120 33.5t85.5 90t31.5 123.5q0 68 -31.5 124t-85.5 89.5t-120 33.5zM410 676
q65 0 93.5 -20.5t28.5 -58.5q0 -17 -11.5 -36t-42.5 -33t-90 -17l-61 -3v8v8h53q38 0 53 18t15 49q0 35 -12.5 52.5t-41.5 17.5q-15 0 -20.5 -6t-5.5 -22v-229q0 -23 4.5 -29t18.5 -8v-15q-12 0 -28.5 0.5t-33.5 0.5q-20 0 -38 -0.5t-29 -0.5v15q14 2 18.5 8t4.5 29v219
q0 24 -4.5 30.5t-18.5 7.5v15q11 -1 28.5 -1h33.5q28 0 52 0.5t34 0.5z" />
    <glyph glyph-name="macron" unicode="&#xaf;" horiz-adv-x="436" 
d="M499 712l-6 -25h-336l6 25h336z" />
    <glyph glyph-name="degree" unicode="&#xb0;" horiz-adv-x="333" 
d="M261 820q49 0 85.5 -32t36.5 -88t-36.5 -88.5t-85.5 -32.5q-48 0 -84.5 32.5t-36.5 88.5t36.5 88t84.5 32zM261 598q34 0 66 25.5t32 76.5q0 49 -32 75t-66 26t-65.5 -26t-31.5 -75q0 -51 31.5 -76.5t65.5 -25.5z" />
    <glyph glyph-name="plusminus" unicode="&#xb1;" horiz-adv-x="618" 
d="M-24 0l9 30h501l-9 -30h-501zM80 370h233l67 236h36l-67 -236h232l-9 -30h-232l-67 -235h-36l67 235h-233z" />
    <glyph glyph-name="uni00B2" unicode="&#xb2;" horiz-adv-x="356" 
d="M302 754q39 0 64.5 -13.5t25.5 -42.5t-21.5 -54.5t-53.5 -48.5t-65.5 -43t-57.5 -38q25 0 61.5 -9t61.5 -9q18 0 29.5 7.5t11.5 22.5q0 10 -4 18l17 7q7 -11 11.5 -23.5t4.5 -25.5q0 -28 -23 -48.5t-70 -20.5q-33 0 -65.5 8t-74.5 10q-25 1 -40 -2t-38 -12l4 18
q20 14 55 37.5t72.5 53t63.5 63t26 66.5q0 23 -13.5 32t-36.5 9q-24 0 -49.5 -11.5t-49.5 -36.5l-14 11q24 29 67 52t101 23z" />
    <glyph glyph-name="uni00B3" unicode="&#xb3;" horiz-adv-x="339" 
d="M306 754q40 0 66 -13t26 -41t-27 -51.5t-65.5 -39.5t-70.5 -23q56 -1 94.5 -17.5t38.5 -56.5q0 -37 -32 -66.5t-83 -50t-108 -33t-107 -15.5v18q55 5 108.5 24t89.5 52t36 79q0 27 -12.5 38.5t-30.5 13.5q-11 -6 -19 -8t-13 -2q-6 0 -12 3t-6 10q0 10 12.5 14t31.5 3
q35 15 58 38t23 51q0 19 -12 28t-31 9q-25 0 -51.5 -11.5t-56.5 -39.5l-14 12q22 25 66.5 50t100.5 25z" />
    <glyph glyph-name="acute" unicode="&#xb4;" horiz-adv-x="296" 
d="M137 609q37 52 59 90t39.5 67t38.5 50q19 20 45.5 25.5t45.5 -14.5q18 -17 13 -39.5t-28 -45.5q-20 -20 -48.5 -38.5t-66.5 -42.5t-88 -62z" />
    <glyph glyph-name="paragraph" unicode="&#xb6;" horiz-adv-x="708" 
d="M413 331q-18 -79 -27 -143.5t-11 -102t1 -37.5l8.5 32.5t23 86.5t32 118.5t34.5 129.5t31.5 119t24 87.5t9.5 34.5q-3 0 -22 -39t-44.5 -103.5t-48.5 -141.5q-76 0 -139 -4t-100.5 -9t-38.5 -8q0 -3 35 -8t95.5 -8.5t136.5 -3.5zM358 -13q-115 0 -185 30.5t-101.5 85
t-31.5 126.5q0 99 36 186t100.5 153t150 103.5t184.5 37.5q50 0 94 -1.5t86 -1.5q23 0 48 0.5t48 1.5l-5 -19q-49 -2 -67.5 -18.5t-27.5 -49.5l-143 -545q-20 -77 -57 -136.5t-96 -93.5t-147 -34q-59 0 -99.5 17t-40.5 58q0 32 23 54.5t63 22.5q32 0 53 -14t21 -42
q0 -24 -14 -43t-39 -33q7 -2 14 -2.5t14 -0.5q46 0 71 40.5t48 117.5z" />
    <glyph glyph-name="periodcentered" unicode="&#xb7;" horiz-adv-x="289" 
d="M54 247q0 40 28.5 67t68.5 27q32 0 50 -16t18 -45q0 -36 -29 -64.5t-69 -28.5q-32 0 -49.5 16t-17.5 44z" />
    <glyph glyph-name="cedilla" unicode="&#xb8;" horiz-adv-x="339" 
d="M127 0l-44 -69q12 4 26.5 7t27.5 3q25 0 42.5 -10t17.5 -32q0 -31 -25 -50t-63 -28t-76 -9q-31 0 -54.5 6.5t-34.5 13.5l6 15q8 -2 23 -6.5t38 -4.5q11 0 29.5 3.5t33.5 13.5t15 29q0 23 -28 23q-5 0 -14 -1.5t-17 -5.5l69 102h28z" />
    <glyph glyph-name="uni00B9" unicode="&#xb9;" horiz-adv-x="268" 
d="M336 753l-101 -316h-95l76 234q-23 -10 -47.5 -19.5t-61.5 -17.5l5 19q81 22 125.5 48.5t79.5 51.5h19z" />
    <glyph glyph-name="ordmasculine" unicode="&#xba;" horiz-adv-x="491" 
d="M354 704q-23 0 -45 -24.5t-39.5 -64.5t-28 -86.5t-10.5 -91.5q0 -58 36 -58q23 0 45 24.5t39.5 64t28 86.5t10.5 92q0 58 -36 58zM105 483q0 34 16.5 75t48 78.5t79 61.5t110.5 24q72 0 114.5 -30t42.5 -93q0 -34 -16 -75t-48 -78.5t-79.5 -61t-110.5 -23.5
q-71 0 -114 30t-43 92z" />
    <glyph glyph-name="guillemotright" unicode="&#xbb;" horiz-adv-x="585" 
d="M324 531q47 -74 101 -140.5t124 -121.5l-3 -12q-92 -57 -172 -125t-157 -146h-18q15 32 38.5 71.5t51.5 79t56.5 73t52.5 53.5q-21 26 -41 73.5t-33.5 100.5t-17.5 94h18zM122 507q44 -66 94 -127t113 -111l-3 -12q-83 -52 -156 -114.5t-142 -132.5h-18q12 29 33 65
t46 72.5t49.5 67t45.5 48.5q-17 24 -34.5 67t-29.5 91.5t-16 85.5h18z" />
    <glyph glyph-name="onequarter" unicode="&#xbc;" horiz-adv-x="668" 
d="M720 824l15 -13l-833 -866l-15 13zM336 753l-101 -316h-95l76 234q-23 -10 -47.5 -19.5t-61.5 -17.5l5 19q81 22 125.5 48.5t79.5 51.5h19zM479 317l5 -21l-299 -257l19 28h273l-17 -59h-322l5 18zM498 317l-117 -402h-76l92 317l82 85h19z" />
    <glyph glyph-name="onehalf" unicode="&#xbd;" horiz-adv-x="621" 
d="M720 824l15 -13l-833 -866l-15 13zM336 753l-101 -316h-95l76 234q-23 -10 -47.5 -19.5t-61.5 -17.5l5 19q81 22 125.5 48.5t79.5 51.5h19zM469 317q39 0 64.5 -13.5t25.5 -42.5t-21.5 -54.5t-53.5 -48.5t-65.5 -43t-57.5 -38q25 0 61.5 -9t61.5 -9q18 0 29.5 7.5
t11.5 22.5q0 10 -4 18l17 7q7 -11 11.5 -23.5t4.5 -25.5q0 -28 -23 -48.5t-70 -20.5q-33 0 -65.5 8t-74.5 10q-25 1 -40 -2t-38 -12l4 18q20 14 55 37.5t72.5 53t63.5 63t26 66.5q0 23 -13.5 32t-36.5 9q-24 0 -49.5 -11.5t-49.5 -36.5l-14 11q24 29 67 52t101 23z" />
    <glyph glyph-name="threequarters" unicode="&#xbe;" horiz-adv-x="750" 
d="M820 824l15 -13l-833 -866l-15 13zM306 754q40 0 66 -13t26 -41t-27 -51.5t-65.5 -39.5t-70.5 -23q56 -1 94.5 -17.5t38.5 -56.5q0 -37 -32 -66.5t-83 -50t-108 -33t-107 -15.5v18q55 5 108.5 24t89.5 52t36 79q0 27 -12.5 38.5t-30.5 13.5q-11 -6 -19 -8t-13 -2
q-6 0 -12 3t-6 10q0 10 12.5 14t31.5 3q35 15 58 38t23 51q0 19 -12 28t-31 9q-25 0 -51.5 -11.5t-56.5 -39.5l-14 12q22 25 66.5 50t100.5 25zM579 317l5 -21l-299 -257l19 28h273l-17 -59h-322l5 18zM598 317l-117 -402h-76l92 317l82 85h19z" />
    <glyph glyph-name="questiondown" unicode="&#xbf;" horiz-adv-x="488" 
d="M187 -166q13 0 30 2.5t33 8t24 14.5q-24 3 -42 21t-18 43q1 29 23.5 47t52.5 18q27 0 46.5 -15.5t19.5 -46.5t-19.5 -53t-51 -35.5t-69.5 -19.5t-74 -6q-84 0 -135 29t-51 83q0 30 16.5 54.5t51 51t88.5 62.5q43 30 72 51.5t43.5 43t14.5 48.5q0 24 -15 42.5t-51 18.5
q-21 0 -43 -6.5t-33 -17.5q18 -1 34 -15.5t16 -37.5q0 -24 -19.5 -41t-49.5 -17q-23 0 -39 12.5t-16 38.5q0 29 18.5 48.5t48 32t63.5 18.5t64 6q70 0 117.5 -27t47.5 -77q0 -34 -22 -62.5t-56.5 -54.5t-73.5 -53q-67 -44 -98.5 -73t-31.5 -68q0 -32 23 -50t61 -18zM209 437
q0 40 28.5 67t68.5 27q32 0 50 -16t18 -46q0 -36 -29 -64t-69 -28q-32 0 -49.5 16t-17.5 44z" />
    <glyph glyph-name="Agrave" unicode="&#xc0;" horiz-adv-x="653" 
d="M60 143q-31 -43 -32 -69.5t22 -39t62 -14.5l-5 -20q-42 2 -72.5 2.5t-57.5 0.5q-23 0 -38 -0.5t-31 -2.5l4 20q25 7 50 29.5t63 76.5l417 587q13 -1 26.5 -1t24.5 1l40 -629q3 -36 18.5 -49.5t30.5 -14.5l-4 -20q-25 2 -66.5 2.5t-78.5 0.5q-45 0 -85 -0.5t-65 -2.5l4 20
q48 2 68.5 17.5t17.5 66.5l-24 460l34 36zM153 288h292l-8 -20h-302zM515 771q-51 24 -86 36t-59.5 20.5t-45.5 21.5q-19 13 -27.5 34t3.5 42q13 22 38.5 23.5t44.5 -10.5q21 -12 36.5 -33.5t39 -51.5t64.5 -71z" />
    <glyph glyph-name="Aacute" unicode="&#xc1;" horiz-adv-x="653" 
d="M60 143q-31 -43 -32 -69.5t22 -39t62 -14.5l-5 -20q-42 2 -72.5 2.5t-57.5 0.5q-23 0 -38 -0.5t-31 -2.5l4 20q25 7 50 29.5t63 76.5l417 587q13 -1 26.5 -1t24.5 1l40 -629q3 -36 18.5 -49.5t30.5 -14.5l-4 -20q-25 2 -66.5 2.5t-78.5 0.5q-45 0 -85 -0.5t-65 -2.5l4 20
q48 2 68.5 17.5t17.5 66.5l-24 460l34 36zM153 288h292l-8 -20h-302zM453 784q50 39 82 70t56.5 53.5t51.5 37.5q21 12 49.5 11.5t41.5 -27.5q12 -23 -1.5 -43.5t-38.5 -33.5q-37 -21 -92 -33.5t-142 -46.5z" />
    <glyph glyph-name="Acircumflex" unicode="&#xc2;" horiz-adv-x="653" 
d="M60 143q-31 -43 -32 -69.5t22 -39t62 -14.5l-5 -20q-42 2 -72.5 2.5t-57.5 0.5q-23 0 -38 -0.5t-31 -2.5l4 20q25 7 50 29.5t63 76.5l417 587q13 -1 26.5 -1t24.5 1l40 -629q3 -36 18.5 -49.5t30.5 -14.5l-4 -20q-25 2 -66.5 2.5t-78.5 0.5q-45 0 -85 -0.5t-65 -2.5l4 20
q48 2 68.5 17.5t17.5 66.5l-24 460l34 36zM153 288h292l-8 -20h-302zM474 830q-43 -16 -100.5 -32t-117.5 -27l-5 14q84 26 156 68t115 87h18q22 -52 53 -90t86 -65l-4 -14q-72 12 -116 27t-85 32z" />
    <glyph glyph-name="Atilde" unicode="&#xc3;" horiz-adv-x="653" 
d="M60 143q-31 -43 -32 -69.5t22 -39t62 -14.5l-5 -20q-42 2 -72.5 2.5t-57.5 0.5q-23 0 -38 -0.5t-31 -2.5l4 20q25 7 50 29.5t63 76.5l417 587q13 -1 26.5 -1t24.5 1l40 -629q3 -36 18.5 -49.5t30.5 -14.5l-4 -20q-25 2 -66.5 2.5t-78.5 0.5q-45 0 -85 -0.5t-65 -2.5l4 20
q48 2 68.5 17.5t17.5 66.5l-24 460l34 36zM153 288h292l-8 -20h-302zM438 927q37 0 61.5 -11t43 -25.5t38 -25.5t47.5 -11q21 0 40 13.5t37 44.5l18 -5q-29 -74 -74.5 -106.5t-91.5 -32.5q-37 0 -61.5 11t-43 25.5t-38 25.5t-47.5 11q-21 0 -39.5 -13t-37.5 -45l-18 5
q28 74 74 106.5t92 32.5z" />
    <glyph glyph-name="Adieresis" unicode="&#xc4;" horiz-adv-x="653" 
d="M60 143q-31 -43 -32 -69.5t22 -39t62 -14.5l-5 -20q-42 2 -72.5 2.5t-57.5 0.5q-23 0 -38 -0.5t-31 -2.5l4 20q25 7 50 29.5t63 76.5l417 587q13 -1 26.5 -1t24.5 1l40 -629q3 -36 18.5 -49.5t30.5 -14.5l-4 -20q-25 2 -66.5 2.5t-78.5 0.5q-45 0 -85 -0.5t-65 -2.5l4 20
q48 2 68.5 17.5t17.5 66.5l-24 460l34 36zM153 288h292l-8 -20h-302zM292 832q0 40 26.5 62.5t59.5 22.5t49 -19t16 -48q0 -41 -27 -62.5t-60 -21.5q-32 0 -48 18.5t-16 47.5zM532 832q0 40 26 62.5t60 22.5q32 0 48.5 -19t16.5 -48q0 -41 -27 -62.5t-60 -21.5t-48.5 18.5
t-15.5 47.5z" />
    <glyph glyph-name="Aring" unicode="&#xc5;" horiz-adv-x="653" 
d="M60 143q-31 -43 -32 -69.5t22 -39t62 -14.5l-5 -20q-42 2 -72.5 2.5t-57.5 0.5q-23 0 -38 -0.5t-31 -2.5l4 20q25 7 50 29.5t63 76.5l417 587q13 -1 26.5 -1t24.5 1l40 -629q3 -36 18.5 -49.5t30.5 -14.5l-4 -20q-25 2 -66.5 2.5t-78.5 0.5q-45 0 -85 -0.5t-65 -2.5l4 20
q48 2 68.5 17.5t17.5 66.5l-24 460l34 36zM153 288h292l-8 -20h-302zM497 937q42 0 70 -23t28 -62q0 -30 -17 -55t-45.5 -40t-61.5 -15q-40 0 -67.5 23t-27.5 63q0 47 35.5 78t85.5 31zM475 763q36 0 65 25.5t29 62.5q0 33 -24.5 49t-50.5 16q-37 0 -64 -26.5t-27 -61.5
q0 -32 22.5 -48.5t49.5 -16.5z" />
    <glyph glyph-name="AE" unicode="&#xc6;" horiz-adv-x="905" 
d="M611 773l-577 -679q-29 -33 -28 -51t61 -23v-20q-13 2 -37 2.5t-49 0.5q-18 0 -36.5 -0.5t-30.5 -2.5v20q31 2 86 64l585 689h26zM234 346l19 20h468l-4 -20h-483zM650 366q45 0 66 34.5t37 77.5h22q-13 -39 -19.5 -64.5t-14.5 -57.5q-6 -22 -11.5 -47t-14.5 -75h-22
q0 23 4 48t-4.5 43.5t-46.5 20.5zM503 106q-14 -55 -3 -69t60 -14h73q48 0 79.5 17t54.5 55.5t45 104.5h22q-5 -13 -10.5 -32t-10.5 -40q-5 -19 -13 -54.5t-13 -73.5q-51 2 -113.5 2.5t-112.5 0.5h-89.5t-117.5 -0.5t-117 -2.5l4 20q34 2 53 8t30 24t20 54l132 496
q14 55 2.5 69.5t-61.5 16.5l5 20q54 -1 116 -2t117.5 -1h89.5q46 0 103 0.5t104 2.5q-13 -35 -23 -68t-15 -50q-5 -18 -8 -34.5l-5 -27.5h-22q16 89 -2.5 123t-78.5 34h-63q-33 0 -51.5 -5.5t-28.5 -23t-20 -54.5z" />
    <glyph glyph-name="Ccedilla" unicode="&#xc7;" horiz-adv-x="693" 
d="M746 708q-15 -39 -31 -94.5t-33 -135.5h-22q8 51 7.5 89t-16.5 66q-19 35 -49 50t-69 15q-50 0 -96 -27t-85 -74.5t-68.5 -109t-46 -131.5t-16.5 -142q0 -102 36.5 -150t98.5 -48q37 0 78 17t72 49q27 28 46.5 64t43.5 94h22q-25 -91 -38.5 -146.5t-20.5 -93.5h-22
q3 21 3 34q0 21 -8 25t-25 -8q-41 -28 -87.5 -46.5t-108.5 -18.5q-136 0 -202 64.5t-66 183.5q0 70 22.5 140t65 132.5t102 111t132.5 76.5t156 28q62 0 94 -19.5t55 -45.5q13 -15 26 -3t29 54h21zM332 6l-31 -69q29 10 58 10q30 0 48.5 -11.5t18.5 -36.5q0 -31 -26 -50
t-65 -28t-79 -9q-36 0 -65.5 6.5t-43.5 13.5l6 15q9 -2 31.5 -6.5t49.5 -4.5q15 0 36.5 3.5t37.5 13.5t16 29q0 23 -32 23q-6 0 -16 -1.5t-19 -5.5l48 108h27z" />
    <glyph glyph-name="Egrave" unicode="&#xc8;" horiz-adv-x="626" 
d="M225 346l5 20h198l-5 -20h-198zM330 366q38 0 64 19t44.5 46.5t28.5 54.5h23q-16 -46 -23 -73.5t-14 -56.5q-5 -18 -9 -35t-8.5 -38.5t-11.5 -56.5h-22q2 27 -2.5 54.5t-22 46.5t-58.5 19zM598 528q4 59 -5 93.5t-34.5 49t-70.5 14.5h-31q-33 0 -51.5 -5.5t-29 -23
t-20.5 -54.5l-132 -496q-15 -55 -3.5 -69t60.5 -14h37q54 0 91 17t66.5 55.5t58.5 104.5h23q-5 -13 -11 -32t-11 -40q-5 -19 -13 -54.5t-13 -73.5q-51 2 -114 2.5t-113 0.5h-90t-118 -0.5t-117 -2.5l5 20q34 2 53 8t29.5 24t20.5 54l132 496q14 55 2.5 69.5t-61.5 16.5l5 20
q55 -1 117 -2t118 -1h90q45 0 101.5 0.5t101.5 2.5q-13 -35 -22 -63t-16 -55q-4 -18 -7.5 -34t-5.5 -28h-22zM475 771q-51 24 -86 36t-59.5 20.5t-45.5 21.5q-19 13 -27.5 34t3.5 42q13 22 38.5 23.5t44.5 -10.5q21 -12 36.5 -33.5t39 -51.5t64.5 -71z" />
    <glyph glyph-name="Eacute" unicode="&#xc9;" horiz-adv-x="626" 
d="M225 346l5 20h198l-5 -20h-198zM330 366q38 0 64 19t44.5 46.5t28.5 54.5h23q-16 -46 -23 -73.5t-14 -56.5q-5 -18 -9 -35t-8.5 -38.5t-11.5 -56.5h-22q2 27 -2.5 54.5t-22 46.5t-58.5 19zM598 528q4 59 -5 93.5t-34.5 49t-70.5 14.5h-31q-33 0 -51.5 -5.5t-29 -23
t-20.5 -54.5l-132 -496q-15 -55 -3.5 -69t60.5 -14h37q54 0 91 17t66.5 55.5t58.5 104.5h23q-5 -13 -11 -32t-11 -40q-5 -19 -13 -54.5t-13 -73.5q-51 2 -114 2.5t-113 0.5h-90t-118 -0.5t-117 -2.5l5 20q34 2 53 8t29.5 24t20.5 54l132 496q14 55 2.5 69.5t-61.5 16.5l5 20
q55 -1 117 -2t118 -1h90q45 0 101.5 0.5t101.5 2.5q-13 -35 -22 -63t-16 -55q-4 -18 -7.5 -34t-5.5 -28h-22zM413 784q50 39 82 70t56.5 53.5t51.5 37.5q21 12 49.5 11.5t41.5 -27.5q12 -23 -1.5 -43.5t-38.5 -33.5q-37 -21 -92 -33.5t-142 -46.5z" />
    <glyph glyph-name="Ecircumflex" unicode="&#xca;" horiz-adv-x="626" 
d="M225 346l5 20h198l-5 -20h-198zM330 366q38 0 64 19t44.5 46.5t28.5 54.5h23q-16 -46 -23 -73.5t-14 -56.5q-5 -18 -9 -35t-8.5 -38.5t-11.5 -56.5h-22q2 27 -2.5 54.5t-22 46.5t-58.5 19zM598 528q4 59 -5 93.5t-34.5 49t-70.5 14.5h-31q-33 0 -51.5 -5.5t-29 -23
t-20.5 -54.5l-132 -496q-15 -55 -3.5 -69t60.5 -14h37q54 0 91 17t66.5 55.5t58.5 104.5h23q-5 -13 -11 -32t-11 -40q-5 -19 -13 -54.5t-13 -73.5q-51 2 -114 2.5t-113 0.5h-90t-118 -0.5t-117 -2.5l5 20q34 2 53 8t29.5 24t20.5 54l132 496q14 55 2.5 69.5t-61.5 16.5l5 20
q55 -1 117 -2t118 -1h90q45 0 101.5 0.5t101.5 2.5q-13 -35 -22 -63t-16 -55q-4 -18 -7.5 -34t-5.5 -28h-22zM434 830q-43 -16 -100.5 -32t-117.5 -27l-5 14q84 26 156 68t115 87h18q22 -52 53 -90t86 -65l-4 -14q-72 12 -116 27t-85 32z" />
    <glyph glyph-name="Edieresis" unicode="&#xcb;" horiz-adv-x="626" 
d="M225 346l5 20h198l-5 -20h-198zM330 366q38 0 64 19t44.5 46.5t28.5 54.5h23q-16 -46 -23 -73.5t-14 -56.5q-5 -18 -9 -35t-8.5 -38.5t-11.5 -56.5h-22q2 27 -2.5 54.5t-22 46.5t-58.5 19zM598 528q4 59 -5 93.5t-34.5 49t-70.5 14.5h-31q-33 0 -51.5 -5.5t-29 -23
t-20.5 -54.5l-132 -496q-15 -55 -3.5 -69t60.5 -14h37q54 0 91 17t66.5 55.5t58.5 104.5h23q-5 -13 -11 -32t-11 -40q-5 -19 -13 -54.5t-13 -73.5q-51 2 -114 2.5t-113 0.5h-90t-118 -0.5t-117 -2.5l5 20q34 2 53 8t29.5 24t20.5 54l132 496q14 55 2.5 69.5t-61.5 16.5l5 20
q55 -1 117 -2t118 -1h90q45 0 101.5 0.5t101.5 2.5q-13 -35 -22 -63t-16 -55q-4 -18 -7.5 -34t-5.5 -28h-22zM251 832q0 40 26.5 62.5t59.5 22.5t49 -19t16 -48q0 -41 -27 -62.5t-60 -21.5q-32 0 -48 18.5t-16 47.5zM491 832q0 40 26 62.5t60 22.5q32 0 48.5 -19t16.5 -48
q0 -41 -27 -62.5t-60 -21.5t-48.5 18.5t-15.5 47.5z" />
    <glyph glyph-name="Igrave" unicode="&#xcc;" horiz-adv-x="390" 
d="M224 106q-14 -55 -3 -69.5t62 -16.5l-4 -20q-29 2 -73.5 2.5t-89.5 0.5q-48 0 -89.5 -0.5t-67.5 -2.5l5 20q33 2 51.5 8t29.5 24t20 54l132 496q14 55 2.5 69.5t-61.5 16.5l5 20q24 -1 66 -2t91 -1q45 0 88.5 1t75.5 2l-5 -20q-34 -1 -53 -7.5t-29.5 -24t-20.5 -54.5z
M363 771q-51 24 -86 36t-59.5 20.5t-45.5 21.5q-19 13 -27.5 34t3.5 42q13 22 38.5 23.5t44.5 -10.5q21 -12 36.5 -33.5t39 -51.5t64.5 -71z" />
    <glyph glyph-name="Iacute" unicode="&#xcd;" horiz-adv-x="390" 
d="M224 106q-14 -55 -3 -69.5t62 -16.5l-4 -20q-29 2 -73.5 2.5t-89.5 0.5q-48 0 -89.5 -0.5t-67.5 -2.5l5 20q33 2 51.5 8t29.5 24t20 54l132 496q14 55 2.5 69.5t-61.5 16.5l5 20q24 -1 66 -2t91 -1q45 0 88.5 1t75.5 2l-5 -20q-34 -1 -53 -7.5t-29.5 -24t-20.5 -54.5z
M301 784q50 39 82 70t56.5 53.5t51.5 37.5q21 12 49.5 11.5t41.5 -27.5q12 -23 -1.5 -43.5t-38.5 -33.5q-37 -21 -92 -33.5t-142 -46.5z" />
    <glyph glyph-name="Icircumflex" unicode="&#xce;" horiz-adv-x="390" 
d="M224 106q-14 -55 -3 -69.5t62 -16.5l-4 -20q-29 2 -73.5 2.5t-89.5 0.5q-48 0 -89.5 -0.5t-67.5 -2.5l5 20q33 2 51.5 8t29.5 24t20 54l132 496q14 55 2.5 69.5t-61.5 16.5l5 20q24 -1 66 -2t91 -1q45 0 88.5 1t75.5 2l-5 -20q-34 -1 -53 -7.5t-29.5 -24t-20.5 -54.5z
M322 830q-43 -16 -100.5 -32t-117.5 -27l-5 14q84 26 156 68t115 87h18q22 -52 53 -90t86 -65l-4 -14q-72 12 -116 27t-85 32z" />
    <glyph glyph-name="Idieresis" unicode="&#xcf;" horiz-adv-x="390" 
d="M224 106q-14 -55 -3 -69.5t62 -16.5l-4 -20q-29 2 -73.5 2.5t-89.5 0.5q-48 0 -89.5 -0.5t-67.5 -2.5l5 20q33 2 51.5 8t29.5 24t20 54l132 496q14 55 2.5 69.5t-61.5 16.5l5 20q24 -1 66 -2t91 -1q45 0 88.5 1t75.5 2l-5 -20q-34 -1 -53 -7.5t-29.5 -24t-20.5 -54.5z
M140 832q0 40 26.5 62.5t59.5 22.5t49 -19t16 -48q0 -41 -27 -62.5t-60 -21.5q-32 0 -48 18.5t-16 47.5zM380 832q0 40 26 62.5t60 22.5q32 0 48.5 -19t16.5 -48q0 -41 -27 -62.5t-60 -21.5t-48.5 18.5t-15.5 47.5z" />
    <glyph glyph-name="Eth" unicode="&#xd0;" horiz-adv-x="771" 
d="M756 469q0 -65 -19 -132t-58.5 -127t-98 -107.5t-138 -75t-179.5 -27.5q-24 0 -62.5 1.5t-88.5 1.5q-23 0 -51.5 -0.5t-55 -1t-43.5 -1.5l3 20q32 2 50.5 8t29.5 24t20 54l131 496q11 43 3.5 63.5t-61.5 22.5l3 20q18 -1 46 -2t59.5 -1h58.5q18 1 46 1.5l56 1t47 0.5
q145 0 223.5 -60t78.5 -179zM263 18q80 0 142 42.5t104 113.5t63.5 156.5t21.5 170.5q0 92 -38 140.5t-124 48.5q-25 0 -38 -6.5t-21 -24.5t-18 -55l-131 -500q-12 -48 -9 -67t48 -19zM450 366l-6 -25h-424l6 25h424z" />
    <glyph glyph-name="Ntilde" unicode="&#xd1;" horiz-adv-x="825" 
d="M525 -5l-254 556v8t-0.5 17.5t-1 17.5l-0.5 8q8 37 5.5 54.5t-20 24t-56.5 7.5l5 20q16 -1 39.5 -2t49.5 -1q47 0 81 3l212 -486l-4 -23t-9.5 -56.5t-11 -67.5t-9.5 -57l-4 -23h-22zM832 735q-26 0 -47 -15t-37 -38q-46 -68 -94 -239t-107 -448l-14 28q18 84 40.5 182.5
t47.5 193.5t52.5 172t56.5 119q19 27 45 45.5t63 18.5q46 0 70.5 -25t24.5 -60q0 -38 -25.5 -64.5t-65.5 -26.5q-33 0 -51 16.5t-18 42.5q0 34 22 59.5t53 34.5q-2 2 -6.5 3t-9.5 1zM21 -55q27 0 48 14.5t36 39.5q29 46 58.5 144t60 237t61.5 305l17 -21q-20 -102 -42 -208
t-45.5 -201t-47 -165.5t-46.5 -100.5q-18 -24 -42.5 -43.5t-64.5 -19.5q-45 0 -69.5 25t-24.5 60q0 39 26 65t65 26q34 0 51.5 -16.5t17.5 -42.5q0 -34 -22 -59t-54 -35q3 -2 7 -3t10 -1zM495 927q37 0 61.5 -11t43 -25.5t38 -25.5t47.5 -11q21 0 40 13.5t37 44.5l18 -5
q-29 -74 -74.5 -106.5t-91.5 -32.5q-37 0 -61.5 11t-43 25.5t-38 25.5t-47.5 11q-21 0 -39.5 -13t-37.5 -45l-18 5q28 74 74 106.5t92 32.5z" />
    <glyph glyph-name="Ograve" unicode="&#xd2;" horiz-adv-x="777" 
d="M486 704q-53 0 -101.5 -42t-87 -113t-61 -158.5t-22.5 -177.5q0 -98 30.5 -153.5t77.5 -55.5q53 0 101.5 42t87 113t61 158.5t22.5 177.5q0 98 -30.5 153.5t-77.5 55.5zM42 226q0 66 21 136t60 134t94.5 115t125.5 81t152 30q127 0 199.5 -62.5t72.5 -178.5
q0 -66 -21 -135.5t-60.5 -133.5t-95.5 -115t-125.5 -81t-151.5 -30q-127 0 -199 62.5t-72 177.5zM539 771q-51 24 -86 36t-59.5 20.5t-45.5 21.5q-19 13 -27.5 34t3.5 42q13 22 38.5 23.5t44.5 -10.5q21 -12 36.5 -33.5t39 -51.5t64.5 -71z" />
    <glyph glyph-name="Oacute" unicode="&#xd3;" horiz-adv-x="777" 
d="M486 704q-53 0 -101.5 -42t-87 -113t-61 -158.5t-22.5 -177.5q0 -98 30.5 -153.5t77.5 -55.5q53 0 101.5 42t87 113t61 158.5t22.5 177.5q0 98 -30.5 153.5t-77.5 55.5zM42 226q0 66 21 136t60 134t94.5 115t125.5 81t152 30q127 0 199.5 -62.5t72.5 -178.5
q0 -66 -21 -135.5t-60.5 -133.5t-95.5 -115t-125.5 -81t-151.5 -30q-127 0 -199 62.5t-72 177.5zM477 784q50 39 82 70t56.5 53.5t51.5 37.5q21 12 49.5 11.5t41.5 -27.5q12 -23 -1.5 -43.5t-38.5 -33.5q-37 -21 -92 -33.5t-142 -46.5z" />
    <glyph glyph-name="Ocircumflex" unicode="&#xd4;" horiz-adv-x="777" 
d="M486 704q-53 0 -101.5 -42t-87 -113t-61 -158.5t-22.5 -177.5q0 -98 30.5 -153.5t77.5 -55.5q53 0 101.5 42t87 113t61 158.5t22.5 177.5q0 98 -30.5 153.5t-77.5 55.5zM42 226q0 66 21 136t60 134t94.5 115t125.5 81t152 30q127 0 199.5 -62.5t72.5 -178.5
q0 -66 -21 -135.5t-60.5 -133.5t-95.5 -115t-125.5 -81t-151.5 -30q-127 0 -199 62.5t-72 177.5zM498 830q-43 -16 -100.5 -32t-117.5 -27l-5 14q84 26 156 68t115 87h18q22 -52 53 -90t86 -65l-4 -14q-72 12 -116 27t-85 32z" />
    <glyph glyph-name="Otilde" unicode="&#xd5;" horiz-adv-x="777" 
d="M486 704q-53 0 -101.5 -42t-87 -113t-61 -158.5t-22.5 -177.5q0 -98 30.5 -153.5t77.5 -55.5q53 0 101.5 42t87 113t61 158.5t22.5 177.5q0 98 -30.5 153.5t-77.5 55.5zM42 226q0 66 21 136t60 134t94.5 115t125.5 81t152 30q127 0 199.5 -62.5t72.5 -178.5
q0 -66 -21 -135.5t-60.5 -133.5t-95.5 -115t-125.5 -81t-151.5 -30q-127 0 -199 62.5t-72 177.5zM461 927q37 0 61.5 -11t43 -25.5t38 -25.5t47.5 -11q21 0 40 13.5t37 44.5l18 -5q-29 -74 -74.5 -106.5t-91.5 -32.5q-37 0 -61.5 11t-43 25.5t-38 25.5t-47.5 11
q-21 0 -39.5 -13t-37.5 -45l-18 5q28 74 74 106.5t92 32.5z" />
    <glyph glyph-name="Odieresis" unicode="&#xd6;" horiz-adv-x="777" 
d="M486 704q-53 0 -101.5 -42t-87 -113t-61 -158.5t-22.5 -177.5q0 -98 30.5 -153.5t77.5 -55.5q53 0 101.5 42t87 113t61 158.5t22.5 177.5q0 98 -30.5 153.5t-77.5 55.5zM42 226q0 66 21 136t60 134t94.5 115t125.5 81t152 30q127 0 199.5 -62.5t72.5 -178.5
q0 -66 -21 -135.5t-60.5 -133.5t-95.5 -115t-125.5 -81t-151.5 -30q-127 0 -199 62.5t-72 177.5zM315 832q0 40 26.5 62.5t59.5 22.5t49 -19t16 -48q0 -41 -27 -62.5t-60 -21.5q-32 0 -48 18.5t-16 47.5zM555 832q0 40 26 62.5t60 22.5q32 0 48.5 -19t16.5 -48
q0 -41 -27 -62.5t-60 -21.5t-48.5 18.5t-15.5 47.5z" />
    <glyph glyph-name="multiply" unicode="&#xd7;" horiz-adv-x="496" 
d="M19 182l223 173l-125 175l26 18l123 -175l227 177l16 -22l-227 -176l125 -173l-25 -18l-124 173l-224 -174z" />
    <glyph glyph-name="Oslash" unicode="&#xd8;" horiz-adv-x="777" 
d="M486 704q-53 0 -101.5 -42t-87 -113t-61 -158.5t-22.5 -177.5q0 -98 30.5 -153.5t77.5 -55.5q53 0 101.5 42t87 113t61 158.5t22.5 177.5q0 98 -30.5 153.5t-77.5 55.5zM42 226q0 66 21 136t60 134t94.5 115t125.5 81t152 30q127 0 199.5 -62.5t72.5 -178.5
q0 -66 -21 -135.5t-60.5 -133.5t-95.5 -115t-125.5 -81t-151.5 -30q-127 0 -199 62.5t-72 177.5zM654 632l135 141l15 -13l-140 -148zM157 75l-142 -148l-18 14l147 152zM173 96l468 536l10 -20l-465 -534z" />
    <glyph glyph-name="Ugrave" unicode="&#xd9;" horiz-adv-x="694" 
d="M643 544q15 55 15.5 84.5t-17 42.5t-58.5 17l5 20q19 -1 49.5 -2t57.5 -1q24 0 48 1t40 2l-5 -20q-33 -4 -52.5 -16.5t-32 -39.5t-25.5 -76l-68 -265q-36 -138 -98 -212q-36 -42 -89.5 -67.5t-115.5 -25.5q-75 0 -123 21t-72 58q-27 39 -26.5 92t21.5 131l83 314
q14 55 2.5 69.5t-61.5 16.5l6 20q25 -1 70 -2t95 -1q44 0 84 1t71 2l-6 -20q-34 -1 -53 -7.5t-29.5 -24t-20.5 -54.5l-88 -331q-22 -82 -23.5 -137.5t20 -84t69.5 -28.5q75 0 125 33.5t82 92.5t51 133zM536 771q-51 24 -86 36t-59.5 20.5t-45.5 21.5q-19 13 -27.5 34t3.5 42
q13 22 38.5 23.5t44.5 -10.5q21 -12 36.5 -33.5t39 -51.5t64.5 -71z" />
    <glyph glyph-name="Uacute" unicode="&#xda;" horiz-adv-x="694" 
d="M643 544q15 55 15.5 84.5t-17 42.5t-58.5 17l5 20q19 -1 49.5 -2t57.5 -1q24 0 48 1t40 2l-5 -20q-33 -4 -52.5 -16.5t-32 -39.5t-25.5 -76l-68 -265q-36 -138 -98 -212q-36 -42 -89.5 -67.5t-115.5 -25.5q-75 0 -123 21t-72 58q-27 39 -26.5 92t21.5 131l83 314
q14 55 2.5 69.5t-61.5 16.5l6 20q25 -1 70 -2t95 -1q44 0 84 1t71 2l-6 -20q-34 -1 -53 -7.5t-29.5 -24t-20.5 -54.5l-88 -331q-22 -82 -23.5 -137.5t20 -84t69.5 -28.5q75 0 125 33.5t82 92.5t51 133zM474 784q50 39 82 70t56.5 53.5t51.5 37.5q21 12 49.5 11.5t41.5 -27.5
q12 -23 -1.5 -43.5t-38.5 -33.5q-37 -21 -92 -33.5t-142 -46.5z" />
    <glyph glyph-name="Ucircumflex" unicode="&#xdb;" horiz-adv-x="694" 
d="M643 544q15 55 15.5 84.5t-17 42.5t-58.5 17l5 20q19 -1 49.5 -2t57.5 -1q24 0 48 1t40 2l-5 -20q-33 -4 -52.5 -16.5t-32 -39.5t-25.5 -76l-68 -265q-36 -138 -98 -212q-36 -42 -89.5 -67.5t-115.5 -25.5q-75 0 -123 21t-72 58q-27 39 -26.5 92t21.5 131l83 314
q14 55 2.5 69.5t-61.5 16.5l6 20q25 -1 70 -2t95 -1q44 0 84 1t71 2l-6 -20q-34 -1 -53 -7.5t-29.5 -24t-20.5 -54.5l-88 -331q-22 -82 -23.5 -137.5t20 -84t69.5 -28.5q75 0 125 33.5t82 92.5t51 133zM495 830q-43 -16 -100.5 -32t-117.5 -27l-5 14q84 26 156 68t115 87h18
q22 -52 53 -90t86 -65l-4 -14q-72 12 -116 27t-85 32z" />
    <glyph glyph-name="Udieresis" unicode="&#xdc;" horiz-adv-x="694" 
d="M643 544q15 55 15.5 84.5t-17 42.5t-58.5 17l5 20q19 -1 49.5 -2t57.5 -1q24 0 48 1t40 2l-5 -20q-33 -4 -52.5 -16.5t-32 -39.5t-25.5 -76l-68 -265q-36 -138 -98 -212q-36 -42 -89.5 -67.5t-115.5 -25.5q-75 0 -123 21t-72 58q-27 39 -26.5 92t21.5 131l83 314
q14 55 2.5 69.5t-61.5 16.5l6 20q25 -1 70 -2t95 -1q44 0 84 1t71 2l-6 -20q-34 -1 -53 -7.5t-29.5 -24t-20.5 -54.5l-88 -331q-22 -82 -23.5 -137.5t20 -84t69.5 -28.5q75 0 125 33.5t82 92.5t51 133zM313 832q0 40 26.5 62.5t59.5 22.5t49 -19t16 -48q0 -41 -27 -62.5
t-60 -21.5q-32 0 -48 18.5t-16 47.5zM553 832q0 40 26 62.5t60 22.5q32 0 48.5 -19t16.5 -48q0 -41 -27 -62.5t-60 -21.5t-48.5 18.5t-15.5 47.5z" />
    <glyph glyph-name="Yacute" unicode="&#xdd;" horiz-adv-x="734" 
d="M392 106q-13 -55 3.5 -69.5t67.5 -16.5l-5 -20q-19 1 -47.5 1.5t-61.5 1t-63 0.5q-48 0 -91.5 -0.5t-69.5 -2.5l5 20q34 2 53 8t30 24t20 54l69 274l65 -63l69 19l34 80zM714 703q-16 0 -30 -5.5t-30 -17.5q-28 -20 -68 -72.5t-81 -137t-76 -200.5l-136 -5q-4 47 -11 99
t-17 102.5t-23.5 92t-30.5 65.5t-39 24q-18 0 -29 -13.5t-17 -33.5l-21 -63h-11h-11l25 77q20 59 56.5 83t84.5 24q68 0 105 -42t55 -122t31 -193q34 96 76 170.5t88 124.5q23 25 53 43.5t65 18.5q46 0 70 -26t23 -62q-1 -37 -26 -62.5t-65 -25.5q-33 0 -51 17t-18 44
q1 34 22.5 58.5t53.5 33.5q-3 2 -7 3t-10 1zM467 784q50 39 82 70t56.5 53.5t51.5 37.5q21 12 49.5 11.5t41.5 -27.5q12 -23 -1.5 -43.5t-38.5 -33.5q-37 -21 -92 -33.5t-142 -46.5z" />
    <glyph glyph-name="Thorn" unicode="&#xde;" horiz-adv-x="661" 
d="M278 561q36 0 72.5 1t73.5 1q120 0 177.5 -41.5t57.5 -109.5q0 -78 -52 -139.5t-145 -97t-216 -35.5h-40l2.5 10l2.5 10h45q84 0 135.5 38t76 99.5t24.5 130.5q0 54 -26.5 85t-82.5 31q-26 0 -41.5 -1t-28.5 -2t-34 -3zM224 106q-14 -55 -3 -69.5t62 -16.5l-4 -20
q-29 2 -73.5 2.5t-89.5 0.5q-48 0 -89.5 -0.5t-67.5 -2.5l5 20q33 2 51.5 8t29.5 24t20 54l132 496q14 55 2.5 69.5t-61.5 16.5l5 20q24 -1 66 -2t91 -1q45 0 88.5 1t75.5 2l-5 -20q-34 -1 -53 -7.5t-29.5 -24t-20.5 -54.5z" />
    <glyph glyph-name="germandbls" unicode="&#xdf;" horiz-adv-x="608" 
d="M398 767q-37 0 -60.5 -37t-44.5 -113l-208 -791q-40 -1 -76 -4t-68 -10l184 700q24 91 59.5 151t91 89.5t141.5 29.5q102 0 144 -31t42 -68t-26 -65.5t-67 -56.5t-87 -67q-32 -26 -40.5 -42t-8.5 -31q0 -25 14.5 -47t36 -42t41.5 -41q37 -36 60.5 -67.5t23.5 -75.5
q0 -53 -29.5 -89t-77.5 -54.5t-103 -18.5q-42 0 -73 13t-48.5 37.5t-17.5 56.5q0 30 16 52t42 22q20 0 33 -12.5t19.5 -31.5t6.5 -41q0 -19 -6.5 -38.5t-17.5 -33.5q5 -1 10.5 -2.5t14.5 -1.5q32 0 53.5 27t21.5 70q0 33 -9 62.5t-26 63.5q-13 29 -29.5 64.5t-16.5 71.5
q0 32 12.5 52.5t34.5 40.5t47 45q33 36 47 80.5t14 87.5q0 52 -20.5 74t-49.5 22z" />
    <glyph glyph-name="agrave" unicode="&#xe0;" horiz-adv-x="558" 
d="M175 40q16 0 35 17t39 49.5t39 79.5t35 109l-22 -109q-38 -112 -86 -156t-104 -44t-84 33t-28 90q0 54 18.5 113t50 114t71 99t84 70t87.5 26q33 0 51 -26t11 -81l-11 -6q5 36 -3.5 56t-28.5 20q-26 0 -57 -35.5t-59.5 -93t-47 -127t-18.5 -136.5q0 -34 7 -48t21 -14z
M387 516q43 1 78 4.5t67 10.5l-131 -446q-3 -13 -4.5 -24.5t3 -18.5t15.5 -7q13 0 29 15.5t33 63.5l18 48h19l-25 -73q-22 -61 -59.5 -82t-72.5 -21q-52 0 -74 31q-15 22 -13.5 54.5t13.5 74.5zM374 599q-38 48 -67 76.5t-49.5 48.5t-33.5 42q-14 23 -9.5 45t22.5 33
q21 13 44.5 4.5t36.5 -29.5q14 -22 20.5 -49.5t16 -66.5t31.5 -97z" />
    <glyph glyph-name="aacute" unicode="&#xe1;" horiz-adv-x="558" 
d="M175 40q16 0 35 17t39 49.5t39 79.5t35 109l-22 -109q-38 -112 -86 -156t-104 -44t-84 33t-28 90q0 54 18.5 113t50 114t71 99t84 70t87.5 26q33 0 51 -26t11 -81l-11 -6q5 36 -3.5 56t-28.5 20q-26 0 -57 -35.5t-59.5 -93t-47 -127t-18.5 -136.5q0 -34 7 -48t21 -14z
M387 516q43 1 78 4.5t67 10.5l-131 -446q-3 -13 -4.5 -24.5t3 -18.5t15.5 -7q13 0 29 15.5t33 63.5l18 48h19l-25 -73q-22 -61 -59.5 -82t-72.5 -21q-52 0 -74 31q-15 22 -13.5 54.5t13.5 74.5zM314 609q37 52 59 90t39.5 67t38.5 50q19 20 45.5 25.5t45.5 -14.5
q18 -17 13 -39.5t-28 -45.5q-20 -20 -48.5 -38.5t-66.5 -42.5t-88 -62z" />
    <glyph glyph-name="acircumflex" unicode="&#xe2;" horiz-adv-x="558" 
d="M175 40q16 0 35 17t39 49.5t39 79.5t35 109l-22 -109q-38 -112 -86 -156t-104 -44t-84 33t-28 90q0 54 18.5 113t50 114t71 99t84 70t87.5 26q33 0 51 -26t11 -81l-11 -6q5 36 -3.5 56t-28.5 20q-26 0 -57 -35.5t-59.5 -93t-47 -127t-18.5 -136.5q0 -34 7 -48t21 -14z
M387 516q43 1 78 4.5t67 10.5l-131 -446q-3 -13 -4.5 -24.5t3 -18.5t15.5 -7q13 0 29 15.5t33 63.5l18 48h19l-25 -73q-22 -61 -59.5 -82t-72.5 -21q-52 0 -74 31q-15 22 -13.5 54.5t13.5 74.5zM360 684q-36 -20 -83 -39.5t-98 -34.5l-5 14q74 33 137.5 86t101.5 110h18
q14 -68 40.5 -115t78.5 -81l-4 -14q-65 14 -107 32.5t-79 41.5z" />
    <glyph glyph-name="atilde" unicode="&#xe3;" horiz-adv-x="558" 
d="M175 40q16 0 35 17t39 49.5t39 79.5t35 109l-22 -109q-38 -112 -86 -156t-104 -44t-84 33t-28 90q0 54 18.5 113t50 114t71 99t84 70t87.5 26q33 0 51 -26t11 -81l-11 -6q5 36 -3.5 56t-28.5 20q-26 0 -57 -35.5t-59.5 -93t-47 -127t-18.5 -136.5q0 -34 7 -48t21 -14z
M387 516q43 1 78 4.5t67 10.5l-131 -446q-3 -13 -4.5 -24.5t3 -18.5t15.5 -7q13 0 29 15.5t33 63.5l18 48h19l-25 -73q-22 -61 -59.5 -82t-72.5 -21q-52 0 -74 31q-15 22 -13.5 54.5t13.5 74.5zM347 786q30 0 49.5 -11t34.5 -25.5t30.5 -25.5t37.5 -11q19 0 36.5 13.5
t34.5 44.5l18 -5q-26 -74 -69 -106.5t-85 -32.5q-30 0 -49.5 11t-34.5 25.5t-30.5 25.5t-37.5 11q-19 0 -36.5 -13t-34.5 -45l-18 5q27 75 69.5 107t84.5 32z" />
    <glyph glyph-name="adieresis" unicode="&#xe4;" horiz-adv-x="558" 
d="M175 40q16 0 35 17t39 49.5t39 79.5t35 109l-22 -109q-38 -112 -86 -156t-104 -44t-84 33t-28 90q0 54 18.5 113t50 114t71 99t84 70t87.5 26q33 0 51 -26t11 -81l-11 -6q5 36 -3.5 56t-28.5 20q-26 0 -57 -35.5t-59.5 -93t-47 -127t-18.5 -136.5q0 -34 7 -48t21 -14z
M387 516q43 1 78 4.5t67 10.5l-131 -446q-3 -13 -4.5 -24.5t3 -18.5t15.5 -7q13 0 29 15.5t33 63.5l18 48h19l-25 -73q-22 -61 -59.5 -82t-72.5 -21q-52 0 -74 31q-15 22 -13.5 54.5t13.5 74.5zM205 676q0 40 26 62t60 22q32 0 48.5 -18.5t16.5 -47.5q0 -42 -27 -63t-60 -21
t-48.5 18t-15.5 48zM432 676q0 40 26.5 62t59.5 22t49 -18.5t16 -47.5q0 -42 -26.5 -63t-59.5 -21t-49 18t-16 48z" />
    <glyph glyph-name="aring" unicode="&#xe5;" horiz-adv-x="558" 
d="M175 40q16 0 35 17t39 49.5t39 79.5t35 109l-22 -109q-38 -112 -86 -156t-104 -44t-84 33t-28 90q0 54 18.5 113t50 114t71 99t84 70t87.5 26q33 0 51 -26t11 -81l-11 -6q5 36 -3.5 56t-28.5 20q-26 0 -57 -35.5t-59.5 -93t-47 -127t-18.5 -136.5q0 -34 7 -48t21 -14z
M387 516q43 1 78 4.5t67 10.5l-131 -446q-3 -13 -4.5 -24.5t3 -18.5t15.5 -7q13 0 29 15.5t33 63.5l18 48h19l-25 -73q-22 -61 -59.5 -82t-72.5 -21q-52 0 -74 31q-15 22 -13.5 54.5t13.5 74.5zM411 797q42 0 70 -23t28 -62q0 -30 -17 -55t-45.5 -40t-61.5 -15
q-40 0 -67.5 23t-27.5 63q0 46 35.5 77.5t85.5 31.5zM389 623q37 0 65.5 25.5t28.5 62.5q0 33 -24 49t-51 16q-36 0 -63.5 -26.5t-27.5 -61.5q0 -32 23 -48.5t49 -16.5z" />
    <glyph glyph-name="ae" unicode="&#xe6;" horiz-adv-x="735" 
d="M396 217q40 16 77 33t63 39q41 36 64 84.5t23 105.5q0 33 -24 33q-26 0 -57.5 -34t-59.5 -89t-46 -120t-18 -126q0 -56 21.5 -76.5t55.5 -20.5q27 0 66 18t78 64l18 -8q-21 -33 -55 -64t-79 -50.5t-98 -19.5q-67 0 -112 35.5t-45 105.5q0 53 17 109t48.5 108.5t75.5 95
t97.5 67t114.5 24.5q48 0 80 -20.5t32 -62.5q0 -39 -21.5 -72t-57.5 -60.5t-80.5 -49t-91 -37.5t-87.5 -25zM189 40q23 0 49.5 18.5t52.5 65.5l6 -14q-33 -61 -82.5 -92.5t-106.5 -31.5q-58 0 -86 32t-28 87q0 54 23 111.5t62 111t90 95.5t107.5 67t112.5 25q22 0 47 -11
t34 -47l-13 -9q-6 25 -22 33t-29 8q-40 0 -85.5 -32t-86.5 -86.5t-66.5 -123.5t-25.5 -143q0 -32 13.5 -48t33.5 -16z" />
    <glyph glyph-name="ccedilla" unicode="&#xe7;" horiz-adv-x="463" 
d="M358 511q-37 0 -73 -31.5t-64.5 -84.5t-45.5 -119t-17 -136q0 -53 21 -76.5t55 -23.5q32 0 65 19t67 69l20 -8q-20 -33 -51.5 -64t-73 -50.5t-93.5 -19.5q-70 0 -115 37.5t-45 116.5q0 62 24 130t68.5 127.5t107.5 96.5t141 37q55 0 88.5 -27.5t33.5 -68.5
q0 -27 -13 -52.5t-35.5 -42t-50.5 -16.5q-24 0 -40.5 15.5t-16.5 42.5q0 41 27.5 70.5t63.5 38.5q-8 10 -19.5 15t-28.5 5zM181 0l-44 -69q12 4 26.5 7t27.5 3q25 0 42.5 -10t17.5 -32q0 -31 -25 -50t-63 -28t-76 -9q-31 0 -54.5 6.5t-34.5 13.5l6 15q8 -2 23 -6.5t38 -4.5
q11 0 29.5 3.5t33.5 13.5t15 29q0 23 -28 23q-5 0 -14 -1.5t-17 -5.5l69 102h28z" />
    <glyph glyph-name="egrave" unicode="&#xe8;" horiz-adv-x="469" 
d="M131 217q41 16 78 36t63 44q39 35 62.5 81.5t23.5 100.5q0 20 -4 26.5t-12 6.5q-27 0 -60 -34t-62.5 -89t-48 -120t-18.5 -126q0 -56 21.5 -76.5t55.5 -20.5q27 0 67 18t79 64l16 -8q-21 -33 -55 -64t-79 -50.5t-98 -19.5q-67 0 -112 35.5t-45 105.5q0 53 17.5 109
t49.5 108.5t77 95t100 67t117 24.5q44 0 74 -19.5t30 -59.5q0 -39 -21.5 -73t-57.5 -62t-80.5 -50t-91 -38t-87.5 -25zM351 599q-38 48 -67 76.5t-49.5 48.5t-33.5 42q-14 23 -9.5 45t22.5 33q21 13 44.5 4.5t36.5 -29.5q14 -22 20.5 -49.5t16 -66.5t31.5 -97z" />
    <glyph glyph-name="eacute" unicode="&#xe9;" horiz-adv-x="469" 
d="M131 217q41 16 78 36t63 44q39 35 62.5 81.5t23.5 100.5q0 20 -4 26.5t-12 6.5q-27 0 -60 -34t-62.5 -89t-48 -120t-18.5 -126q0 -56 21.5 -76.5t55.5 -20.5q27 0 67 18t79 64l16 -8q-21 -33 -55 -64t-79 -50.5t-98 -19.5q-67 0 -112 35.5t-45 105.5q0 53 17.5 109
t49.5 108.5t77 95t100 67t117 24.5q44 0 74 -19.5t30 -59.5q0 -39 -21.5 -73t-57.5 -62t-80.5 -50t-91 -38t-87.5 -25zM291 609q37 52 59 90t39.5 67t38.5 50q19 20 45.5 25.5t45.5 -14.5q18 -17 13 -39.5t-28 -45.5q-20 -20 -48.5 -38.5t-66.5 -42.5t-88 -62z" />
    <glyph glyph-name="ecircumflex" unicode="&#xea;" horiz-adv-x="469" 
d="M131 217q41 16 78 36t63 44q39 35 62.5 81.5t23.5 100.5q0 20 -4 26.5t-12 6.5q-27 0 -60 -34t-62.5 -89t-48 -120t-18.5 -126q0 -56 21.5 -76.5t55.5 -20.5q27 0 67 18t79 64l16 -8q-21 -33 -55 -64t-79 -50.5t-98 -19.5q-67 0 -112 35.5t-45 105.5q0 53 17.5 109
t49.5 108.5t77 95t100 67t117 24.5q44 0 74 -19.5t30 -59.5q0 -39 -21.5 -73t-57.5 -62t-80.5 -50t-91 -38t-87.5 -25zM338 684q-36 -20 -83 -39.5t-98 -34.5l-5 14q74 33 137.5 86t101.5 110h18q14 -68 40.5 -115t78.5 -81l-4 -14q-65 14 -107 32.5t-79 41.5z" />
    <glyph glyph-name="edieresis" unicode="&#xeb;" horiz-adv-x="469" 
d="M131 217q41 16 78 36t63 44q39 35 62.5 81.5t23.5 100.5q0 20 -4 26.5t-12 6.5q-27 0 -60 -34t-62.5 -89t-48 -120t-18.5 -126q0 -56 21.5 -76.5t55.5 -20.5q27 0 67 18t79 64l16 -8q-21 -33 -55 -64t-79 -50.5t-98 -19.5q-67 0 -112 35.5t-45 105.5q0 53 17.5 109
t49.5 108.5t77 95t100 67t117 24.5q44 0 74 -19.5t30 -59.5q0 -39 -21.5 -73t-57.5 -62t-80.5 -50t-91 -38t-87.5 -25zM183 676q0 40 26 62t60 22q32 0 48.5 -18.5t16.5 -47.5q0 -42 -27 -63t-60 -21t-48.5 18t-15.5 48zM410 676q0 40 26.5 62t59.5 22t49 -18.5t16 -47.5
q0 -42 -26.5 -63t-59.5 -21t-49 18t-16 48z" />
    <glyph glyph-name="igrave" unicode="&#xec;" horiz-adv-x="322" 
d="M139 432q17 50 -11 50q-18 0 -33 -18t-32 -61l-19 -51h-19l27 76q21 59 58 81t81 22q48 0 67.5 -22t20.5 -54t-10 -64l-106 -306q-8 -27 -4 -38.5t18 -11.5q13 0 29 15t34 64l18 48h19l-25 -73q-22 -61 -59.5 -82t-75.5 -21q-44 0 -66.5 19t-24.5 55t15 85zM226 599
q-38 48 -67 76.5t-49.5 48.5t-33.5 42q-14 23 -9.5 45t22.5 33q21 13 44.5 4.5t36.5 -29.5q14 -22 20.5 -49.5t16 -66.5t31.5 -97z" />
    <glyph glyph-name="iacute" unicode="&#xed;" horiz-adv-x="322" 
d="M139 432q17 50 -11 50q-18 0 -33 -18t-32 -61l-19 -51h-19l27 76q21 59 58 81t81 22q48 0 67.5 -22t20.5 -54t-10 -64l-106 -306q-8 -27 -4 -38.5t18 -11.5q13 0 29 15t34 64l18 48h19l-25 -73q-22 -61 -59.5 -82t-75.5 -21q-44 0 -66.5 19t-24.5 55t15 85zM166 609
q37 52 59 90t39.5 67t38.5 50q19 20 45.5 25.5t45.5 -14.5q18 -17 13 -39.5t-28 -45.5q-20 -20 -48.5 -38.5t-66.5 -42.5t-88 -62z" />
    <glyph glyph-name="icircumflex" unicode="&#xee;" horiz-adv-x="322" 
d="M139 432q17 50 -11 50q-18 0 -33 -18t-32 -61l-19 -51h-19l27 76q21 59 58 81t81 22q48 0 67.5 -22t20.5 -54t-10 -64l-106 -306q-8 -27 -4 -38.5t18 -11.5q13 0 29 15t34 64l18 48h19l-25 -73q-22 -61 -59.5 -82t-75.5 -21q-44 0 -66.5 19t-24.5 55t15 85zM212 684
q-36 -20 -83 -39.5t-98 -34.5l-5 14q74 33 137.5 86t101.5 110h18q14 -68 40.5 -115t78.5 -81l-4 -14q-65 14 -107 32.5t-79 41.5z" />
    <glyph glyph-name="idieresis" unicode="&#xef;" horiz-adv-x="322" 
d="M139 432q17 50 -11 50q-18 0 -33 -18t-32 -61l-19 -51h-19l27 76q21 59 58 81t81 22q48 0 67.5 -22t20.5 -54t-10 -64l-106 -306q-8 -27 -4 -38.5t18 -11.5q13 0 29 15t34 64l18 48h19l-25 -73q-22 -61 -59.5 -82t-75.5 -21q-44 0 -66.5 19t-24.5 55t15 85zM57 676
q0 40 26 62t60 22q32 0 48.5 -18.5t16.5 -47.5q0 -42 -27 -63t-60 -21t-48.5 18t-15.5 48zM284 676q0 40 26.5 62t59.5 22t49 -18.5t16 -47.5q0 -42 -26.5 -63t-59.5 -21t-49 18t-16 48z" />
    <glyph glyph-name="eth" unicode="&#xf0;" horiz-adv-x="528" 
d="M334 684l172 76l6 -18l-164 -72zM348 669l-219 -97l-6 18l211 93zM352 421q0 89 -20.5 154t-59 111.5t-92.5 78.5l12 17q90 -30 159 -85.5t108 -133t39 -173.5q0 -68 -21 -139.5t-62 -131.5t-101.5 -96.5t-139.5 -36.5q-46 0 -83 16.5t-58 53t-21 95.5q0 57 19.5 122
t58 123.5t93 95t124.5 36.5q29 0 45.5 -9t31.5 -25l-7 -12q-9 13 -26 19.5t-35 6.5q-29 0 -53.5 -27.5t-43.5 -73.5t-33 -102.5t-21 -115.5t-7 -112q0 -42 8 -56.5t26 -14.5q33 0 62 39.5t50.5 102t34.5 135t13 138.5z" />
    <glyph glyph-name="ntilde" unicode="&#xf1;" horiz-adv-x="603" 
d="M157 0h-141l121 432q5 14 6.5 25.5t-2.5 18t-15 6.5q-18 0 -32.5 -16.5t-31.5 -62.5l-19 -51h-19l27 76q20 57 52.5 80t76.5 23q48 0 67 -21.5t19 -54t-8 -64.5zM189 169q39 109 72.5 179.5t66 110.5t66.5 56t73 16q48 0 69 -21t21 -55.5t-13 -74.5l-98 -295
q-10 -28 -5 -39t18 -11t29 14.5t34 64.5l18 48h19l-25 -73q-22 -63 -60 -83t-74 -20q-57 0 -80 33q-13 20 -12.5 50.5t15.5 75.5l90 270q6 16 8 31t-1 25t-17 10q-24 0 -55 -38t-64.5 -102t-64.5 -145t-55 -167zM344 786q30 0 49.5 -11t34.5 -25.5t30.5 -25.5t37.5 -11
q19 0 36.5 13.5t34.5 44.5l18 -5q-26 -74 -69 -106.5t-85 -32.5q-30 0 -49.5 11t-34.5 25.5t-30.5 25.5t-37.5 11q-19 0 -36.5 -13t-34.5 -45l-18 5q27 75 69.5 107t84.5 32z" />
    <glyph glyph-name="ograve" unicode="&#xf2;" horiz-adv-x="529" 
d="M331 511q-23 0 -48.5 -27.5t-50 -73.5t-44 -103t-31 -117.5t-11.5 -115.5q0 -36 8.5 -52t25.5 -16q23 0 48 26.5t49 71.5t43.5 101.5t31.5 117.5t12 118q0 42 -8.5 56t-24.5 14zM12 151q0 57 20 123t60.5 124.5t101 95.5t142.5 37q77 0 119.5 -42t42.5 -123
q0 -57 -20 -123t-60.5 -124.5t-101 -95.5t-142.5 -37q-77 0 -119.5 42t-42.5 123zM363 599q-38 48 -67 76.5t-49.5 48.5t-33.5 42q-14 23 -9.5 45t22.5 33q21 13 44.5 4.5t36.5 -29.5q14 -22 20.5 -49.5t16 -66.5t31.5 -97z" />
    <glyph glyph-name="oacute" unicode="&#xf3;" horiz-adv-x="529" 
d="M331 511q-23 0 -48.5 -27.5t-50 -73.5t-44 -103t-31 -117.5t-11.5 -115.5q0 -36 8.5 -52t25.5 -16q23 0 48 26.5t49 71.5t43.5 101.5t31.5 117.5t12 118q0 42 -8.5 56t-24.5 14zM12 151q0 57 20 123t60.5 124.5t101 95.5t142.5 37q77 0 119.5 -42t42.5 -123
q0 -57 -20 -123t-60.5 -124.5t-101 -95.5t-142.5 -37q-77 0 -119.5 42t-42.5 123zM304 609q37 52 59 90t39.5 67t38.5 50q19 20 45.5 25.5t45.5 -14.5q18 -17 13 -39.5t-28 -45.5q-20 -20 -48.5 -38.5t-66.5 -42.5t-88 -62z" />
    <glyph glyph-name="ocircumflex" unicode="&#xf4;" horiz-adv-x="529" 
d="M331 511q-23 0 -48.5 -27.5t-50 -73.5t-44 -103t-31 -117.5t-11.5 -115.5q0 -36 8.5 -52t25.5 -16q23 0 48 26.5t49 71.5t43.5 101.5t31.5 117.5t12 118q0 42 -8.5 56t-24.5 14zM12 151q0 57 20 123t60.5 124.5t101 95.5t142.5 37q77 0 119.5 -42t42.5 -123
q0 -57 -20 -123t-60.5 -124.5t-101 -95.5t-142.5 -37q-77 0 -119.5 42t-42.5 123zM350 684q-36 -20 -83 -39.5t-98 -34.5l-5 14q74 33 137.5 86t101.5 110h18q14 -68 40.5 -115t78.5 -81l-4 -14q-65 14 -107 32.5t-79 41.5z" />
    <glyph glyph-name="otilde" unicode="&#xf5;" horiz-adv-x="529" 
d="M331 511q-23 0 -48.5 -27.5t-50 -73.5t-44 -103t-31 -117.5t-11.5 -115.5q0 -36 8.5 -52t25.5 -16q23 0 48 26.5t49 71.5t43.5 101.5t31.5 117.5t12 118q0 42 -8.5 56t-24.5 14zM12 151q0 57 20 123t60.5 124.5t101 95.5t142.5 37q77 0 119.5 -42t42.5 -123
q0 -57 -20 -123t-60.5 -124.5t-101 -95.5t-142.5 -37q-77 0 -119.5 42t-42.5 123zM337 786q30 0 49.5 -11t34.5 -25.5t30.5 -25.5t37.5 -11q19 0 36.5 13.5t34.5 44.5l18 -5q-26 -74 -69 -106.5t-85 -32.5q-30 0 -49.5 11t-34.5 25.5t-30.5 25.5t-37.5 11q-19 0 -36.5 -13
t-34.5 -45l-18 5q27 75 69.5 107t84.5 32z" />
    <glyph glyph-name="odieresis" unicode="&#xf6;" horiz-adv-x="529" 
d="M331 511q-23 0 -48.5 -27.5t-50 -73.5t-44 -103t-31 -117.5t-11.5 -115.5q0 -36 8.5 -52t25.5 -16q23 0 48 26.5t49 71.5t43.5 101.5t31.5 117.5t12 118q0 42 -8.5 56t-24.5 14zM12 151q0 57 20 123t60.5 124.5t101 95.5t142.5 37q77 0 119.5 -42t42.5 -123
q0 -57 -20 -123t-60.5 -124.5t-101 -95.5t-142.5 -37q-77 0 -119.5 42t-42.5 123zM195 676q0 40 26 62t60 22q32 0 48.5 -18.5t16.5 -47.5q0 -42 -27 -63t-60 -21t-48.5 18t-15.5 48zM422 676q0 40 26.5 62t59.5 22t49 -18.5t16 -47.5q0 -42 -26.5 -63t-59.5 -21t-49 18
t-16 48z" />
    <glyph glyph-name="divide" unicode="&#xf7;" horiz-adv-x="636" 
d="M336 499q7 23 28 39t43 16q23 0 35 -16t5 -39t-28 -39t-44 -16q-22 0 -34 16t-5 39zM253 211q7 23 28 39t43 16q23 0 35 -16t5 -39t-28 -39.5t-44 -16.5q-22 0 -34 16.5t-5 39.5zM78 340l9 30h501l-9 -30h-501z" />
    <glyph glyph-name="oslash" unicode="&#xf8;" horiz-adv-x="529" 
d="M331 511q-23 0 -48.5 -27.5t-50 -73.5t-44 -103t-31 -117.5t-11.5 -115.5q0 -36 8.5 -52t25.5 -16q23 0 48 26.5t49 71.5t43.5 101.5t31.5 117.5t12 118q0 42 -8.5 56t-24.5 14zM12 151q0 57 20 123t60.5 124.5t101 95.5t142.5 37q77 0 119.5 -42t42.5 -123
q0 -57 -20 -123t-60.5 -124.5t-101 -95.5t-142.5 -37q-77 0 -119.5 42t-42.5 123zM384 466l94 134l15 -9l-99 -142zM387 454l-252 -414l-11 18l253 413zM123 40l-88 -122l-15 10l93 130z" />
    <glyph glyph-name="ugrave" unicode="&#xf9;" horiz-adv-x="597" 
d="M393 351q-37 -110 -71 -181.5t-66.5 -111t-66.5 -56t-72 -16.5q-63 0 -82 40t5 111l97 295q10 29 4.5 39.5t-17.5 10.5q-13 0 -29 -14.5t-34 -64.5l-18 -48h-19l25 73q22 63 60 83t74 20q45 0 67 -19.5t24 -55t-14 -84.5l-90 -270q-22 -66 10 -66q24 0 55 38.5t64.5 104
t64.5 148.5t54 172zM442 85q-7 -25 -6 -37.5t17 -12.5q18 0 33.5 17.5t30.5 61.5l19 51h19l-27 -76q-20 -59 -57 -81t-77 -22q-27 0 -45.5 9t-28.5 25q-10 19 -8.5 45.5t9.5 60.5l101 391q41 1 77.5 4t67.5 10zM355 599q-38 48 -67 76.5t-49.5 48.5t-33.5 42q-14 23 -9.5 45
t22.5 33q21 13 44.5 4.5t36.5 -29.5q14 -22 20.5 -49.5t16 -66.5t31.5 -97z" />
    <glyph glyph-name="uacute" unicode="&#xfa;" horiz-adv-x="597" 
d="M393 351q-37 -110 -71 -181.5t-66.5 -111t-66.5 -56t-72 -16.5q-63 0 -82 40t5 111l97 295q10 29 4.5 39.5t-17.5 10.5q-13 0 -29 -14.5t-34 -64.5l-18 -48h-19l25 73q22 63 60 83t74 20q45 0 67 -19.5t24 -55t-14 -84.5l-90 -270q-22 -66 10 -66q24 0 55 38.5t64.5 104
t64.5 148.5t54 172zM442 85q-7 -25 -6 -37.5t17 -12.5q18 0 33.5 17.5t30.5 61.5l19 51h19l-27 -76q-20 -59 -57 -81t-77 -22q-27 0 -45.5 9t-28.5 25q-10 19 -8.5 45.5t9.5 60.5l101 391q41 1 77.5 4t67.5 10zM295 609q37 52 59 90t39.5 67t38.5 50q19 20 45.5 25.5
t45.5 -14.5q18 -17 13 -39.5t-28 -45.5q-20 -20 -48.5 -38.5t-66.5 -42.5t-88 -62z" />
    <glyph glyph-name="ucircumflex" unicode="&#xfb;" horiz-adv-x="597" 
d="M393 351q-37 -110 -71 -181.5t-66.5 -111t-66.5 -56t-72 -16.5q-63 0 -82 40t5 111l97 295q10 29 4.5 39.5t-17.5 10.5q-13 0 -29 -14.5t-34 -64.5l-18 -48h-19l25 73q22 63 60 83t74 20q45 0 67 -19.5t24 -55t-14 -84.5l-90 -270q-22 -66 10 -66q24 0 55 38.5t64.5 104
t64.5 148.5t54 172zM442 85q-7 -25 -6 -37.5t17 -12.5q18 0 33.5 17.5t30.5 61.5l19 51h19l-27 -76q-20 -59 -57 -81t-77 -22q-27 0 -45.5 9t-28.5 25q-10 19 -8.5 45.5t9.5 60.5l101 391q41 1 77.5 4t67.5 10zM342 684q-36 -20 -83 -39.5t-98 -34.5l-5 14q74 33 137.5 86
t101.5 110h18q14 -68 40.5 -115t78.5 -81l-4 -14q-65 14 -107 32.5t-79 41.5z" />
    <glyph glyph-name="udieresis" unicode="&#xfc;" horiz-adv-x="597" 
d="M393 351q-37 -110 -71 -181.5t-66.5 -111t-66.5 -56t-72 -16.5q-63 0 -82 40t5 111l97 295q10 29 4.5 39.5t-17.5 10.5q-13 0 -29 -14.5t-34 -64.5l-18 -48h-19l25 73q22 63 60 83t74 20q45 0 67 -19.5t24 -55t-14 -84.5l-90 -270q-22 -66 10 -66q24 0 55 38.5t64.5 104
t64.5 148.5t54 172zM442 85q-7 -25 -6 -37.5t17 -12.5q18 0 33.5 17.5t30.5 61.5l19 51h19l-27 -76q-20 -59 -57 -81t-77 -22q-27 0 -45.5 9t-28.5 25q-10 19 -8.5 45.5t9.5 60.5l101 391q41 1 77.5 4t67.5 10zM187 676q0 40 26 62t60 22q32 0 48.5 -18.5t16.5 -47.5
q0 -42 -27 -63t-60 -21t-48.5 18t-15.5 48zM414 676q0 40 26.5 62t59.5 22t49 -18.5t16 -47.5q0 -42 -26.5 -63t-59.5 -21t-49 18t-16 48z" />
    <glyph glyph-name="yacute" unicode="&#xfd;" horiz-adv-x="482" 
d="M307 61l-107 -121l-80 491q-5 27 -10 37t-16 10q-10 0 -20 -13.5t-27 -60.5l-18 -49h-19l25 73q21 61 53 82t70 21q41 0 66 -22.5t34 -85.5zM68 -139q47 23 97 62.5t102 106.5q56 69 98 149.5t62 154.5q-37 21 -65 54.5t-27 74.5q0 32 18 50t49 18q35 0 50.5 -24
t15.5 -67q0 -47 -16 -103t-44 -115.5t-63 -115.5t-74 -102q-31 -39 -69.5 -73t-81 -61t-88.5 -43q-22 -8 -40 -11.5t-31 -3.5q-32 0 -50.5 14.5t-18.5 41.5q0 26 19.5 44t49.5 18q32 0 58.5 -18.5t48.5 -50.5zM259 609q37 52 59 90t39.5 67t38.5 50q19 20 45.5 25.5
t45.5 -14.5q18 -17 13 -39.5t-28 -45.5q-20 -20 -48.5 -38.5t-66.5 -42.5t-88 -62z" />
    <glyph glyph-name="thorn" unicode="&#xfe;" horiz-adv-x="584" 
d="M375 478q-19 0 -41 -21t-43.5 -57t-40 -83t-31.5 -98l21 102q42 113 88 161.5t102 48.5q61 0 92.5 -39.5t31.5 -114.5q0 -46 -13 -99.5t-37.5 -105t-61 -93.5t-83.5 -67.5t-104 -25.5q-33 0 -59 12t-39 32l8 16q10 -17 22 -24t28 -7q30 0 58.5 24t52.5 64t42.5 89.5
t29 102t10.5 100.5q0 49 -9 66t-24 17zM236 767q41 3 78 10t71 18l-247 -870q-15 -52 6 -68t71 -17l-6 -21q-24 1 -67 2.5t-91 1.5q-40 0 -80.5 -1.5t-60.5 -2.5l6 21q36 0 52 13.5t26 48.5zM11 350q37 39 69 77.5t62.5 91.5t61.5 133l3 -16q-32 -104 -79 -171t-106 -128z
" />
    <glyph glyph-name="ydieresis" unicode="&#xff;" horiz-adv-x="482" 
d="M307 61l-107 -121l-80 491q-5 27 -10 37t-16 10q-10 0 -20 -13.5t-27 -60.5l-18 -49h-19l25 73q21 61 53 82t70 21q41 0 66 -22.5t34 -85.5zM68 -139q47 23 97 62.5t102 106.5q56 69 98 149.5t62 154.5q-37 21 -65 54.5t-27 74.5q0 32 18 50t49 18q35 0 50.5 -24
t15.5 -67q0 -47 -16 -103t-44 -115.5t-63 -115.5t-74 -102q-31 -39 -69.5 -73t-81 -61t-88.5 -43q-22 -8 -40 -11.5t-31 -3.5q-32 0 -50.5 14.5t-18.5 41.5q0 26 19.5 44t49.5 18q32 0 58.5 -18.5t48.5 -50.5zM150 676q0 40 26 62t60 22q32 0 48.5 -18.5t16.5 -47.5
q0 -42 -27 -63t-60 -21t-48.5 18t-15.5 48zM377 676q0 40 26.5 62t59.5 22t49 -18.5t16 -47.5q0 -42 -26.5 -63t-59.5 -21t-49 18t-16 48z" />
    <glyph glyph-name="Amacron" unicode="&#x100;" horiz-adv-x="653" 
d="M60 143q-31 -43 -32 -69.5t22 -39t62 -14.5l-5 -20q-42 2 -72.5 2.5t-57.5 0.5q-23 0 -38 -0.5t-31 -2.5l4 20q25 7 50 29.5t63 76.5l417 587q13 -1 26.5 -1t24.5 1l40 -629q3 -36 18.5 -49.5t30.5 -14.5l-4 -20q-25 2 -66.5 2.5t-78.5 0.5q-45 0 -85 -0.5t-65 -2.5l4 20
q48 2 68.5 17.5t17.5 66.5l-24 460l34 36zM153 288h292l-8 -20h-302zM674 844l-6 -25h-400l6 25h400z" />
    <glyph glyph-name="amacron" unicode="&#x101;" horiz-adv-x="558" 
d="M175 40q16 0 35 17t39 49.5t39 79.5t35 109l-22 -109q-38 -112 -86 -156t-104 -44t-84 33t-28 90q0 54 18.5 113t50 114t71 99t84 70t87.5 26q33 0 51 -26t11 -81l-11 -6q5 36 -3.5 56t-28.5 20q-26 0 -57 -35.5t-59.5 -93t-47 -127t-18.5 -136.5q0 -34 7 -48t21 -14z
M387 516q43 1 78 4.5t67 10.5l-131 -446q-3 -13 -4.5 -24.5t3 -18.5t15.5 -7q13 0 29 15.5t33 63.5l18 48h19l-25 -73q-22 -61 -59.5 -82t-72.5 -21q-52 0 -74 31q-15 22 -13.5 54.5t13.5 74.5zM563 712l-6 -25h-336l6 25h336z" />
    <glyph glyph-name="Abreve" unicode="&#x102;" horiz-adv-x="653" 
d="M60 143q-31 -43 -32 -69.5t22 -39t62 -14.5l-5 -20q-42 2 -72.5 2.5t-57.5 0.5q-23 0 -38 -0.5t-31 -2.5l4 20q25 7 50 29.5t63 76.5l417 587q13 -1 26.5 -1t24.5 1l40 -629q3 -36 18.5 -49.5t30.5 -14.5l-4 -20q-25 2 -66.5 2.5t-78.5 0.5q-45 0 -85 -0.5t-65 -2.5l4 20
q48 2 68.5 17.5t17.5 66.5l-24 460l34 36zM153 288h292l-8 -20h-302zM489 869q64 0 122 14.5t106 42.5l11 -10q-26 -36 -68 -69.5t-91.5 -54.5t-99.5 -21q-69 0 -108 42t-50 102l15 7q29 -28 66.5 -40.5t96.5 -12.5z" />
    <glyph glyph-name="abreve" unicode="&#x103;" horiz-adv-x="558" 
d="M175 40q16 0 35 17t39 49.5t39 79.5t35 109l-22 -109q-38 -112 -86 -156t-104 -44t-84 33t-28 90q0 54 18.5 113t50 114t71 99t84 70t87.5 26q33 0 51 -26t11 -81l-11 -6q5 36 -3.5 56t-28.5 20q-26 0 -57 -35.5t-59.5 -93t-47 -127t-18.5 -136.5q0 -34 7 -48t21 -14z
M387 516q43 1 78 4.5t67 10.5l-131 -446q-3 -13 -4.5 -24.5t3 -18.5t15.5 -7q13 0 29 15.5t33 63.5l18 48h19l-25 -73q-22 -61 -59.5 -82t-72.5 -21q-52 0 -74 31q-15 22 -13.5 54.5t13.5 74.5zM392 719q53 0 106.5 17.5t96.5 51.5l11 -10q-23 -39 -61 -75t-83.5 -59
t-90.5 -23q-55 0 -85.5 46t-39.5 110l16 7q23 -34 51.5 -49.5t78.5 -15.5z" />
    <glyph glyph-name="Aogonek" unicode="&#x104;" horiz-adv-x="653" 
d="M60 143q-31 -43 -32 -69.5t22 -39t62 -14.5l-5 -20q-42 2 -72.5 2.5t-57.5 0.5q-23 0 -38 -0.5t-31 -2.5l4 20q25 7 50 29.5t63 76.5l417 587q13 -1 26.5 -1t24.5 1l40 -629q3 -36 18.5 -49.5t30.5 -14.5l-4 -20q-25 2 -66.5 2.5t-78.5 0.5q-45 0 -85 -0.5t-65 -2.5l4 20
q48 2 68.5 17.5t17.5 66.5l-24 460l34 36zM153 288h292l-8 -20h-302zM548 3q-29 -11 -53 -28.5t-38 -38.5t-14 -44q0 -30 33 -30q16 0 36 6t37 16l11 -17q-36 -29 -72 -42t-73 -13q-40 0 -62.5 16t-22.5 44q0 32 29 57.5t73 44t90 29.5h26z" />
    <glyph glyph-name="aogonek" unicode="&#x105;" horiz-adv-x="558" 
d="M175 40q16 0 35 17t39 49.5t39 79.5t35 109l-22 -109q-38 -112 -86 -156t-104 -44t-84 33t-28 90q0 54 18.5 113t50 114t71 99t84 70t87.5 26q33 0 51 -26t11 -81l-11 -6q5 36 -3.5 56t-28.5 20q-26 0 -57 -35.5t-59.5 -93t-47 -127t-18.5 -136.5q0 -34 7 -48t21 -14z
M387 516q43 1 78 4.5t67 10.5l-131 -446q-3 -13 -4.5 -24.5t3 -18.5t15.5 -7q13 0 29 15.5t33 63.5l18 48h19l-25 -73q-22 -61 -59.5 -82t-72.5 -21q-52 0 -74 31q-15 22 -13.5 54.5t13.5 74.5zM422 3q-29 -10 -53 -27.5t-38 -39t-14 -45.5q0 -29 29 -29q16 0 33 9t30 21
l13 -12q-29 -35 -63 -51.5t-71 -16.5q-38 0 -61 16t-23 44q0 32 29 57.5t73 44t90 29.5h26z" />
    <glyph glyph-name="Cacute" unicode="&#x106;" horiz-adv-x="693" 
d="M746 708q-15 -39 -31 -94.5t-33 -135.5h-22q8 51 7.5 89t-16.5 66q-19 35 -49 50t-69 15q-50 0 -96 -27t-85 -74.5t-68.5 -109t-46 -131.5t-16.5 -142q0 -102 36.5 -150t98.5 -48q37 0 78 17t72 49q27 28 46.5 64t43.5 94h22q-25 -91 -38.5 -146.5t-20.5 -93.5h-22
q3 21 3 34q0 21 -8 25t-25 -8q-41 -28 -87.5 -46.5t-108.5 -18.5q-136 0 -202 64.5t-66 183.5q0 70 22.5 140t65 132.5t102 111t132.5 76.5t156 28q62 0 94 -19.5t55 -45.5q13 -15 26 -3t29 54h21zM489 784q50 39 82 70t56.5 53.5t51.5 37.5q21 12 49.5 11.5t41.5 -27.5
q12 -23 -1.5 -43.5t-38.5 -33.5q-37 -21 -92 -33.5t-142 -46.5z" />
    <glyph glyph-name="cacute" unicode="&#x107;" horiz-adv-x="463" 
d="M358 511q-37 0 -73 -31.5t-64.5 -84.5t-45.5 -119t-17 -136q0 -53 21 -76.5t55 -23.5q32 0 65 19t67 69l20 -8q-20 -33 -51.5 -64t-73 -50.5t-93.5 -19.5q-70 0 -115 37.5t-45 116.5q0 62 24 130t68.5 127.5t107.5 96.5t141 37q55 0 88.5 -27.5t33.5 -68.5
q0 -27 -13 -52.5t-35.5 -42t-50.5 -16.5q-24 0 -40.5 15.5t-16.5 42.5q0 41 27.5 70.5t63.5 38.5q-8 10 -19.5 15t-28.5 5zM283 608q37 52 59 90t39.5 67t38.5 50q19 20 45.5 25.5t45.5 -14.5q18 -17 13 -39.5t-28 -45.5q-20 -20 -48.5 -38.5t-66.5 -42.5t-88 -62z" />
    <glyph glyph-name="Ccircumflex" unicode="&#x108;" horiz-adv-x="693" 
d="M746 708q-15 -39 -31 -94.5t-33 -135.5h-22q8 51 7.5 89t-16.5 66q-19 35 -49 50t-69 15q-50 0 -96 -27t-85 -74.5t-68.5 -109t-46 -131.5t-16.5 -142q0 -102 36.5 -150t98.5 -48q37 0 78 17t72 49q27 28 46.5 64t43.5 94h22q-25 -91 -38.5 -146.5t-20.5 -93.5h-22
q3 21 3 34q0 21 -8 25t-25 -8q-41 -28 -87.5 -46.5t-108.5 -18.5q-136 0 -202 64.5t-66 183.5q0 70 22.5 140t65 132.5t102 111t132.5 76.5t156 28q62 0 94 -19.5t55 -45.5q13 -15 26 -3t29 54h21zM509 830q-43 -16 -100.5 -32t-117.5 -27l-5 14q84 26 156 68t115 87h18
q22 -52 53 -90t86 -65l-4 -14q-72 12 -116 27t-85 32z" />
    <glyph glyph-name="ccircumflex" unicode="&#x109;" horiz-adv-x="463" 
d="M358 511q-37 0 -73 -31.5t-64.5 -84.5t-45.5 -119t-17 -136q0 -53 21 -76.5t55 -23.5q32 0 65 19t67 69l20 -8q-20 -33 -51.5 -64t-73 -50.5t-93.5 -19.5q-70 0 -115 37.5t-45 116.5q0 62 24 130t68.5 127.5t107.5 96.5t141 37q55 0 88.5 -27.5t33.5 -68.5
q0 -27 -13 -52.5t-35.5 -42t-50.5 -16.5q-24 0 -40.5 15.5t-16.5 42.5q0 41 27.5 70.5t63.5 38.5q-8 10 -19.5 15t-28.5 5zM329 683q-36 -20 -83 -39.5t-98 -34.5l-5 14q74 33 137.5 86t101.5 110h18q14 -68 40.5 -115t78.5 -81l-4 -14q-65 14 -107 32.5t-79 41.5z" />
    <glyph glyph-name="Cdotaccent" unicode="&#x10a;" horiz-adv-x="693" 
d="M746 708q-15 -39 -31 -94.5t-33 -135.5h-22q8 51 7.5 89t-16.5 66q-19 35 -49 50t-69 15q-50 0 -96 -27t-85 -74.5t-68.5 -109t-46 -131.5t-16.5 -142q0 -102 36.5 -150t98.5 -48q37 0 78 17t72 49q27 28 46.5 64t43.5 94h22q-25 -91 -38.5 -146.5t-20.5 -93.5h-22
q3 21 3 34q0 21 -8 25t-25 -8q-41 -28 -87.5 -46.5t-108.5 -18.5q-136 0 -202 64.5t-66 183.5q0 70 22.5 140t65 132.5t102 111t132.5 76.5t156 28q62 0 94 -19.5t55 -45.5q13 -15 26 -3t29 54h21zM438 826q0 42 29.5 67.5t72.5 25.5q36 0 55 -16t19 -46q0 -39 -30 -65.5
t-74 -26.5q-34 0 -53 16.5t-19 44.5z" />
    <glyph glyph-name="cdotaccent" unicode="&#x10b;" horiz-adv-x="463" 
d="M358 511q-37 0 -73 -31.5t-64.5 -84.5t-45.5 -119t-17 -136q0 -53 21 -76.5t55 -23.5q32 0 65 19t67 69l20 -8q-20 -33 -51.5 -64t-73 -50.5t-93.5 -19.5q-70 0 -115 37.5t-45 116.5q0 62 24 130t68.5 127.5t107.5 96.5t141 37q55 0 88.5 -27.5t33.5 -68.5
q0 -27 -13 -52.5t-35.5 -42t-50.5 -16.5q-24 0 -40.5 15.5t-16.5 42.5q0 41 27.5 70.5t63.5 38.5q-8 10 -19.5 15t-28.5 5zM274 680q0 43 29.5 68.5t73.5 25.5q36 0 55 -16t19 -45q0 -39 -30 -66t-74 -27q-34 0 -53.5 16t-19.5 44z" />
    <glyph glyph-name="Ccaron" unicode="&#x10c;" horiz-adv-x="693" 
d="M746 708q-15 -39 -31 -94.5t-33 -135.5h-22q8 51 7.5 89t-16.5 66q-19 35 -49 50t-69 15q-50 0 -96 -27t-85 -74.5t-68.5 -109t-46 -131.5t-16.5 -142q0 -102 36.5 -150t98.5 -48q37 0 78 17t72 49q27 28 46.5 64t43.5 94h22q-25 -91 -38.5 -146.5t-20.5 -93.5h-22
q3 21 3 34q0 21 -8 25t-25 -8q-41 -28 -87.5 -46.5t-108.5 -18.5q-136 0 -202 64.5t-66 183.5q0 70 22.5 140t65 132.5t102 111t132.5 76.5t156 28q62 0 94 -19.5t55 -45.5q13 -15 26 -3t29 54h21zM567 878q43 16 100 32t117 27l5 -14q-84 -25 -156 -67.5t-115 -87.5h-18
q-21 53 -52 90.5t-87 64.5l4 14q72 -12 116.5 -26.5t85.5 -32.5z" />
    <glyph glyph-name="ccaron" unicode="&#x10d;" horiz-adv-x="463" 
d="M358 511q-37 0 -73 -31.5t-64.5 -84.5t-45.5 -119t-17 -136q0 -53 21 -76.5t55 -23.5q32 0 65 19t67 69l20 -8q-20 -33 -51.5 -64t-73 -50.5t-93.5 -19.5q-70 0 -115 37.5t-45 116.5q0 62 24 130t68.5 127.5t107.5 96.5t141 37q55 0 88.5 -27.5t33.5 -68.5
q0 -27 -13 -52.5t-35.5 -42t-50.5 -16.5q-24 0 -40.5 15.5t-16.5 42.5q0 41 27.5 70.5t63.5 38.5q-8 10 -19.5 15t-28.5 5zM397 745q37 20 84 40t97 34l5 -14q-74 -32 -137 -85.5t-102 -110.5h-18q-13 69 -40 115.5t-79 80.5l4 14q66 -14 108 -32t78 -42z" />
    <glyph glyph-name="Dcaron" unicode="&#x10e;" horiz-adv-x="771" 
d="M756 469q0 -65 -19 -132t-58.5 -127t-98 -107.5t-138 -75t-179.5 -27.5q-24 0 -62.5 1.5t-88.5 1.5q-23 0 -51.5 -0.5t-55 -1t-43.5 -1.5l3 20q32 2 50.5 8t29.5 24t20 54l131 496q11 43 3.5 63.5t-61.5 22.5l3 20q18 -1 46 -2t59.5 -1h58.5q18 1 46 1.5l56 1t47 0.5
q145 0 223.5 -60t78.5 -179zM263 18q80 0 142 42.5t104 113.5t63.5 156.5t21.5 170.5q0 92 -38 140.5t-124 48.5q-25 0 -38 -6.5t-21 -24.5t-18 -55l-131 -500q-12 -48 -9 -67t48 -19zM511 878q43 16 100 32t117 27l5 -14q-84 -25 -156 -67.5t-115 -87.5h-18
q-21 53 -52 90.5t-87 64.5l4 14q72 -12 116.5 -26.5t85.5 -32.5z" />
    <glyph glyph-name="dcaron" unicode="&#x10f;" horiz-adv-x="579" 
d="M424 85q-9 -24 -4.5 -37t18.5 -13q13 0 28.5 15.5t32.5 63.5l17 48h19l-24 -73q-21 -62 -58.5 -82.5t-73.5 -20.5q-62 0 -79 46q-9 19 -8 47.5t12 65.5l139 522q10 34 -2 50t-61 16l6 21q71 1 127 11.5t107 29.5zM184 36q17 0 40 22t49 65.5t50 107t43 145.5l-15 -108
q-33 -96 -65.5 -159t-71 -93t-91.5 -30q-50 0 -84.5 33.5t-34.5 106.5q0 46 14.5 100.5t43 107.5t69 98t92.5 72t114 27q32 0 47.5 -14.5t18.5 -40.5l-8 -20q-4 26 -14 39t-30 13q-32 0 -67 -35.5t-65 -94.5t-48.5 -130.5t-18.5 -142.5q0 -34 7.5 -51.5t24.5 -17.5zM623 540
q34 74 47.5 124t13.5 69t-13 19l3 21q8 0 15 -0.5t13 -0.5q33 0 55.5 4t40.5 8q1 -2 1 -10q0 -38 -43 -101t-119 -137z" />
    <glyph glyph-name="Dcroat" unicode="&#x110;" horiz-adv-x="771" 
d="M756 469q0 -65 -19 -132t-58.5 -127t-98 -107.5t-138 -75t-179.5 -27.5q-24 0 -62.5 1.5t-88.5 1.5q-23 0 -51.5 -0.5t-55 -1t-43.5 -1.5l3 20q32 2 50.5 8t29.5 24t20 54l131 496q11 43 3.5 63.5t-61.5 22.5l3 20q18 -1 46 -2t59.5 -1h58.5q18 1 46 1.5l56 1t47 0.5
q145 0 223.5 -60t78.5 -179zM263 18q80 0 142 42.5t104 113.5t63.5 156.5t21.5 170.5q0 92 -38 140.5t-124 48.5q-25 0 -38 -6.5t-21 -24.5t-18 -55l-131 -500q-12 -48 -9 -67t48 -19zM450 366l-6 -25h-424l6 25h424z" />
    <glyph glyph-name="dcroat" unicode="&#x111;" horiz-adv-x="579" 
d="M424 85q-9 -24 -4.5 -37t18.5 -13q13 0 28.5 15.5t32.5 63.5l17 48h19l-24 -73q-21 -62 -58.5 -82.5t-73.5 -20.5q-62 0 -79 46q-9 19 -8 47.5t12 65.5l139 522q10 34 -2 50t-61 16l6 21q71 1 127 11.5t107 29.5zM184 36q17 0 40 22t49 65.5t50 107t43 145.5l-15 -108
q-33 -96 -65.5 -159t-71 -93t-91.5 -30q-50 0 -84.5 33.5t-34.5 106.5q0 46 14.5 100.5t43 107.5t69 98t92.5 72t114 27q32 0 47.5 -14.5t18.5 -40.5l-8 -20q-4 26 -14 39t-30 13q-32 0 -67 -35.5t-65 -94.5t-48.5 -130.5t-18.5 -142.5q0 -34 7.5 -51.5t24.5 -17.5zM655 628
l-6 -20h-386l6 20h386z" />
    <glyph glyph-name="Emacron" unicode="&#x112;" horiz-adv-x="626" 
d="M225 346l5 20h198l-5 -20h-198zM330 366q38 0 64 19t44.5 46.5t28.5 54.5h23q-16 -46 -23 -73.5t-14 -56.5q-5 -18 -9 -35t-8.5 -38.5t-11.5 -56.5h-22q2 27 -2.5 54.5t-22 46.5t-58.5 19zM598 528q4 59 -5 93.5t-34.5 49t-70.5 14.5h-31q-33 0 -51.5 -5.5t-29 -23
t-20.5 -54.5l-132 -496q-15 -55 -3.5 -69t60.5 -14h37q54 0 91 17t66.5 55.5t58.5 104.5h23q-5 -13 -11 -32t-11 -40q-5 -19 -13 -54.5t-13 -73.5q-51 2 -114 2.5t-113 0.5h-90t-118 -0.5t-117 -2.5l5 20q34 2 53 8t29.5 24t20.5 54l132 496q14 55 2.5 69.5t-61.5 16.5l5 20
q55 -1 117 -2t118 -1h90q45 0 101.5 0.5t101.5 2.5q-13 -35 -22 -63t-16 -55q-4 -18 -7.5 -34t-5.5 -28h-22zM634 844l-6 -25h-400l6 25h400z" />
    <glyph glyph-name="emacron" unicode="&#x113;" horiz-adv-x="469" 
d="M131 217q41 16 78 36t63 44q39 35 62.5 81.5t23.5 100.5q0 20 -4 26.5t-12 6.5q-27 0 -60 -34t-62.5 -89t-48 -120t-18.5 -126q0 -56 21.5 -76.5t55.5 -20.5q27 0 67 18t79 64l16 -8q-21 -33 -55 -64t-79 -50.5t-98 -19.5q-67 0 -112 35.5t-45 105.5q0 53 17.5 109
t49.5 108.5t77 95t100 67t117 24.5q44 0 74 -19.5t30 -59.5q0 -39 -21.5 -73t-57.5 -62t-80.5 -50t-91 -38t-87.5 -25zM541 712l-6 -25h-336l6 25h336z" />
    <glyph glyph-name="Ebreve" unicode="&#x114;" horiz-adv-x="626" 
d="M225 346l5 20h198l-5 -20h-198zM330 366q38 0 64 19t44.5 46.5t28.5 54.5h23q-16 -46 -23 -73.5t-14 -56.5q-5 -18 -9 -35t-8.5 -38.5t-11.5 -56.5h-22q2 27 -2.5 54.5t-22 46.5t-58.5 19zM598 528q4 59 -5 93.5t-34.5 49t-70.5 14.5h-31q-33 0 -51.5 -5.5t-29 -23
t-20.5 -54.5l-132 -496q-15 -55 -3.5 -69t60.5 -14h37q54 0 91 17t66.5 55.5t58.5 104.5h23q-5 -13 -11 -32t-11 -40q-5 -19 -13 -54.5t-13 -73.5q-51 2 -114 2.5t-113 0.5h-90t-118 -0.5t-117 -2.5l5 20q34 2 53 8t29.5 24t20.5 54l132 496q14 55 2.5 69.5t-61.5 16.5l5 20
q55 -1 117 -2t118 -1h90q45 0 101.5 0.5t101.5 2.5q-13 -35 -22 -63t-16 -55q-4 -18 -7.5 -34t-5.5 -28h-22zM449 869q64 0 122 14.5t106 42.5l11 -10q-26 -36 -68 -69.5t-91.5 -54.5t-99.5 -21q-69 0 -108 42t-50 102l15 7q29 -28 66.5 -40.5t96.5 -12.5z" />
    <glyph glyph-name="ebreve" unicode="&#x115;" horiz-adv-x="469" 
d="M131 217q41 16 78 36t63 44q39 35 62.5 81.5t23.5 100.5q0 20 -4 26.5t-12 6.5q-27 0 -60 -34t-62.5 -89t-48 -120t-18.5 -126q0 -56 21.5 -76.5t55.5 -20.5q27 0 67 18t79 64l16 -8q-21 -33 -55 -64t-79 -50.5t-98 -19.5q-67 0 -112 35.5t-45 105.5q0 53 17.5 109
t49.5 108.5t77 95t100 67t117 24.5q44 0 74 -19.5t30 -59.5q0 -39 -21.5 -73t-57.5 -62t-80.5 -50t-91 -38t-87.5 -25zM369 719q53 0 106.5 17.5t96.5 51.5l11 -10q-23 -39 -61 -75t-83.5 -59t-90.5 -23q-55 0 -85.5 46t-39.5 110l16 7q23 -34 51.5 -49.5t78.5 -15.5z" />
    <glyph glyph-name="Edotaccent" unicode="&#x116;" horiz-adv-x="626" 
d="M225 346l5 20h198l-5 -20h-198zM330 366q38 0 64 19t44.5 46.5t28.5 54.5h23q-16 -46 -23 -73.5t-14 -56.5q-5 -18 -9 -35t-8.5 -38.5t-11.5 -56.5h-22q2 27 -2.5 54.5t-22 46.5t-58.5 19zM598 528q4 59 -5 93.5t-34.5 49t-70.5 14.5h-31q-33 0 -51.5 -5.5t-29 -23
t-20.5 -54.5l-132 -496q-15 -55 -3.5 -69t60.5 -14h37q54 0 91 17t66.5 55.5t58.5 104.5h23q-5 -13 -11 -32t-11 -40q-5 -19 -13 -54.5t-13 -73.5q-51 2 -114 2.5t-113 0.5h-90t-118 -0.5t-117 -2.5l5 20q34 2 53 8t29.5 24t20.5 54l132 496q14 55 2.5 69.5t-61.5 16.5l5 20
q55 -1 117 -2t118 -1h90q45 0 101.5 0.5t101.5 2.5q-13 -35 -22 -63t-16 -55q-4 -18 -7.5 -34t-5.5 -28h-22zM363 826q0 42 29.5 67.5t72.5 25.5q36 0 55 -16t19 -46q0 -39 -30 -65.5t-74 -26.5q-34 0 -53 16.5t-19 44.5z" />
    <glyph glyph-name="edotaccent" unicode="&#x117;" horiz-adv-x="469" 
d="M131 217q41 16 78 36t63 44q39 35 62.5 81.5t23.5 100.5q0 20 -4 26.5t-12 6.5q-27 0 -60 -34t-62.5 -89t-48 -120t-18.5 -126q0 -56 21.5 -76.5t55.5 -20.5q27 0 67 18t79 64l16 -8q-21 -33 -55 -64t-79 -50.5t-98 -19.5q-67 0 -112 35.5t-45 105.5q0 53 17.5 109
t49.5 108.5t77 95t100 67t117 24.5q44 0 74 -19.5t30 -59.5q0 -39 -21.5 -73t-57.5 -62t-80.5 -50t-91 -38t-87.5 -25zM283 681q0 43 29.5 68.5t73.5 25.5q36 0 55 -16t19 -45q0 -39 -30 -66t-74 -27q-34 0 -53.5 16t-19.5 44z" />
    <glyph glyph-name="Eogonek" unicode="&#x118;" horiz-adv-x="626" 
d="M225 346l5 20h198l-5 -20h-198zM330 366q38 0 64 19t44.5 46.5t28.5 54.5h23q-16 -46 -23 -73.5t-14 -56.5q-5 -18 -9 -35t-8.5 -38.5t-11.5 -56.5h-22q2 27 -2.5 54.5t-22 46.5t-58.5 19zM598 528q4 59 -5 93.5t-34.5 49t-70.5 14.5h-31q-33 0 -51.5 -5.5t-29 -23
t-20.5 -54.5l-132 -496q-15 -55 -3.5 -69t60.5 -14h37q54 0 91 17t66.5 55.5t58.5 104.5h23q-5 -13 -11 -32t-11 -40q-5 -19 -13 -54.5t-13 -73.5q-51 2 -114 2.5t-113 0.5h-90t-118 -0.5t-117 -2.5l5 20q34 2 53 8t29.5 24t20.5 54l132 496q14 55 2.5 69.5t-61.5 16.5l5 20
q55 -1 117 -2t118 -1h90q45 0 101.5 0.5t101.5 2.5q-13 -35 -22 -63t-16 -55q-4 -18 -7.5 -34t-5.5 -28h-22zM506 3q-29 -11 -53 -28.5t-38 -38.5t-14 -44q0 -30 33 -30q16 0 36 6t37 16l11 -17q-36 -29 -72 -42t-73 -13q-40 0 -62.5 16t-22.5 44q0 32 29 57.5t73 44
t90 29.5h26z" />
    <glyph glyph-name="eogonek" unicode="&#x119;" horiz-adv-x="469" 
d="M131 217q41 16 78 36t63 44q39 35 62.5 81.5t23.5 100.5q0 20 -4 26.5t-12 6.5q-27 0 -60 -34t-62.5 -89t-48 -120t-18.5 -126q0 -56 21.5 -76.5t55.5 -20.5q27 0 67 18t79 64l16 -8q-21 -33 -55 -64t-79 -50.5t-98 -19.5q-67 0 -112 35.5t-45 105.5q0 53 17.5 109
t49.5 108.5t77 95t100 67t117 24.5q44 0 74 -19.5t30 -59.5q0 -39 -21.5 -73t-57.5 -62t-80.5 -50t-91 -38t-87.5 -25zM249 3q-29 -10 -53 -27.5t-38 -39t-14 -45.5q0 -29 29 -29q16 0 33 9t30 21l13 -12q-29 -35 -63 -51.5t-71 -16.5q-38 0 -61 16t-23 44q0 32 29 57.5
t73 44t90 29.5h26z" />
    <glyph glyph-name="Ecaron" unicode="&#x11a;" horiz-adv-x="626" 
d="M225 346l5 20h198l-5 -20h-198zM330 366q38 0 64 19t44.5 46.5t28.5 54.5h23q-16 -46 -23 -73.5t-14 -56.5q-5 -18 -9 -35t-8.5 -38.5t-11.5 -56.5h-22q2 27 -2.5 54.5t-22 46.5t-58.5 19zM598 528q4 59 -5 93.5t-34.5 49t-70.5 14.5h-31q-33 0 -51.5 -5.5t-29 -23
t-20.5 -54.5l-132 -496q-15 -55 -3.5 -69t60.5 -14h37q54 0 91 17t66.5 55.5t58.5 104.5h23q-5 -13 -11 -32t-11 -40q-5 -19 -13 -54.5t-13 -73.5q-51 2 -114 2.5t-113 0.5h-90t-118 -0.5t-117 -2.5l5 20q34 2 53 8t29.5 24t20.5 54l132 496q14 55 2.5 69.5t-61.5 16.5l5 20
q55 -1 117 -2t118 -1h90q45 0 101.5 0.5t101.5 2.5q-13 -35 -22 -63t-16 -55q-4 -18 -7.5 -34t-5.5 -28h-22zM491 878q43 16 100 32t117 27l5 -14q-84 -25 -156 -67.5t-115 -87.5h-18q-21 53 -52 90.5t-87 64.5l4 14q72 -12 116.5 -26.5t85.5 -32.5z" />
    <glyph glyph-name="ecaron" unicode="&#x11b;" horiz-adv-x="469" 
d="M131 217q41 16 78 36t63 44q39 35 62.5 81.5t23.5 100.5q0 20 -4 26.5t-12 6.5q-27 0 -60 -34t-62.5 -89t-48 -120t-18.5 -126q0 -56 21.5 -76.5t55.5 -20.5q27 0 67 18t79 64l16 -8q-21 -33 -55 -64t-79 -50.5t-98 -19.5q-67 0 -112 35.5t-45 105.5q0 53 17.5 109
t49.5 108.5t77 95t100 67t117 24.5q44 0 74 -19.5t30 -59.5q0 -39 -21.5 -73t-57.5 -62t-80.5 -50t-91 -38t-87.5 -25zM406 746q37 20 84 40t97 34l5 -14q-74 -32 -137 -85.5t-102 -110.5h-18q-13 69 -40 115.5t-79 80.5l4 14q66 -14 108 -32t78 -42z" />
    <glyph glyph-name="Gcircumflex" unicode="&#x11c;" horiz-adv-x="739" 
d="M340 6q22 0 42.5 6t34.5 15q18 12 26 28.5t15 44.5l23 88q11 41 8.5 61t-22 27t-61.5 8l5 20q31 -1 80 -2t90 -1q44 0 81 1t60 2l-5 -20q-22 -1 -34.5 -7t-21 -24t-18.5 -55l-53 -198h-20q2 26 -4.5 41.5t-23.5 15.5q-19 0 -40.5 -10.5t-43.5 -21.5q-38 -20 -73 -29.5
t-72 -9.5q-130 0 -202.5 60t-72.5 169q0 68 22.5 139t64 137t101 118t133 82.5t159.5 30.5q65 0 100.5 -19t63.5 -46q15 -15 28 -5t29 56h22q-15 -39 -31 -94.5t-33 -135.5h-22q2 20 3.5 38.5t1.5 36.5q0 21 -2.5 38.5t-11.5 34.5q-20 38 -59.5 58t-94.5 20
q-62 0 -111.5 -35.5t-88 -94t-64 -128t-38.5 -139t-13 -125.5q0 -90 35.5 -133t107.5 -43zM521 830q-43 -16 -100.5 -32t-117.5 -27l-5 14q84 26 156 68t115 87h18q22 -52 53 -90t86 -65l-4 -14q-72 12 -116 27t-85 32z" />
    <glyph glyph-name="gcircumflex" unicode="&#x11d;" horiz-adv-x="472" 
d="M223 226l46 5q-59 -26 -94 -45t-35 -35q0 -9 11.5 -15.5t33.5 -13.5l84 -28q29 -9 55 -22.5t42.5 -34t16.5 -51.5q0 -37 -24 -69t-66.5 -56.5t-97 -38t-116.5 -13.5q-51 0 -92 9.5t-65.5 26.5t-24.5 40q0 19 17 35t44 27.5t59 19t63 10.5l4 -15q-34 -19 -48 -39t-14 -40
q0 -28 21.5 -42.5t57.5 -14.5q37 0 77 14t67.5 38.5t27.5 53.5q0 18 -14 25t-38 14l-142 41q-25 7 -42.5 23.5t-17.5 41.5q0 28 23.5 51t69.5 46.5t111 51.5zM266 512q-23 0 -41 -21.5t-29.5 -55.5t-17 -72t-5.5 -71t8.5 -46t23.5 -13q25 0 42.5 20.5t29 53t16.5 70t5 72.5
q0 26 -6 44.5t-26 18.5zM284 530q65 0 108 -26.5t43 -86.5q0 -48 -30.5 -94.5t-85.5 -77t-131 -30.5q-64 0 -107 27t-43 85q0 33 15.5 68.5t46 66t76.5 49.5t108 19zM362 478l-19 7q15 39 48.5 64.5t72.5 25.5q31 0 48 -17t17 -47q0 -28 -15 -43t-32 -15q-16 0 -30.5 12
t-18.5 37t12 63l8 -5q-38 -14 -57 -32.5t-34 -49.5zM304 684q-36 -20 -83 -39.5t-98 -34.5l-5 14q74 33 137.5 86t101.5 110h18q14 -68 40.5 -115t78.5 -81l-4 -14q-65 14 -107 32.5t-79 41.5z" />
    <glyph glyph-name="Gbreve" unicode="&#x11e;" horiz-adv-x="739" 
d="M340 6q22 0 42.5 6t34.5 15q18 12 26 28.5t15 44.5l23 88q11 41 8.5 61t-22 27t-61.5 8l5 20q31 -1 80 -2t90 -1q44 0 81 1t60 2l-5 -20q-22 -1 -34.5 -7t-21 -24t-18.5 -55l-53 -198h-20q2 26 -4.5 41.5t-23.5 15.5q-19 0 -40.5 -10.5t-43.5 -21.5q-38 -20 -73 -29.5
t-72 -9.5q-130 0 -202.5 60t-72.5 169q0 68 22.5 139t64 137t101 118t133 82.5t159.5 30.5q65 0 100.5 -19t63.5 -46q15 -15 28 -5t29 56h22q-15 -39 -31 -94.5t-33 -135.5h-22q2 20 3.5 38.5t1.5 36.5q0 21 -2.5 38.5t-11.5 34.5q-20 38 -59.5 58t-94.5 20
q-62 0 -111.5 -35.5t-88 -94t-64 -128t-38.5 -139t-13 -125.5q0 -90 35.5 -133t107.5 -43zM536 869q64 0 122 14.5t106 42.5l11 -10q-26 -36 -68 -69.5t-91.5 -54.5t-99.5 -21q-69 0 -108 42t-50 102l15 7q29 -28 66.5 -40.5t96.5 -12.5z" />
    <glyph glyph-name="gbreve" unicode="&#x11f;" horiz-adv-x="472" 
d="M223 226l46 5q-59 -26 -94 -45t-35 -35q0 -9 11.5 -15.5t33.5 -13.5l84 -28q29 -9 55 -22.5t42.5 -34t16.5 -51.5q0 -37 -24 -69t-66.5 -56.5t-97 -38t-116.5 -13.5q-51 0 -92 9.5t-65.5 26.5t-24.5 40q0 19 17 35t44 27.5t59 19t63 10.5l4 -15q-34 -19 -48 -39t-14 -40
q0 -28 21.5 -42.5t57.5 -14.5q37 0 77 14t67.5 38.5t27.5 53.5q0 18 -14 25t-38 14l-142 41q-25 7 -42.5 23.5t-17.5 41.5q0 28 23.5 51t69.5 46.5t111 51.5zM266 512q-23 0 -41 -21.5t-29.5 -55.5t-17 -72t-5.5 -71t8.5 -46t23.5 -13q25 0 42.5 20.5t29 53t16.5 70t5 72.5
q0 26 -6 44.5t-26 18.5zM284 530q65 0 108 -26.5t43 -86.5q0 -48 -30.5 -94.5t-85.5 -77t-131 -30.5q-64 0 -107 27t-43 85q0 33 15.5 68.5t46 66t76.5 49.5t108 19zM362 478l-19 7q15 39 48.5 64.5t72.5 25.5q31 0 48 -17t17 -47q0 -28 -15 -43t-32 -15q-16 0 -30.5 12
t-18.5 37t12 63l8 -5q-38 -14 -57 -32.5t-34 -49.5zM336 719q53 0 106.5 17.5t96.5 51.5l11 -10q-23 -39 -61 -75t-83.5 -59t-90.5 -23q-55 0 -85.5 46t-39.5 110l16 7q23 -34 51.5 -49.5t78.5 -15.5z" />
    <glyph glyph-name="Gdotaccent" unicode="&#x120;" horiz-adv-x="739" 
d="M340 6q22 0 42.5 6t34.5 15q18 12 26 28.5t15 44.5l23 88q11 41 8.5 61t-22 27t-61.5 8l5 20q31 -1 80 -2t90 -1q44 0 81 1t60 2l-5 -20q-22 -1 -34.5 -7t-21 -24t-18.5 -55l-53 -198h-20q2 26 -4.5 41.5t-23.5 15.5q-19 0 -40.5 -10.5t-43.5 -21.5q-38 -20 -73 -29.5
t-72 -9.5q-130 0 -202.5 60t-72.5 169q0 68 22.5 139t64 137t101 118t133 82.5t159.5 30.5q65 0 100.5 -19t63.5 -46q15 -15 28 -5t29 56h22q-15 -39 -31 -94.5t-33 -135.5h-22q2 20 3.5 38.5t1.5 36.5q0 21 -2.5 38.5t-11.5 34.5q-20 38 -59.5 58t-94.5 20
q-62 0 -111.5 -35.5t-88 -94t-64 -128t-38.5 -139t-13 -125.5q0 -90 35.5 -133t107.5 -43zM450 826q0 42 29.5 67.5t72.5 25.5q36 0 55 -16t19 -46q0 -39 -30 -65.5t-74 -26.5q-34 0 -53 16.5t-19 44.5z" />
    <glyph glyph-name="gdotaccent" unicode="&#x121;" horiz-adv-x="472" 
d="M223 226l46 5q-59 -26 -94 -45t-35 -35q0 -9 11.5 -15.5t33.5 -13.5l84 -28q29 -9 55 -22.5t42.5 -34t16.5 -51.5q0 -37 -24 -69t-66.5 -56.5t-97 -38t-116.5 -13.5q-51 0 -92 9.5t-65.5 26.5t-24.5 40q0 19 17 35t44 27.5t59 19t63 10.5l4 -15q-34 -19 -48 -39t-14 -40
q0 -28 21.5 -42.5t57.5 -14.5q37 0 77 14t67.5 38.5t27.5 53.5q0 18 -14 25t-38 14l-142 41q-25 7 -42.5 23.5t-17.5 41.5q0 28 23.5 51t69.5 46.5t111 51.5zM266 512q-23 0 -41 -21.5t-29.5 -55.5t-17 -72t-5.5 -71t8.5 -46t23.5 -13q25 0 42.5 20.5t29 53t16.5 70t5 72.5
q0 26 -6 44.5t-26 18.5zM284 530q65 0 108 -26.5t43 -86.5q0 -48 -30.5 -94.5t-85.5 -77t-131 -30.5q-64 0 -107 27t-43 85q0 33 15.5 68.5t46 66t76.5 49.5t108 19zM362 478l-19 7q15 39 48.5 64.5t72.5 25.5q31 0 48 -17t17 -47q0 -28 -15 -43t-32 -15q-16 0 -30.5 12
t-18.5 37t12 63l8 -5q-38 -14 -57 -32.5t-34 -49.5zM250 681q0 43 29.5 68.5t73.5 25.5q36 0 55 -16t19 -45q0 -39 -30 -66t-74 -27q-34 0 -53.5 16t-19.5 44z" />
    <glyph glyph-name="uni0122" unicode="&#x122;" horiz-adv-x="739" 
d="M340 6q22 0 42.5 6t34.5 15q18 12 26 28.5t15 44.5l23 88q11 41 8.5 61t-22 27t-61.5 8l5 20q31 -1 80 -2t90 -1q44 0 81 1t60 2l-5 -20q-22 -1 -34.5 -7t-21 -24t-18.5 -55l-53 -198h-20q2 26 -4.5 41.5t-23.5 15.5q-19 0 -40.5 -10.5t-43.5 -21.5q-38 -20 -73 -29.5
t-72 -9.5q-130 0 -202.5 60t-72.5 169q0 68 22.5 139t64 137t101 118t133 82.5t159.5 30.5q65 0 100.5 -19t63.5 -46q15 -15 28 -5t29 56h22q-15 -39 -31 -94.5t-33 -135.5h-22q2 20 3.5 38.5t1.5 36.5q0 21 -2.5 38.5t-11.5 34.5q-20 38 -59.5 58t-94.5 20
q-62 0 -111.5 -35.5t-88 -94t-64 -128t-38.5 -139t-13 -125.5q0 -90 35.5 -133t107.5 -43zM320 -53q26 0 47 -15t21 -46q0 -50 -35 -83.5t-103 -43.5l-2 19q37 4 65.5 19t33.5 39q-10 -7 -25 -12t-32 -5q-28 0 -44 12.5t-16 36.5q0 33 26 56t64 23z" />
    <glyph glyph-name="uni0123" unicode="&#x123;" horiz-adv-x="472" 
d="M223 226l46 5q-59 -26 -94 -45t-35 -35q0 -9 11.5 -15.5t33.5 -13.5l84 -28q29 -9 55 -22.5t42.5 -34t16.5 -51.5q0 -37 -24 -69t-66.5 -56.5t-97 -38t-116.5 -13.5q-51 0 -92 9.5t-65.5 26.5t-24.5 40q0 19 17 35t44 27.5t59 19t63 10.5l4 -15q-34 -19 -48 -39t-14 -40
q0 -28 21.5 -42.5t57.5 -14.5q37 0 77 14t67.5 38.5t27.5 53.5q0 18 -14 25t-38 14l-142 41q-25 7 -42.5 23.5t-17.5 41.5q0 28 23.5 51t69.5 46.5t111 51.5zM266 512q-23 0 -41 -21.5t-29.5 -55.5t-17 -72t-5.5 -71t8.5 -46t23.5 -13q25 0 42.5 20.5t29 53t16.5 70t5 72.5
q0 26 -6 44.5t-26 18.5zM284 530q65 0 108 -26.5t43 -86.5q0 -48 -30.5 -94.5t-85.5 -77t-131 -30.5q-64 0 -107 27t-43 85q0 33 15.5 68.5t46 66t76.5 49.5t108 19zM362 478l-19 7q15 39 48.5 64.5t72.5 25.5q31 0 48 -17t17 -47q0 -28 -15 -43t-32 -15q-16 0 -30.5 12
t-18.5 37t12 63l8 -5q-38 -14 -57 -32.5t-34 -49.5zM307 618q-26 0 -47 15t-21 46q0 50 35 83.5t103 43.5l2 -19q-37 -4 -65.5 -19t-33.5 -39q10 7 25 12t32 5q28 0 44 -12.5t16 -36.5q0 -33 -26 -56t-64 -23z" />
    <glyph glyph-name="Hcircumflex" unicode="&#x124;" horiz-adv-x="810" 
d="M239 346l7 20h353l-8 -20h-352zM617 602q15 55 3 69.5t-62 16.5l5 20q27 -1 70 -2t86 -1q49 0 93 1t72 2l-5 -20q-34 -1 -53 -7.5t-29.5 -24t-20.5 -54.5l-132 -496q-14 -55 -3 -69.5t62 -16.5l-4 -20q-27 2 -71 2.5t-93 0.5q-43 0 -86.5 -0.5t-70.5 -2.5l4 20q34 2 53 8
t30 24t20 54zM224 106q-14 -55 -3 -69.5t62 -16.5l-4 -20q-28 2 -70.5 2.5t-86.5 0.5q-50 0 -93 -0.5t-70 -2.5l5 20q33 2 51.5 8t29.5 24t20 54l132 496q14 55 2.5 69.5t-61.5 16.5l5 20q25 -1 69 -2t94 -1q44 0 85.5 1t72.5 2l-5 -20q-34 -1 -53 -7.5t-29.5 -24
t-20.5 -54.5zM523 830q-43 -16 -100.5 -32t-117.5 -27l-5 14q84 26 156 68t115 87h18q22 -52 53 -90t86 -65l-4 -14q-72 12 -116 27t-85 32z" />
    <glyph glyph-name="hcircumflex" unicode="&#x125;" horiz-adv-x="570" 
d="M123 0h-141l198 667q10 34 -2 50t-61 16l6 21q71 1 127 11.5t106 29.5zM148 145q40 115 74.5 190t67.5 118t68 60.5t75 17.5q49 0 69.5 -21t20.5 -55.5t-13 -74.5l-98 -295q-9 -27 -4 -38.5t18 -11.5t28.5 14.5t33.5 64.5l18 48h19l-25 -73q-22 -63 -60 -83t-74 -20
q-48 0 -69.5 21.5t-21.5 58t15 79.5l89 270q6 17 8.5 32t-1 24.5t-17.5 9.5q-25 0 -56.5 -39t-65.5 -105.5t-65.5 -150.5t-55.5 -176zM495 924q-36 -20 -83 -39.5t-98 -34.5l-5 14q74 33 137.5 86t101.5 110h18q14 -68 40.5 -115t78.5 -81l-4 -14q-65 14 -107 32.5t-79 41.5
z" />
    <glyph glyph-name="Hbar" unicode="&#x126;" horiz-adv-x="810" 
d="M239 346l7 20h353l-8 -20h-352zM617 602q15 55 3 69.5t-62 16.5l5 20q27 -1 70 -2t86 -1q49 0 93 1t72 2l-5 -20q-34 -1 -53 -7.5t-29.5 -24t-20.5 -54.5l-132 -496q-14 -55 -3 -69.5t62 -16.5l-4 -20q-27 2 -71 2.5t-93 0.5q-43 0 -86.5 -0.5t-70.5 -2.5l4 20q34 2 53 8
t30 24t20 54zM224 106q-14 -55 -3 -69.5t62 -16.5l-4 -20q-28 2 -70.5 2.5t-86.5 0.5q-50 0 -93 -0.5t-70 -2.5l5 20q33 2 51.5 8t29.5 24t20 54l132 496q14 55 2.5 69.5t-61.5 16.5l5 20q25 -1 69 -2t94 -1q44 0 85.5 1t72.5 2l-5 -20q-34 -1 -53 -7.5t-29.5 -24
t-20.5 -54.5zM872 533l-5 -20h-807l5 20h807z" />
    <glyph glyph-name="hbar" unicode="&#x127;" horiz-adv-x="570" 
d="M123 0h-141l198 667q10 34 -2 50t-61 16l6 21q71 1 127 11.5t106 29.5zM148 145q40 115 74.5 190t67.5 118t68 60.5t75 17.5q49 0 69.5 -21t20.5 -55.5t-13 -74.5l-98 -295q-9 -27 -4 -38.5t18 -11.5t28.5 14.5t33.5 64.5l18 48h19l-25 -73q-22 -63 -60 -83t-74 -20
q-48 0 -69.5 21.5t-21.5 58t15 79.5l89 270q6 17 8.5 32t-1 24.5t-17.5 9.5q-25 0 -56.5 -39t-65.5 -105.5t-65.5 -150.5t-55.5 -176zM468 628l-6 -20h-386l6 20h386z" />
    <glyph glyph-name="Itilde" unicode="&#x128;" horiz-adv-x="390" 
d="M224 106q-14 -55 -3 -69.5t62 -16.5l-4 -20q-29 2 -73.5 2.5t-89.5 0.5q-48 0 -89.5 -0.5t-67.5 -2.5l5 20q33 2 51.5 8t29.5 24t20 54l132 496q14 55 2.5 69.5t-61.5 16.5l5 20q24 -1 66 -2t91 -1q45 0 88.5 1t75.5 2l-5 -20q-34 -1 -53 -7.5t-29.5 -24t-20.5 -54.5z
M286 927q37 0 61.5 -11t43 -25.5t38 -25.5t47.5 -11q21 0 40 13.5t37 44.5l18 -5q-29 -74 -74.5 -106.5t-91.5 -32.5q-37 0 -61.5 11t-43 25.5t-38 25.5t-47.5 11q-21 0 -39.5 -13t-37.5 -45l-18 5q28 74 74 106.5t92 32.5z" />
    <glyph glyph-name="itilde" unicode="&#x129;" horiz-adv-x="322" 
d="M139 432q17 50 -11 50q-18 0 -33 -18t-32 -61l-19 -51h-19l27 76q21 59 58 81t81 22q48 0 67.5 -22t20.5 -54t-10 -64l-106 -306q-8 -27 -4 -38.5t18 -11.5q13 0 29 15t34 64l18 48h19l-25 -73q-22 -61 -59.5 -82t-75.5 -21q-44 0 -66.5 19t-24.5 55t15 85zM199 786
q30 0 49.5 -11t34.5 -25.5t30.5 -25.5t37.5 -11q19 0 36.5 13.5t34.5 44.5l18 -5q-26 -74 -69 -106.5t-85 -32.5q-30 0 -49.5 11t-34.5 25.5t-30.5 25.5t-37.5 11q-19 0 -36.5 -13t-34.5 -45l-18 5q27 75 69.5 107t84.5 32z" />
    <glyph glyph-name="Imacron" unicode="&#x12a;" horiz-adv-x="390" 
d="M224 106q-14 -55 -3 -69.5t62 -16.5l-4 -20q-29 2 -73.5 2.5t-89.5 0.5q-48 0 -89.5 -0.5t-67.5 -2.5l5 20q33 2 51.5 8t29.5 24t20 54l132 496q14 55 2.5 69.5t-61.5 16.5l5 20q24 -1 66 -2t91 -1q45 0 88.5 1t75.5 2l-5 -20q-34 -1 -53 -7.5t-29.5 -24t-20.5 -54.5z
M522 844l-6 -25h-400l6 25h400z" />
    <glyph glyph-name="imacron" unicode="&#x12b;" horiz-adv-x="322" 
d="M139 432q17 50 -11 50q-18 0 -33 -18t-32 -61l-19 -51h-19l27 76q21 59 58 81t81 22q48 0 67.5 -22t20.5 -54t-10 -64l-106 -306q-8 -27 -4 -38.5t18 -11.5q13 0 29 15t34 64l18 48h19l-25 -73q-22 -61 -59.5 -82t-75.5 -21q-44 0 -66.5 19t-24.5 55t15 85zM383.639 712
l-5.09961 -25h-285.592l5.09961 25h285.592z" />
    <glyph glyph-name="Ibreve" unicode="&#x12c;" horiz-adv-x="390" 
d="M224 106q-14 -55 -3 -69.5t62 -16.5l-4 -20q-29 2 -73.5 2.5t-89.5 0.5q-48 0 -89.5 -0.5t-67.5 -2.5l5 20q33 2 51.5 8t29.5 24t20 54l132 496q14 55 2.5 69.5t-61.5 16.5l5 20q24 -1 66 -2t91 -1q45 0 88.5 1t75.5 2l-5 -20q-34 -1 -53 -7.5t-29.5 -24t-20.5 -54.5z
M337 869q64 0 122 14.5t106 42.5l11 -10q-26 -36 -68 -69.5t-91.5 -54.5t-99.5 -21q-69 0 -108 42t-50 102l15 7q29 -28 66.5 -40.5t96.5 -12.5z" />
    <glyph glyph-name="ibreve" unicode="&#x12d;" horiz-adv-x="322" 
d="M139 432q17 50 -11 50q-18 0 -33 -18t-32 -61l-19 -51h-19l27 76q21 59 58 81t81 22q48 0 67.5 -22t20.5 -54t-10 -64l-106 -306q-8 -27 -4 -38.5t18 -11.5q13 0 29 15t34 64l18 48h19l-25 -73q-22 -61 -59.5 -82t-75.5 -21q-44 0 -66.5 19t-24.5 55t15 85zM244 719
q53 0 106.5 17.5t96.5 51.5l11 -10q-23 -39 -61 -75t-83.5 -59t-90.5 -23q-55 0 -85.5 46t-39.5 110l16 7q23 -34 51.5 -49.5t78.5 -15.5z" />
    <glyph glyph-name="Iogonek" unicode="&#x12e;" horiz-adv-x="390" 
d="M224 106q-14 -55 -3 -69.5t62 -16.5l-4 -20q-29 2 -73.5 2.5t-89.5 0.5q-48 0 -89.5 -0.5t-67.5 -2.5l5 20q33 2 51.5 8t29.5 24t20 54l132 496q14 55 2.5 69.5t-61.5 16.5l5 20q24 -1 66 -2t91 -1q45 0 88.5 1t75.5 2l-5 -20q-34 -1 -53 -7.5t-29.5 -24t-20.5 -54.5z
M275 3q-29 -11 -53 -28.5t-38 -38.5t-14 -44q0 -30 33 -30q16 0 36 6t37 16l11 -17q-36 -29 -72 -42t-73 -13q-40 0 -62.5 16t-22.5 44q0 32 29 57.5t73 44t90 29.5h26z" />
    <glyph glyph-name="iogonek" unicode="&#x12f;" horiz-adv-x="322" 
d="M177 684q2 43 31.5 66t70.5 23q37 0 56.5 -17.5t17.5 -48.5q-2 -39 -32 -63.5t-72 -24.5q-35 0 -54.5 17.5t-17.5 47.5zM139 432q17 50 -11 50q-18 0 -33 -18t-31 -61l-20 -51h-19l28 76q21 59 58 81t81 22q47 0 67 -22t20.5 -54t-10.5 -64l-105 -306q-9 -27 -4.5 -38.5
t18.5 -11.5q13 0 28.5 15t34.5 64l18 48h19l-26 -73q-21 -61 -59 -82t-76 -21q-43 0 -65.5 19t-24.5 55t14 85zM185 3q-29 -10 -53 -27.5t-38 -39t-14 -45.5q0 -29 29 -29q16 0 33 9t30 21l13 -12q-29 -35 -63 -51.5t-71 -16.5q-38 0 -61 16t-23 44q0 32 29 57.5t73 44
t90 29.5h26z" />
    <glyph glyph-name="Idotaccent" unicode="&#x130;" horiz-adv-x="390" 
d="M224 106q-14 -55 -3 -69.5t62 -16.5l-4 -20q-29 2 -73.5 2.5t-89.5 0.5q-48 0 -89.5 -0.5t-67.5 -2.5l5 20q33 2 51.5 8t29.5 24t20 54l132 496q14 55 2.5 69.5t-61.5 16.5l5 20q24 -1 66 -2t91 -1q45 0 88.5 1t75.5 2l-5 -20q-34 -1 -53 -7.5t-29.5 -24t-20.5 -54.5z
M251 826q0 42 29.5 67.5t72.5 25.5q36 0 55 -16t19 -46q0 -39 -30 -65.5t-74 -26.5q-34 0 -53 16.5t-19 44.5z" />
    <glyph glyph-name="dotlessi" unicode="&#x131;" horiz-adv-x="322" 
d="M139 432q17 50 -11 50q-18 0 -33 -18t-32 -61l-19 -51h-19l27 76q21 59 58 81t81 22q48 0 67.5 -22t20.5 -54t-10 -64l-106 -306q-8 -27 -4 -38.5t18 -11.5q13 0 29 15t34 64l18 48h19l-25 -73q-22 -61 -59.5 -82t-75.5 -21q-44 0 -66.5 19t-24.5 55t15 85z" />
    <glyph glyph-name="Jcircumflex" unicode="&#x134;" horiz-adv-x="683" 
d="M641 366l-3 -20h-387l3 20h387zM430 567q-42 0 -77.5 12.5t-68.5 25t-68 12.5q-28 0 -44.5 -14t-16.5 -43q1 -32 27.5 -51.5t85.5 -25.5l-1.5 -9.5l-1.5 -9.5q-74 6 -123.5 40.5t-50.5 101.5q-1 58 35 95.5t107 37.5q48 0 84 -15t67.5 -35.5t67 -35.5t84.5 -15
q40 0 84 10t85 29q21 32 41 49t35 4q12 -10 -1 -27t-66 -37q-71 -57 -115 -150t-74 -209l-62 -242q-17 -68 -53 -126t-95.5 -92.5t-147.5 -34.5q-59 0 -99.5 17t-40.5 58q0 32 22 54t62 22q33 0 55 -15.5t23 -44.5q0 -24 -14.5 -42t-40.5 -29q7 -2 14 -2.5t14 -0.5
q30 0 50.5 17t35.5 49t28.5 76.5t27.5 98.5l54 192q27 101 74 170t111 121t141 102q-38 -12 -69 -27.5t-59.5 -29.5t-58.5 -22.5t-67 -8.5zM533 830q-43 -16 -100.5 -32t-117.5 -27l-5 14q84 26 156 68t115 87h18q22 -52 53 -90t86 -65l-4 -14q-72 12 -116 27t-85 32z" />
    <glyph glyph-name="jcircumflex" unicode="&#x135;" horiz-adv-x="301" 
d="M-138 -188l4 18q50 1 87.5 38.5t56.5 113.5l126 450q8 27 5 38.5t-17 11.5q-17 0 -32 -17.5t-31 -61.5l-19 -51h-19l27 76q20 59 59 81t80 22q48 0 67 -21t18.5 -53.5t-9.5 -65.5l-83 -297q-20 -83 -50 -137t-78 -91q-31 -24 -78 -39t-114 -15zM226 684
q-36 -20 -83 -39.5t-98 -34.5l-5 14q74 33 137.5 86t101.5 110h18q14 -68 40.5 -115t78.5 -81l-4 -14q-65 14 -107 32.5t-79 41.5z" />
    <glyph glyph-name="uni0136" unicode="&#x136;" horiz-adv-x="740" 
d="M224 106q-14 -55 -3 -69.5t62 -16.5l-4 -20q-28 2 -70.5 2.5t-86.5 0.5q-50 0 -93 -0.5t-70 -2.5l5 20q33 2 51.5 8t29.5 24t20 54l132 496q14 55 2.5 69.5t-61.5 16.5l5 20q25 -1 69 -2t94 -1q44 0 85.5 1t72.5 2l-5 -20q-34 -1 -53 -7.5t-29.5 -24t-20.5 -54.5zM587 59
q20 0 33 15.5t23 44.5l17 51h20l-26 -77q-19 -56 -54.5 -81.5t-79.5 -25.5q-64 0 -93 34.5t-21 91.5l19 140q4 36 2 57.5t-10.5 34t-23.5 21.5l2 10q73 -4 114 -21t56 -53.5t8 -99.5l-11 -105q-2 -16 4 -26.5t21 -10.5zM407 360q-54 -14 -73.5 -11t-17.5 20q3 16 21 19.5
t70 -10.5v-18zM625 681q-22 -23 -35.5 -62t-26.5 -82.5t-32.5 -82t-51.5 -63t-85 -23.5l2 10q49 5 77.5 31t45.5 64t28.5 80.5t25 79.5t37.5 60q17 18 35.5 23.5t35.5 5.5q45 0 70 -25.5t24 -65.5q0 -33 -23 -65t-68 -32q-28 0 -47.5 17.5t-18.5 49.5q0 29 20 56.5t54 42.5
q-2 2 -6.5 2.5t-9.5 0.5q-19 0 -30.5 -5.5t-20.5 -16.5zM281 -53q26 0 47 -15t21 -46q0 -50 -35 -83.5t-103 -43.5l-2 19q37 4 65.5 19t33.5 39q-10 -7 -25 -12t-32 -5q-28 0 -44 12.5t-16 36.5q0 33 26 56t64 23z" />
    <glyph glyph-name="uni0137" unicode="&#x137;" horiz-adv-x="552" 
d="M123 0h-141l198 667q10 34 -2 50t-61 16l6 21q71 1 127 11.5t106 29.5zM394 77q-5 -24 -1 -33t16 -9q13 0 28.5 15.5t32.5 63.5l18 48h19l-25 -73q-14 -41 -37.5 -63.5t-51 -31t-55.5 -8.5q-49 0 -70 29.5t-9 85.5l17 77q13 54 -5.5 78t-82.5 30v4q44 3 87.5 -0.5
t77 -17.5t50 -43.5t6.5 -77.5zM440 511q-13 0 -23 -4t-19 -11q-18 -14 -29 -40t-22.5 -55.5t-28 -55.5t-44.5 -42.5t-74 -15.5l-10 -1l2 11q45 3 71 20.5t41.5 42.5t26 53t21.5 53.5t31 41.5q16 13 32.5 18t29.5 5q49 0 71.5 -27.5t21.5 -64.5t-24 -61.5t-60 -24.5
q-32 0 -48.5 17.5t-15.5 40.5q0 31 20 55t46 37q-3 4 -7 6t-9 2zM184 -53q26 0 47 -15t21 -46q0 -50 -35 -83.5t-103 -43.5l-2 19q37 4 65.5 19t33.5 39q-10 -7 -25 -12t-32 -5q-28 0 -44 12.5t-16 36.5q0 33 26 56t64 23z" />
    <glyph glyph-name="kgreenlandic" unicode="&#x138;" horiz-adv-x="592" 
d="M422 77q-3 -25 0.5 -33.5t14.5 -8.5q14 0 29.5 15.5t32.5 63.5l17 48h19l-24 -73q-15 -41 -38 -63.5t-50.5 -31t-55.5 -8.5q-49 0 -70 28.5t-10 86.5l10 49q10 54 -7.5 78t-80.5 30v4q44 3 86 0t75 -17t49.5 -43.5t9.5 -78.5zM469 511q-13 0 -23 -4t-20 -11
q-18 -15 -30 -44t-24 -62t-29.5 -63.5t-46.5 -49.5t-75 -18l-10 -1l2 11q45 3 72.5 22.5t43.5 49t27 61.5t23 60.5t32 45.5q17 13 33.5 18t29.5 5q49 0 71 -27.5t21 -64.5q0 -37 -23 -61.5t-60 -24.5q-33 0 -49 17.5t-16 40.5q1 31 21 55t46 37q-3 4 -7.5 6t-8.5 2zM156 0
h-14h-35h-42h-35.5h-14.5l122 432q7 27 5.5 38.5t-16.5 11.5q-18 0 -33 -17.5t-32 -61.5l-19 -51h-19l27 76q20 57 53.5 80t77.5 23q46 0 64.5 -20t20 -52t-8.5 -68z" />
    <glyph glyph-name="Lacute" unicode="&#x139;" horiz-adv-x="605" 
d="M562 210q-6 -16 -12 -37t-12 -45q-5 -19 -13 -54.5t-14 -73.5q-51 2 -114 2.5t-113 0.5h-90t-119 -0.5t-118 -2.5l5 20q34 2 53 8t29.5 24t20.5 54l132 496q14 55 2.5 69.5t-61.5 16.5l5 20q26 -1 70.5 -2t94.5 -1q44 0 85 1t71 2l-5 -20q-34 -1 -53 -7.5t-30 -24
t-21 -54.5l-132 -496q-14 -55 -3 -69t61 -14h40q45 0 84.5 18t73.5 59t61 110h22zM296 784q50 39 82 70t56.5 53.5t51.5 37.5q21 12 49.5 11.5t41.5 -27.5q12 -23 -1.5 -43.5t-38.5 -33.5q-37 -21 -92 -33.5t-142 -46.5z" />
    <glyph glyph-name="lacute" unicode="&#x13a;" horiz-adv-x="300" 
d="M142 85q-7 -26 -1.5 -38t18.5 -12q11 0 27 14.5t33 64.5l18 48h19l-25 -73q-14 -41 -36 -63t-47 -31t-50 -9q-43 0 -65 20.5t-24.5 56t10.5 82.5l157 522q10 34 -2 50t-61 16l7 21q72 1 126.5 11.5t105.5 29.5zM253 848q50 39 82 70t56.5 53.5t51.5 37.5q21 12 49.5 11.5
t41.5 -27.5q12 -23 -1.5 -43.5t-38.5 -33.5q-37 -21 -92 -33.5t-142 -46.5z" />
    <glyph glyph-name="uni013B" unicode="&#x13b;" horiz-adv-x="605" 
d="M562 210q-6 -16 -12 -37t-12 -45q-5 -19 -13 -54.5t-14 -73.5q-51 2 -114 2.5t-113 0.5h-90t-119 -0.5t-118 -2.5l5 20q34 2 53 8t29.5 24t20.5 54l132 496q14 55 2.5 69.5t-61.5 16.5l5 20q26 -1 70.5 -2t94.5 -1q44 0 85 1t71 2l-5 -20q-34 -1 -53 -7.5t-30 -24
t-21 -54.5l-132 -496q-14 -55 -3 -69t61 -14h40q45 0 84.5 18t73.5 59t61 110h22zM271 -53q26 0 47 -15t21 -46q0 -50 -35 -83.5t-103 -43.5l-2 19q37 4 65.5 19t33.5 39q-10 -7 -25 -12t-32 -5q-28 0 -44 12.5t-16 36.5q0 33 26 56t64 23z" />
    <glyph glyph-name="uni013C" unicode="&#x13c;" horiz-adv-x="300" 
d="M142 85q-7 -26 -1.5 -38t18.5 -12q11 0 27 14.5t33 64.5l18 48h19l-25 -73q-14 -41 -36 -63t-47 -31t-50 -9q-43 0 -65 20.5t-24.5 56t10.5 82.5l157 522q10 34 -2 50t-61 16l7 21q72 1 126.5 11.5t105.5 29.5zM86 -53q26 0 47 -15t21 -46q0 -50 -35 -83.5t-103 -43.5
l-2 19q37 4 65.5 19t33.5 39q-10 -7 -25 -12t-32 -5q-28 0 -44 12.5t-16 36.5q0 33 26 56t64 23z" />
    <glyph glyph-name="Lcaron" unicode="&#x13d;" horiz-adv-x="605" 
d="M562 210q-6 -16 -12 -37t-12 -45q-5 -19 -13 -54.5t-14 -73.5q-51 2 -114 2.5t-113 0.5h-90t-119 -0.5t-118 -2.5l5 20q34 2 53 8t29.5 24t20.5 54l132 496q14 55 2.5 69.5t-61.5 16.5l5 20q26 -1 70.5 -2t94.5 -1q44 0 85 1t71 2l-5 -20q-34 -1 -53 -7.5t-30 -24
t-21 -54.5l-132 -496q-14 -55 -3 -69t61 -14h40q45 0 84.5 18t73.5 59t61 110h22zM463 485q33 70 46 117.5t13 65.5q0 9 -5.5 14t-21.5 5l3 21q12 0 22 -0.5t20 -0.5q33 0 55.5 4t40.5 8q1 -2 1 -10q0 -37 -42.5 -97t-117.5 -131z" />
    <glyph glyph-name="lcaron" unicode="&#x13e;" horiz-adv-x="300" 
d="M142 85q-7 -26 -1.5 -38t18.5 -12q11 0 27 14.5t33 64.5l18 48h19l-25 -73q-14 -41 -36 -63t-47 -31t-50 -9q-43 0 -65 20.5t-24.5 56t10.5 82.5l157 522q10 34 -2 50t-61 16l7 21q72 1 126.5 11.5t105.5 29.5zM356 540q34 74 47.5 124t13.5 69t-13 19l3 21q8 0 15 -0.5
t13 -0.5q33 0 55.5 4t40.5 8q1 -2 1 -10q0 -38 -43 -101t-119 -137z" />
    <glyph glyph-name="Ldot" unicode="&#x13f;" horiz-adv-x="621" 
d="M562 210q-6 -16 -12 -37t-12 -45q-5 -19 -13 -54.5t-14 -73.5q-51 2 -114 2.5t-113 0.5h-90t-119 -0.5t-118 -2.5l5 20q34 2 53 8t29.5 24t20.5 54l132 496q14 55 2.5 69.5t-61.5 16.5l5 20q26 -1 70.5 -2t94.5 -1q44 0 85 1t71 2l-5 -20q-34 -1 -53 -7.5t-30 -24
t-21 -54.5l-132 -496q-14 -55 -3 -69t61 -14h40q45 0 84.5 18t73.5 59t61 110h22zM456 351q0 40 28.5 67t68.5 27q32 0 50 -16t18 -45q0 -36 -29 -64.5t-69 -28.5q-32 0 -49.5 16t-17.5 44z" />
    <glyph glyph-name="ldot" unicode="&#x140;" horiz-adv-x="460" 
d="M142 85q-7 -26 -1.5 -38t18.5 -12q11 0 27 14.5t33 64.5l18 48h19l-25 -73q-14 -41 -36 -63t-47 -31t-50 -9q-43 0 -65 20.5t-24.5 56t10.5 82.5l157 522q10 34 -2 50t-61 16l7 21q72 1 126.5 11.5t105.5 29.5zM283 277q0 40 28.5 67t68.5 27q32 0 50 -16t18 -45
q0 -36 -29 -64.5t-69 -28.5q-32 0 -49.5 16t-17.5 44z" />
    <glyph glyph-name="Lslash" unicode="&#x141;" horiz-adv-x="606" 
d="M189 308l328 165l-6 -23l-328 -165zM185 295l-169 -85l6 23l169 85zM563 210q-6 -16 -12 -37t-12 -45q-5 -19 -13 -54.5t-13 -73.5q-51 2 -114.5 2.5t-113.5 0.5h-89.5t-119.5 -0.5t-117 -2.5l4 20q34 2 53 8t30 24t20 54l132 496q15 55 3.5 69.5t-61.5 16.5l5 20
q26 -1 70.5 -2t93.5 -1q44 0 85 1t71 2l-5 -20q-34 -1 -53 -7.5t-29.5 -24t-20.5 -54.5l-133 -496q-14 -55 -3 -69t61 -14h40q46 0 85 18t73 59t61 110h22z" />
    <glyph glyph-name="lslash" unicode="&#x142;" horiz-adv-x="320" 
d="M198 384l173 115l-4 -30l-173 -115zM166 366l-174 -117l4 30l174 117zM151 85q-7 -26 -1.5 -38t18.5 -12q11 0 27 14.5t33 64.5l18 48h19l-25 -73q-14 -41 -36 -63t-47 -31t-50 -9q-43 0 -65 20.5t-24.5 56t10.5 82.5l157 522q10 34 -2 50t-61 16l7 21q72 1 126.5 11.5
t105.5 29.5z" />
    <glyph glyph-name="Nacute" unicode="&#x143;" horiz-adv-x="825" 
d="M525 -5l-254 556v8t-0.5 17.5t-1 17.5l-0.5 8q8 37 5.5 54.5t-20 24t-56.5 7.5l5 20q16 -1 39.5 -2t49.5 -1q47 0 81 3l212 -486l-4 -23t-9.5 -56.5t-11 -67.5t-9.5 -57l-4 -23h-22zM832 735q-26 0 -47 -15t-37 -38q-46 -68 -94 -239t-107 -448l-14 28q18 84 40.5 182.5
t47.5 193.5t52.5 172t56.5 119q19 27 45 45.5t63 18.5q46 0 70.5 -25t24.5 -60q0 -38 -25.5 -64.5t-65.5 -26.5q-33 0 -51 16.5t-18 42.5q0 34 22 59.5t53 34.5q-2 2 -6.5 3t-9.5 1zM21 -55q27 0 48 14.5t36 39.5q29 46 58.5 144t60 237t61.5 305l17 -21q-20 -102 -42 -208
t-45.5 -201t-47 -165.5t-46.5 -100.5q-18 -24 -42.5 -43.5t-64.5 -19.5q-45 0 -69.5 25t-24.5 60q0 39 26 65t65 26q34 0 51.5 -16.5t17.5 -42.5q0 -34 -22 -59t-54 -35q3 -2 7 -3t10 -1zM510 784q50 39 82 70t56.5 53.5t51.5 37.5q21 12 49.5 11.5t41.5 -27.5
q12 -23 -1.5 -43.5t-38.5 -33.5q-37 -21 -92 -33.5t-142 -46.5z" />
    <glyph glyph-name="nacute" unicode="&#x144;" horiz-adv-x="603" 
d="M157 0h-141l121 432q5 14 6.5 25.5t-2.5 18t-15 6.5q-18 0 -32.5 -16.5t-31.5 -62.5l-19 -51h-19l27 76q20 57 52.5 80t76.5 23q48 0 67 -21.5t19 -54t-8 -64.5zM189 169q39 109 72.5 179.5t66 110.5t66.5 56t73 16q48 0 69 -21t21 -55.5t-13 -74.5l-98 -295
q-10 -28 -5 -39t18 -11t29 14.5t34 64.5l18 48h19l-25 -73q-22 -63 -60 -83t-74 -20q-57 0 -80 33q-13 20 -12.5 50.5t15.5 75.5l90 270q6 16 8 31t-1 25t-17 10q-24 0 -55 -38t-64.5 -102t-64.5 -145t-55 -167zM310 609q37 52 59 90t39.5 67t38.5 50q19 20 45.5 25.5
t45.5 -14.5q18 -17 13 -39.5t-28 -45.5q-20 -20 -48.5 -38.5t-66.5 -42.5t-88 -62z" />
    <glyph glyph-name="uni0145" unicode="&#x145;" horiz-adv-x="825" 
d="M525 -5l-254 556v8t-0.5 17.5t-1 17.5l-0.5 8q8 37 5.5 54.5t-20 24t-56.5 7.5l5 20q16 -1 39.5 -2t49.5 -1q47 0 81 3l212 -486l-4 -23t-9.5 -56.5t-11 -67.5t-9.5 -57l-4 -23h-22zM832 735q-26 0 -47 -15t-37 -38q-46 -68 -94 -239t-107 -448l-14 28q18 84 40.5 182.5
t47.5 193.5t52.5 172t56.5 119q19 27 45 45.5t63 18.5q46 0 70.5 -25t24.5 -60q0 -38 -25.5 -64.5t-65.5 -26.5q-33 0 -51 16.5t-18 42.5q0 34 22 59.5t53 34.5q-2 2 -6.5 3t-9.5 1zM21 -55q27 0 48 14.5t36 39.5q29 46 58.5 144t60 237t61.5 305l17 -21q-20 -102 -42 -208
t-45.5 -201t-47 -165.5t-46.5 -100.5q-18 -24 -42.5 -43.5t-64.5 -19.5q-45 0 -69.5 25t-24.5 60q0 39 26 65t65 26q34 0 51.5 -16.5t17.5 -42.5q0 -34 -22 -59t-54 -35q3 -2 7 -3t10 -1zM309 -53q26 0 47 -15t21 -46q0 -50 -35 -83.5t-103 -43.5l-2 19q37 4 65.5 19
t33.5 39q-10 -7 -25 -12t-32 -5q-28 0 -44 12.5t-16 36.5q0 33 26 56t64 23z" />
    <glyph glyph-name="uni0146" unicode="&#x146;" horiz-adv-x="603" 
d="M157 0h-141l121 432q5 14 6.5 25.5t-2.5 18t-15 6.5q-18 0 -32.5 -16.5t-31.5 -62.5l-19 -51h-19l27 76q20 57 52.5 80t76.5 23q48 0 67 -21.5t19 -54t-8 -64.5zM189 169q39 109 72.5 179.5t66 110.5t66.5 56t73 16q48 0 69 -21t21 -55.5t-13 -74.5l-98 -295
q-10 -28 -5 -39t18 -11t29 14.5t34 64.5l18 48h19l-25 -73q-22 -63 -60 -83t-74 -20q-57 0 -80 33q-13 20 -12.5 50.5t15.5 75.5l90 270q6 16 8 31t-1 25t-17 10q-24 0 -55 -38t-64.5 -102t-64.5 -145t-55 -167zM207 -53q26 0 47 -15t21 -46q0 -50 -35 -83.5t-103 -43.5
l-2 19q37 4 65.5 19t33.5 39q-10 -7 -25 -12t-32 -5q-28 0 -44 12.5t-16 36.5q0 33 26 56t64 23z" />
    <glyph glyph-name="Ncaron" unicode="&#x147;" horiz-adv-x="825" 
d="M525 -5l-254 556v8t-0.5 17.5t-1 17.5l-0.5 8q8 37 5.5 54.5t-20 24t-56.5 7.5l5 20q16 -1 39.5 -2t49.5 -1q47 0 81 3l212 -486l-4 -23t-9.5 -56.5t-11 -67.5t-9.5 -57l-4 -23h-22zM832 735q-26 0 -47 -15t-37 -38q-46 -68 -94 -239t-107 -448l-14 28q18 84 40.5 182.5
t47.5 193.5t52.5 172t56.5 119q19 27 45 45.5t63 18.5q46 0 70.5 -25t24.5 -60q0 -38 -25.5 -64.5t-65.5 -26.5q-33 0 -51 16.5t-18 42.5q0 34 22 59.5t53 34.5q-2 2 -6.5 3t-9.5 1zM21 -55q27 0 48 14.5t36 39.5q29 46 58.5 144t60 237t61.5 305l17 -21q-20 -102 -42 -208
t-45.5 -201t-47 -165.5t-46.5 -100.5q-18 -24 -42.5 -43.5t-64.5 -19.5q-45 0 -69.5 25t-24.5 60q0 39 26 65t65 26q34 0 51.5 -16.5t17.5 -42.5q0 -34 -22 -59t-54 -35q3 -2 7 -3t10 -1zM589 878q43 16 100 32t117 27l5 -14q-84 -25 -156 -67.5t-115 -87.5h-18
q-21 53 -52 90.5t-87 64.5l4 14q72 -12 116.5 -26.5t85.5 -32.5z" />
    <glyph glyph-name="ncaron" unicode="&#x148;" horiz-adv-x="603" 
d="M157 0h-141l121 432q5 14 6.5 25.5t-2.5 18t-15 6.5q-18 0 -32.5 -16.5t-31.5 -62.5l-19 -51h-19l27 76q20 57 52.5 80t76.5 23q48 0 67 -21.5t19 -54t-8 -64.5zM189 169q39 109 72.5 179.5t66 110.5t66.5 56t73 16q48 0 69 -21t21 -55.5t-13 -74.5l-98 -295
q-10 -28 -5 -39t18 -11t29 14.5t34 64.5l18 48h19l-25 -73q-22 -63 -60 -83t-74 -20q-57 0 -80 33q-13 20 -12.5 50.5t15.5 75.5l90 270q6 16 8 31t-1 25t-17 10q-24 0 -55 -38t-64.5 -102t-64.5 -145t-55 -167zM425 746q37 20 84 40t97 34l5 -14q-74 -32 -137 -85.5
t-102 -110.5h-18q-13 69 -40 115.5t-79 80.5l4 14q66 -14 108 -32t78 -42z" />
    <glyph glyph-name="napostrophe" unicode="&#x149;" horiz-adv-x="603" 
d="M157 0h-141l121 432q5 14 6.5 25.5t-2.5 18t-15 6.5q-18 0 -32.5 -16.5t-31.5 -62.5l-19 -51h-19l27 76q20 57 52.5 80t76.5 23q48 0 67 -21.5t19 -54t-8 -64.5zM189 169q39 109 72.5 179.5t66 110.5t66.5 56t73 16q48 0 69 -21t21 -55.5t-13 -74.5l-98 -295
q-10 -28 -5 -39t18 -11t29 14.5t34 64.5l18 48h19l-25 -73q-22 -63 -60 -83t-74 -20q-57 0 -80 33q-13 20 -12.5 50.5t15.5 75.5l90 270q6 16 8 31t-1 25t-17 10q-24 0 -55 -38t-64.5 -102t-64.5 -145t-55 -167zM163 715q0 -63 -39.5 -118t-109.5 -86l-5 16q43 22 74 57
t34 78q-13 -13 -29 -21t-33 -8q-62 0 -62 54q0 27 14 50t37.5 36.5t52.5 13.5q32 0 49 -18.5t17 -53.5z" />
    <glyph glyph-name="Eng" unicode="&#x14a;" horiz-adv-x="721" 
d="M672 598q14 55 2.5 71.5t-64.5 18.5l5 20q17 -1 44 -2t52 -1q26 0 50.5 1t41.5 2l-5 -20q-34 -1 -53 -8.5t-29.5 -26t-20.5 -55.5l-152 -574l-29 -31l-308 553l-116 -436q-14 -55 -2.5 -71.5t65.5 -18.5l-5 -20q-17 2 -42.5 2.5t-51.5 0.5q-25 0 -51 -0.5t-43 -2.5l4 20
q35 2 54 9t30 26t20 55l131 492q14 54 1.5 69t-67.5 17l5 20q16 -1 39.5 -2t49.5 -1q47 0 81 3l266 -485zM544 27q-14 -65 -35.5 -113.5t-55 -75t-85.5 -26.5q-28 0 -56 7.5t-46 24t-18 43.5q0 32 22.5 54t61.5 22q33 0 55 -15.5t23 -44.5q0 -24 -15.5 -42t-40.5 -29
q10 -3 21 -3q36 0 61 19t41.5 50t27.5 68t19 72z" />
    <glyph glyph-name="eng" unicode="&#x14b;" horiz-adv-x="581" 
d="M156 0h-14h-35h-42h-35.5h-14.5l122 432q7 26 5.5 38t-16.5 12q-18 0 -33 -17.5t-32 -61.5l-19 -51h-19l27 76q20 57 53.5 80t77.5 23q45 0 64 -20t20.5 -52t-8.5 -68zM468 115q-32 -105 -69 -170.5t-89 -94.5q-32 -22 -69.5 -30t-65.5 -8q-51 0 -74 17t-20 48
q2 27 23.5 47t51.5 20q29 0 44.5 -17.5t13.5 -40.5q-1 -14 -10 -30.5t-27 -28.5q38 5 60 29t39 79l137 480q9 32 8 49t-18 17q-24 0 -55.5 -38t-64.5 -102t-64.5 -145t-54.5 -167l27 140q38 109 71.5 179.5t65.5 110.5t66 56t72 16q48 0 68.5 -19.5t21.5 -53.5t-12 -78z" />
    <glyph glyph-name="Omacron" unicode="&#x14c;" horiz-adv-x="777" 
d="M486 704q-53 0 -101.5 -42t-87 -113t-61 -158.5t-22.5 -177.5q0 -98 30.5 -153.5t77.5 -55.5q53 0 101.5 42t87 113t61 158.5t22.5 177.5q0 98 -30.5 153.5t-77.5 55.5zM42 226q0 66 21 136t60 134t94.5 115t125.5 81t152 30q127 0 199.5 -62.5t72.5 -178.5
q0 -66 -21 -135.5t-60.5 -133.5t-95.5 -115t-125.5 -81t-151.5 -30q-127 0 -199 62.5t-72 177.5zM698 844l-6 -25h-400l6 25h400z" />
    <glyph glyph-name="omacron" unicode="&#x14d;" horiz-adv-x="529" 
d="M331 511q-23 0 -48.5 -27.5t-50 -73.5t-44 -103t-31 -117.5t-11.5 -115.5q0 -36 8.5 -52t25.5 -16q23 0 48 26.5t49 71.5t43.5 101.5t31.5 117.5t12 118q0 42 -8.5 56t-24.5 14zM12 151q0 57 20 123t60.5 124.5t101 95.5t142.5 37q77 0 119.5 -42t42.5 -123
q0 -57 -20 -123t-60.5 -124.5t-101 -95.5t-142.5 -37q-77 0 -119.5 42t-42.5 123zM553 712l-6 -25h-336l6 25h336z" />
    <glyph glyph-name="Obreve" unicode="&#x14e;" horiz-adv-x="777" 
d="M486 704q-53 0 -101.5 -42t-87 -113t-61 -158.5t-22.5 -177.5q0 -98 30.5 -153.5t77.5 -55.5q53 0 101.5 42t87 113t61 158.5t22.5 177.5q0 98 -30.5 153.5t-77.5 55.5zM42 226q0 66 21 136t60 134t94.5 115t125.5 81t152 30q127 0 199.5 -62.5t72.5 -178.5
q0 -66 -21 -135.5t-60.5 -133.5t-95.5 -115t-125.5 -81t-151.5 -30q-127 0 -199 62.5t-72 177.5zM513 869q64 0 122 14.5t106 42.5l11 -10q-26 -36 -68 -69.5t-91.5 -54.5t-99.5 -21q-69 0 -108 42t-50 102l15 7q29 -28 66.5 -40.5t96.5 -12.5z" />
    <glyph glyph-name="obreve" unicode="&#x14f;" horiz-adv-x="529" 
d="M331 511q-23 0 -48.5 -27.5t-50 -73.5t-44 -103t-31 -117.5t-11.5 -115.5q0 -36 8.5 -52t25.5 -16q23 0 48 26.5t49 71.5t43.5 101.5t31.5 117.5t12 118q0 42 -8.5 56t-24.5 14zM12 151q0 57 20 123t60.5 124.5t101 95.5t142.5 37q77 0 119.5 -42t42.5 -123
q0 -57 -20 -123t-60.5 -124.5t-101 -95.5t-142.5 -37q-77 0 -119.5 42t-42.5 123zM381 719q53 0 106.5 17.5t96.5 51.5l11 -10q-23 -39 -61 -75t-83.5 -59t-90.5 -23q-55 0 -85.5 46t-39.5 110l16 7q23 -34 51.5 -49.5t78.5 -15.5z" />
    <glyph glyph-name="Ohungarumlaut" unicode="&#x150;" horiz-adv-x="777" 
d="M486 704q-53 0 -101.5 -42t-87 -113t-61 -158.5t-22.5 -177.5q0 -98 30.5 -153.5t77.5 -55.5q53 0 101.5 42t87 113t61 158.5t22.5 177.5q0 98 -30.5 153.5t-77.5 55.5zM42 226q0 66 21 136t60 134t94.5 115t125.5 81t152 30q127 0 199.5 -62.5t72.5 -178.5
q0 -66 -21 -135.5t-60.5 -133.5t-95.5 -115t-125.5 -81t-151.5 -30q-127 0 -199 62.5t-72 177.5zM543 783q33 35 54.5 63.5t40 51t37.5 37.5q18 12 43 11.5t39 -23.5q14 -19 5.5 -41t-29.5 -36q-30 -20 -74.5 -33t-107.5 -41zM332 783q33 35 54.5 63.5t40 51t37.5 37.5
q18 13 43 11.5t40 -23.5q12 -20 4 -41t-29 -36q-30 -20 -74.5 -33t-107.5 -41z" />
    <glyph glyph-name="ohungarumlaut" unicode="&#x151;" horiz-adv-x="529" 
d="M331 511q-23 0 -48.5 -27.5t-50 -73.5t-44 -103t-31 -117.5t-11.5 -115.5q0 -36 8.5 -52t25.5 -16q23 0 48 26.5t49 71.5t43.5 101.5t31.5 117.5t12 118q0 42 -8.5 56t-24.5 14zM12 151q0 57 20 123t60.5 124.5t101 95.5t142.5 37q77 0 119.5 -42t42.5 -123
q0 -57 -20 -123t-60.5 -124.5t-101 -95.5t-142.5 -37q-77 0 -119.5 42t-42.5 123zM234 606q24 50 37 85t22.5 60.5t22.5 43.5q16 21 39.5 24t43.5 -12q17 -15 18.5 -36.5t-15.5 -42.5q-21 -27 -59 -51.5t-98 -78.5zM412 606q25 50 37.5 85t22 60.5t22.5 43.5q17 21 40.5 24
t42.5 -12q18 -15 19.5 -36.5t-16.5 -42.5q-20 -27 -58 -51.5t-98 -78.5z" />
    <glyph glyph-name="OE" unicode="&#x152;" horiz-adv-x="994" 
d="M597 346l4 20h210l-4 -20h-210zM740 366q45 0 66 34.5t37 77.5h22q-13 -39 -19.5 -64.5t-14.5 -57.5q-6 -22 -12 -47t-14 -75h-22q0 23 4 48t-4.5 43.5t-46.5 20.5zM324 4q42 0 68.5 14.5t37.5 56.5l140 527q11 42 4.5 64t-27.5 30t-56 8q-56 0 -105.5 -42t-88 -113
t-60.5 -158.5t-22 -177.5q0 -98 29.5 -153.5t79.5 -55.5zM969 528q16 89 -2.5 123t-78.5 34h-59q-33 0 -51.5 -5.5t-28.5 -23t-20 -54.5l-132 -496q-14 -55 -3 -69t60 -14h69q48 0 79.5 17t54.5 55.5t45 104.5h22q-6 -13 -11 -32t-10 -40q-5 -19 -13 -54.5t-13 -73.5
q-51 2 -112 2.5t-110 0.5h-65h-89t-90 -1q-24 -7 -51 -11.5t-54 -4.5q-124 0 -193.5 62.5t-69.5 177.5q0 66 20.5 136t58.5 134t92.5 115t123.5 81t150 30q25 0 49 -4t44 -12q45 -1 96 -1h95.5h70.5q44 0 98.5 0.5t100.5 2.5q-13 -35 -22.5 -63t-15.5 -55q-6 -18 -9 -34
t-4 -28h-22z" />
    <glyph glyph-name="oe" unicode="&#x153;" horiz-adv-x="777" 
d="M438 217q43 16 81.5 35.5t65.5 44.5q38 35 59 82t21 100q0 33 -24 33q-26 0 -57.5 -34t-59.5 -89t-46 -120t-18 -126q0 -56 21.5 -76.5t55.5 -20.5q27 0 66 18t78 64l18 -8q-21 -33 -55 -64t-79 -50.5t-98 -19.5q-67 0 -112 35.5t-45 105.5q0 53 17 109t48.5 108.5
t75.5 95t97.5 67t114.5 24.5q48 0 80 -20.5t32 -62.5q0 -39 -21.5 -72t-57.5 -60.5t-80.5 -49t-91 -37.5t-87.5 -25zM441 422q1 19 -5.5 34.5t-19 23.5t-32.5 8q-44 0 -85.5 -31.5t-74.5 -84t-52.5 -116.5t-19.5 -129q0 -47 15 -68t43 -21q30 0 61.5 25.5t54.5 71.5l11 -10
q-18 -39 -44 -70.5t-59.5 -50t-74.5 -18.5q-71 0 -112 42t-41 123q0 57 25.5 122t72.5 123t113 94.5t147 36.5q49 0 74 -27t20 -74z" />
    <glyph glyph-name="Racute" unicode="&#x154;" horiz-adv-x="711" 
d="M276 355q29 -2 48.5 -3.5t34 -3t28.5 -2.5q57 -5 101.5 -17t67.5 -40t16 -81l-14 -103q-3 -32 4 -51t27 -19t34.5 18.5t26.5 53.5l5 14h23l-4 -13q-18 -62 -54.5 -92t-98.5 -30q-69 0 -98.5 33t-22.5 83l15 114q5 41 -3 68.5t-40 41.5t-98 14zM260 340l5 18h33
q66 0 116 26t79 76.5t29 122.5q0 54 -23 79.5t-70 25.5q-29 0 -43.5 -13.5t-25.5 -52.5l-136 -516q-8 -30 -9.5 -48.5t13.5 -27t54 -10.5l-4 -20q-30 2 -70.5 2.5t-85.5 0.5q-48 0 -93 -0.5t-71 -2.5l4 20q34 2 53 8t30 24t20 54l131 496q9 31 9 49t-14.5 27t-52.5 10l5 20
q18 -1 44 -1.5t54.5 -1t52.5 -0.5q46 0 81.5 1t68.5 1q122 0 180.5 -34t58.5 -105q0 -69 -48.5 -119.5t-134.5 -79t-200 -28.5zM407 784q50 39 82 70t56.5 53.5t51.5 37.5q21 12 49.5 11.5t41.5 -27.5q12 -23 -1.5 -43.5t-38.5 -33.5q-37 -21 -92 -33.5t-142 -46.5z" />
    <glyph glyph-name="racute" unicode="&#x155;" horiz-adv-x="470" 
d="M156 0h-141l122 432q7 27 4.5 38.5t-15.5 11.5q-18 0 -33 -17.5t-32 -61.5l-19 -51h-19l27 76q21 59 57.5 81t80.5 22t60.5 -22t16.5 -54t-8 -64zM412 509q-20 0 -43 -12t-47 -43t-50.5 -86t-54 -140.5t-56.5 -206.5l22 135q32 110 58 182t52.5 114.5t56 60.5t67.5 18
q39 0 60 -23t21 -58q0 -42 -27 -73t-68 -31q-29 0 -45 15.5t-16 44.5q0 36 24.5 64t58.5 36l-6 2t-7 1zM259 609q37 52 59 90t39.5 67t38.5 50q19 20 45.5 25.5t45.5 -14.5q18 -17 13 -39.5t-28 -45.5q-20 -20 -48.5 -38.5t-66.5 -42.5t-88 -62z" />
    <glyph glyph-name="uni0156" unicode="&#x156;" horiz-adv-x="711" 
d="M276 355q29 -2 48.5 -3.5t34 -3t28.5 -2.5q57 -5 101.5 -17t67.5 -40t16 -81l-14 -103q-3 -32 4 -51t27 -19t34.5 18.5t26.5 53.5l5 14h23l-4 -13q-18 -62 -54.5 -92t-98.5 -30q-69 0 -98.5 33t-22.5 83l15 114q5 41 -3 68.5t-40 41.5t-98 14zM260 340l5 18h33
q66 0 116 26t79 76.5t29 122.5q0 54 -23 79.5t-70 25.5q-29 0 -43.5 -13.5t-25.5 -52.5l-136 -516q-8 -30 -9.5 -48.5t13.5 -27t54 -10.5l-4 -20q-30 2 -70.5 2.5t-85.5 0.5q-48 0 -93 -0.5t-71 -2.5l4 20q34 2 53 8t30 24t20 54l131 496q9 31 9 49t-14.5 27t-52.5 10l5 20
q18 -1 44 -1.5t54.5 -1t52.5 -0.5q46 0 81.5 1t68.5 1q122 0 180.5 -34t58.5 -105q0 -69 -48.5 -119.5t-134.5 -79t-200 -28.5zM306 -53q26 0 47 -15t21 -46q0 -50 -35 -83.5t-103 -43.5l-2 19q37 4 65.5 19t33.5 39q-10 -7 -25 -12t-32 -5q-28 0 -44 12.5t-16 36.5
q0 33 26 56t64 23z" />
    <glyph glyph-name="uni0157" unicode="&#x157;" horiz-adv-x="470" 
d="M156 0h-141l122 432q7 27 4.5 38.5t-15.5 11.5q-18 0 -33 -17.5t-32 -61.5l-19 -51h-19l27 76q21 59 57.5 81t80.5 22t60.5 -22t16.5 -54t-8 -64zM412 509q-20 0 -43 -12t-47 -43t-50.5 -86t-54 -140.5t-56.5 -206.5l22 135q32 110 58 182t52.5 114.5t56 60.5t67.5 18
q39 0 60 -23t21 -58q0 -42 -27 -73t-68 -31q-29 0 -45 15.5t-16 44.5q0 36 24.5 64t58.5 36l-6 2t-7 1zM68 -53q26 0 47 -15t21 -46q0 -50 -35 -83.5t-103 -43.5l-2 19q37 4 65.5 19t33.5 39q-10 -7 -25 -12t-32 -5q-28 0 -44 12.5t-16 36.5q0 33 26 56t64 23z" />
    <glyph glyph-name="Rcaron" unicode="&#x158;" horiz-adv-x="711" 
d="M276 355q29 -2 48.5 -3.5t34 -3t28.5 -2.5q57 -5 101.5 -17t67.5 -40t16 -81l-14 -103q-3 -32 4 -51t27 -19t34.5 18.5t26.5 53.5l5 14h23l-4 -13q-18 -62 -54.5 -92t-98.5 -30q-69 0 -98.5 33t-22.5 83l15 114q5 41 -3 68.5t-40 41.5t-98 14zM260 340l5 18h33
q66 0 116 26t79 76.5t29 122.5q0 54 -23 79.5t-70 25.5q-29 0 -43.5 -13.5t-25.5 -52.5l-136 -516q-8 -30 -9.5 -48.5t13.5 -27t54 -10.5l-4 -20q-30 2 -70.5 2.5t-85.5 0.5q-48 0 -93 -0.5t-71 -2.5l4 20q34 2 53 8t30 24t20 54l131 496q9 31 9 49t-14.5 27t-52.5 10l5 20
q18 -1 44 -1.5t54.5 -1t52.5 -0.5q46 0 81.5 1t68.5 1q122 0 180.5 -34t58.5 -105q0 -69 -48.5 -119.5t-134.5 -79t-200 -28.5zM486 878q43 16 100 32t117 27l5 -14q-84 -25 -156 -67.5t-115 -87.5h-18q-21 53 -52 90.5t-87 64.5l4 14q72 -12 116.5 -26.5t85.5 -32.5z" />
    <glyph glyph-name="rcaron" unicode="&#x159;" horiz-adv-x="470" 
d="M156 0h-141l122 432q7 27 4.5 38.5t-15.5 11.5q-18 0 -33 -17.5t-32 -61.5l-19 -51h-19l27 76q21 59 57.5 81t80.5 22t60.5 -22t16.5 -54t-8 -64zM412 509q-20 0 -43 -12t-47 -43t-50.5 -86t-54 -140.5t-56.5 -206.5l22 135q32 110 58 182t52.5 114.5t56 60.5t67.5 18
q39 0 60 -23t21 -58q0 -42 -27 -73t-68 -31q-29 0 -45 15.5t-16 44.5q0 36 24.5 64t58.5 36l-6 2t-7 1zM373 746q37 20 84 40t97 34l5 -14q-74 -32 -137 -85.5t-102 -110.5h-18q-13 69 -40 115.5t-79 80.5l4 14q66 -14 108 -32t78 -42z" />
    <glyph glyph-name="Sacute" unicode="&#x15a;" horiz-adv-x="587" 
d="M620 715q-10 -26 -27 -75.5t-32 -128.5h-20q6 29 6 56q0 58 -36 94.5t-107 36.5q-50 0 -85.5 -25.5t-35.5 -83.5q0 -42 23.5 -81t58.5 -75.5t70 -74.5t59 -80.5t24 -91.5q0 -54 -26.5 -92t-68.5 -62t-90 -35t-91 -11q-47 0 -77.5 6t-52.5 16.5t-43 23.5q-11 7 -20 11
t-15 4q-13 0 -21 -12t-21 -42h-20q14 32 30 84t38 156h20q-5 -17 -7.5 -38.5t-1.5 -40.5q3 -71 44.5 -108.5t118.5 -37.5q68 0 98.5 28t30.5 77q0 51 -22 91t-53 76.5t-63 72.5t-53.5 77t-21.5 92t22 88.5t59 62.5t80 37t85 12q59 0 96 -14.5t62 -29.5q9 -6 18.5 -11
t14.5 -5q14 0 33 53h20zM386 784q50 39 82 70t56.5 53.5t51.5 37.5q21 12 49.5 11.5t41.5 -27.5q12 -23 -1.5 -43.5t-38.5 -33.5q-37 -21 -92 -33.5t-142 -46.5z" />
    <glyph glyph-name="sacute" unicode="&#x15b;" horiz-adv-x="420" 
d="M74 14q8 -4 17 -5.5t22 -1.5q37 0 60.5 22.5t23.5 63.5q0 33 -14 67.5t-42 75.5q-23 36 -42.5 70t-19.5 78q0 64 48 105.5t134 41.5q37 0 71.5 -9t57.5 -31t23 -64q0 -24 -15 -49t-46 -25q-25 0 -40 18.5t-15 48.5q0 27 9.5 48.5t21.5 34.5q-13 8 -35 8q-36 0 -56.5 -22
t-21.5 -63q0 -34 18 -63.5t42 -68.5q30 -49 44.5 -84t14.5 -71q0 -43 -22.5 -77.5t-65 -55t-100.5 -20.5q-42 0 -80 11t-61.5 36.5t-23.5 68.5q0 28 14.5 50t41.5 22t42 -22.5t15 -55.5q0 -26 -7.5 -47zM240 609q37 52 59 90t39.5 67t38.5 50q19 20 45.5 25.5t45.5 -14.5
q18 -17 13 -39.5t-28 -45.5q-20 -20 -48.5 -38.5t-66.5 -42.5t-88 -62z" />
    <glyph glyph-name="Scircumflex" unicode="&#x15c;" horiz-adv-x="587" 
d="M620 715q-10 -26 -27 -75.5t-32 -128.5h-20q6 29 6 56q0 58 -36 94.5t-107 36.5q-50 0 -85.5 -25.5t-35.5 -83.5q0 -42 23.5 -81t58.5 -75.5t70 -74.5t59 -80.5t24 -91.5q0 -54 -26.5 -92t-68.5 -62t-90 -35t-91 -11q-47 0 -77.5 6t-52.5 16.5t-43 23.5q-11 7 -20 11
t-15 4q-13 0 -21 -12t-21 -42h-20q14 32 30 84t38 156h20q-5 -17 -7.5 -38.5t-1.5 -40.5q3 -71 44.5 -108.5t118.5 -37.5q68 0 98.5 28t30.5 77q0 51 -22 91t-53 76.5t-63 72.5t-53.5 77t-21.5 92t22 88.5t59 62.5t80 37t85 12q59 0 96 -14.5t62 -29.5q9 -6 18.5 -11
t14.5 -5q14 0 33 53h20zM407 830q-43 -16 -100.5 -32t-117.5 -27l-5 14q84 26 156 68t115 87h18q22 -52 53 -90t86 -65l-4 -14q-72 12 -116 27t-85 32z" />
    <glyph glyph-name="scircumflex" unicode="&#x15d;" horiz-adv-x="420" 
d="M74 14q8 -4 17 -5.5t22 -1.5q37 0 60.5 22.5t23.5 63.5q0 33 -14 67.5t-42 75.5q-23 36 -42.5 70t-19.5 78q0 64 48 105.5t134 41.5q37 0 71.5 -9t57.5 -31t23 -64q0 -24 -15 -49t-46 -25q-25 0 -40 18.5t-15 48.5q0 27 9.5 48.5t21.5 34.5q-13 8 -35 8q-36 0 -56.5 -22
t-21.5 -63q0 -34 18 -63.5t42 -68.5q30 -49 44.5 -84t14.5 -71q0 -43 -22.5 -77.5t-65 -55t-100.5 -20.5q-42 0 -80 11t-61.5 36.5t-23.5 68.5q0 28 14.5 50t41.5 22t42 -22.5t15 -55.5q0 -26 -7.5 -47zM286 684q-36 -20 -83 -39.5t-98 -34.5l-5 14q74 33 137.5 86
t101.5 110h18q14 -68 40.5 -115t78.5 -81l-4 -14q-65 14 -107 32.5t-79 41.5z" />
    <glyph glyph-name="Scedilla" unicode="&#x15e;" horiz-adv-x="587" 
d="M620 715q-10 -26 -27 -75.5t-32 -128.5h-20q6 29 6 56q0 58 -36 94.5t-107 36.5q-50 0 -85.5 -25.5t-35.5 -83.5q0 -42 23.5 -81t58.5 -75.5t70 -74.5t59 -80.5t24 -91.5q0 -54 -26.5 -92t-68.5 -62t-90 -35t-91 -11q-47 0 -77.5 6t-52.5 16.5t-43 23.5q-11 7 -20 11
t-15 4q-13 0 -21 -12t-21 -42h-20q14 32 30 84t38 156h20q-5 -17 -7.5 -38.5t-1.5 -40.5q3 -71 44.5 -108.5t118.5 -37.5q68 0 98.5 28t30.5 77q0 51 -22 91t-53 76.5t-63 72.5t-53.5 77t-21.5 92t22 88.5t59 62.5t80 37t85 12q59 0 96 -14.5t62 -29.5q9 -6 18.5 -11
t14.5 -5q14 0 33 53h20zM244 6l-31 -69q29 10 58 10q30 0 48.5 -11.5t18.5 -36.5q0 -31 -26 -50t-65 -28t-79 -9q-36 0 -65.5 6.5t-43.5 13.5l6 15q9 -2 31.5 -6.5t49.5 -4.5q15 0 36.5 3.5t37.5 13.5t16 29q0 23 -32 23q-6 0 -16 -1.5t-19 -5.5l48 108h27z" />
    <glyph glyph-name="scedilla" unicode="&#x15f;" horiz-adv-x="420" 
d="M74 14q8 -4 17 -5.5t22 -1.5q37 0 60.5 22.5t23.5 63.5q0 33 -14 67.5t-42 75.5q-23 36 -42.5 70t-19.5 78q0 64 48 105.5t134 41.5q37 0 71.5 -9t57.5 -31t23 -64q0 -24 -15 -49t-46 -25q-25 0 -40 18.5t-15 48.5q0 27 9.5 48.5t21.5 34.5q-13 8 -35 8q-36 0 -56.5 -22
t-21.5 -63q0 -34 18 -63.5t42 -68.5q30 -49 44.5 -84t14.5 -71q0 -43 -22.5 -77.5t-65 -55t-100.5 -20.5q-42 0 -80 11t-61.5 36.5t-23.5 68.5q0 28 14.5 50t41.5 22t42 -22.5t15 -55.5q0 -26 -7.5 -47zM146 0l-44 -69q12 4 26.5 7t27.5 3q25 0 42.5 -10t17.5 -32
q0 -31 -25 -50t-63 -28t-76 -9q-31 0 -54.5 6.5t-34.5 13.5l6 15q8 -2 23 -6.5t38 -4.5q11 0 29.5 3.5t33.5 13.5t15 29q0 23 -28 23q-5 0 -14 -1.5t-17 -5.5l69 102h28z" />
    <glyph glyph-name="Scaron" unicode="&#x160;" horiz-adv-x="587" 
d="M620 715q-10 -26 -27 -75.5t-32 -128.5h-20q6 29 6 56q0 58 -36 94.5t-107 36.5q-50 0 -85.5 -25.5t-35.5 -83.5q0 -42 23.5 -81t58.5 -75.5t70 -74.5t59 -80.5t24 -91.5q0 -54 -26.5 -92t-68.5 -62t-90 -35t-91 -11q-47 0 -77.5 6t-52.5 16.5t-43 23.5q-11 7 -20 11
t-15 4q-13 0 -21 -12t-21 -42h-20q14 32 30 84t38 156h20q-5 -17 -7.5 -38.5t-1.5 -40.5q3 -71 44.5 -108.5t118.5 -37.5q68 0 98.5 28t30.5 77q0 51 -22 91t-53 76.5t-63 72.5t-53.5 77t-21.5 92t22 88.5t59 62.5t80 37t85 12q59 0 96 -14.5t62 -29.5q9 -6 18.5 -11
t14.5 -5q14 0 33 53h20zM464 878q43 16 100 32t117 27l5 -14q-84 -25 -156 -67.5t-115 -87.5h-18q-21 53 -52 90.5t-87 64.5l4 14q72 -12 116.5 -26.5t85.5 -32.5z" />
    <glyph glyph-name="scaron" unicode="&#x161;" horiz-adv-x="420" 
d="M74 14q8 -4 17 -5.5t22 -1.5q37 0 60.5 22.5t23.5 63.5q0 33 -14 67.5t-42 75.5q-23 36 -42.5 70t-19.5 78q0 64 48 105.5t134 41.5q37 0 71.5 -9t57.5 -31t23 -64q0 -24 -15 -49t-46 -25q-25 0 -40 18.5t-15 48.5q0 27 9.5 48.5t21.5 34.5q-13 8 -35 8q-36 0 -56.5 -22
t-21.5 -63q0 -34 18 -63.5t42 -68.5q30 -49 44.5 -84t14.5 -71q0 -43 -22.5 -77.5t-65 -55t-100.5 -20.5q-42 0 -80 11t-61.5 36.5t-23.5 68.5q0 28 14.5 50t41.5 22t42 -22.5t15 -55.5q0 -26 -7.5 -47zM354 746q37 20 84 40t97 34l5 -14q-74 -32 -137 -85.5t-102 -110.5
h-18q-13 69 -40 115.5t-79 80.5l4 14q66 -14 108 -32t78 -42z" />
    <glyph glyph-name="uni0162" unicode="&#x162;" horiz-adv-x="681" 
d="M781 858q36 0 56.5 -21.5t20.5 -48.5q0 -32 -18.5 -56t-50.5 -39q-30 -14 -72 -21.5t-95 -7.5q-48 0 -107 6t-117.5 12t-108.5 6q-34 0 -65 -3.5t-48 -13.5q26 -7 43 -29t17 -52q0 -34 -21.5 -59t-56.5 -25t-53.5 23.5t-18.5 55.5q0 24 13.5 51.5t51.5 45.5q24 12 50 17
t49 6t35 1q62 0 121 -5.5t115.5 -11t109.5 -5.5q39 0 65.5 4t48.5 12l-2 -8q-15 12 -28 34t-13 50q0 36 21.5 59t57.5 23zM411 689l15.5 -1.5t38.5 -3.5l46 -4t39 -3.5l16 -1.5l-149 -559q-14 -54 0.5 -73.5t74.5 -22.5l-4 -20q-31 2 -81 2.5t-104 0.5q-52 0 -99.5 -0.5
t-76.5 -2.5l4 20q42 2 66.5 10.5t38 29t22.5 56.5zM319 6l-31 -69q29 10 58 10q30 0 48.5 -11.5t18.5 -36.5q0 -31 -26 -50t-65 -28t-79 -9q-36 0 -65.5 6.5t-43.5 13.5l6 15q9 -2 31.5 -6.5t49.5 -4.5q15 0 36.5 3.5t37.5 13.5t16 29q0 23 -32 23q-6 0 -16 -1.5t-19 -5.5
l48 108h27z" />
    <glyph glyph-name="uni0163" unicode="&#x163;" horiz-adv-x="353" 
d="M402 517l-3 -20h-347l5 20h345zM164 85q-7 -26 1.5 -38t25.5 -12q21 0 42 21t37 65l15 41h19l-20 -58q-20 -60 -58.5 -89t-91.5 -29q-70 0 -91 46t-2 113l150 521q43 1 78 4t67 10zM123 0l-44 -69q12 4 26.5 7t27.5 3q25 0 42.5 -10t17.5 -32q0 -31 -25 -50t-63 -28
t-76 -9q-31 0 -54.5 6.5t-34.5 13.5l6 15q8 -2 23 -6.5t38 -4.5q11 0 29.5 3.5t33.5 13.5t15 29q0 23 -28 23q-5 0 -14 -1.5t-17 -5.5l69 102h28z" />
    <glyph glyph-name="Tcaron" unicode="&#x164;" horiz-adv-x="681" 
d="M781 858q36 0 56.5 -21.5t20.5 -48.5q0 -32 -18.5 -56t-50.5 -39q-30 -14 -72 -21.5t-95 -7.5q-48 0 -107 6t-117.5 12t-108.5 6q-34 0 -65 -3.5t-48 -13.5q26 -7 43 -29t17 -52q0 -34 -21.5 -59t-56.5 -25t-53.5 23.5t-18.5 55.5q0 24 13.5 51.5t51.5 45.5q24 12 50 17
t49 6t35 1q62 0 121 -5.5t115.5 -11t109.5 -5.5q39 0 65.5 4t48.5 12l-2 -8q-15 12 -28 34t-13 50q0 36 21.5 59t57.5 23zM411 689l15.5 -1.5t38.5 -3.5l46 -4t39 -3.5l16 -1.5l-149 -559q-14 -54 0.5 -73.5t74.5 -22.5l-4 -20q-31 2 -81 2.5t-104 0.5q-52 0 -99.5 -0.5
t-76.5 -2.5l4 20q42 2 66.5 10.5t38 29t22.5 56.5zM545 878q43 16 100 32t117 27l5 -14q-84 -25 -156 -67.5t-115 -87.5h-18q-21 53 -52 90.5t-87 64.5l4 14q72 -12 116.5 -26.5t85.5 -32.5z" />
    <glyph glyph-name="tcaron" unicode="&#x165;" horiz-adv-x="353" 
d="M402 517l-3 -20h-347l5 20h345zM164 85q-7 -26 1.5 -38t25.5 -12q21 0 42 21t37 65l15 41h19l-20 -58q-20 -60 -58.5 -89t-91.5 -29q-70 0 -91 46t-2 113l150 521q43 1 78 4t67 10zM358 560q34 74 47.5 124t13.5 69t-13 19l3 21q8 0 15 -0.5t13 -0.5q33 0 55.5 4t40.5 8
q1 -2 1 -10q0 -38 -43 -101t-119 -137z" />
    <glyph glyph-name="Tbar" unicode="&#x166;" horiz-adv-x="681" 
d="M781 858q36 0 56.5 -21.5t20.5 -48.5q0 -32 -18.5 -56t-50.5 -39q-30 -14 -72 -21.5t-95 -7.5q-48 0 -107 6t-117.5 12t-108.5 6q-34 0 -65 -3.5t-48 -13.5q26 -7 43 -29t17 -52q0 -34 -21.5 -59t-56.5 -25t-53.5 23.5t-18.5 55.5q0 24 13.5 51.5t51.5 45.5q24 12 50 17
t49 6t35 1q62 0 121 -5.5t115.5 -11t109.5 -5.5q39 0 65.5 4t48.5 12l-2 -8q-15 12 -28 34t-13 50q0 36 21.5 59t57.5 23zM411 689l15.5 -1.5t38.5 -3.5l46 -4t39 -3.5l16 -1.5l-149 -559q-14 -54 0.5 -73.5t74.5 -22.5l-4 -20q-31 2 -81 2.5t-104 0.5q-52 0 -99.5 -0.5
t-76.5 -2.5l4 20q42 2 66.5 10.5t38 29t22.5 56.5zM608 366l-6 -25h-424l6 25h424z" />
    <glyph glyph-name="tbar" unicode="&#x167;" horiz-adv-x="353" 
d="M380 421l-3 -20h-346l5 20h344zM402 517l-3 -20h-347l5 20h345zM164 85q-7 -26 1.5 -38t25.5 -12q21 0 42 21t37 65l15 41h19l-20 -58q-20 -60 -58.5 -89t-91.5 -29q-70 0 -91 46t-2 113l150 521q43 1 78 4t67 10z" />
    <glyph glyph-name="Utilde" unicode="&#x168;" horiz-adv-x="694" 
d="M643 544q15 55 15.5 84.5t-17 42.5t-58.5 17l5 20q19 -1 49.5 -2t57.5 -1q24 0 48 1t40 2l-5 -20q-33 -4 -52.5 -16.5t-32 -39.5t-25.5 -76l-68 -265q-36 -138 -98 -212q-36 -42 -89.5 -67.5t-115.5 -25.5q-75 0 -123 21t-72 58q-27 39 -26.5 92t21.5 131l83 314
q14 55 2.5 69.5t-61.5 16.5l6 20q25 -1 70 -2t95 -1q44 0 84 1t71 2l-6 -20q-34 -1 -53 -7.5t-29.5 -24t-20.5 -54.5l-88 -331q-22 -82 -23.5 -137.5t20 -84t69.5 -28.5q75 0 125 33.5t82 92.5t51 133zM459 927q37 0 61.5 -11t43 -25.5t38 -25.5t47.5 -11q21 0 40 13.5
t37 44.5l18 -5q-29 -74 -74.5 -106.5t-91.5 -32.5q-37 0 -61.5 11t-43 25.5t-38 25.5t-47.5 11q-21 0 -39.5 -13t-37.5 -45l-18 5q28 74 74 106.5t92 32.5z" />
    <glyph glyph-name="utilde" unicode="&#x169;" horiz-adv-x="597" 
d="M393 351q-37 -110 -71 -181.5t-66.5 -111t-66.5 -56t-72 -16.5q-63 0 -82 40t5 111l97 295q10 29 4.5 39.5t-17.5 10.5q-13 0 -29 -14.5t-34 -64.5l-18 -48h-19l25 73q22 63 60 83t74 20q45 0 67 -19.5t24 -55t-14 -84.5l-90 -270q-22 -66 10 -66q24 0 55 38.5t64.5 104
t64.5 148.5t54 172zM442 85q-7 -25 -6 -37.5t17 -12.5q18 0 33.5 17.5t30.5 61.5l19 51h19l-27 -76q-20 -59 -57 -81t-77 -22q-27 0 -45.5 9t-28.5 25q-10 19 -8.5 45.5t9.5 60.5l101 391q41 1 77.5 4t67.5 10zM329 786q30 0 49.5 -11t34.5 -25.5t30.5 -25.5t37.5 -11
q19 0 36.5 13.5t34.5 44.5l18 -5q-26 -74 -69 -106.5t-85 -32.5q-30 0 -49.5 11t-34.5 25.5t-30.5 25.5t-37.5 11q-19 0 -36.5 -13t-34.5 -45l-18 5q27 75 69.5 107t84.5 32z" />
    <glyph glyph-name="Umacron" unicode="&#x16a;" horiz-adv-x="694" 
d="M643 544q15 55 15.5 84.5t-17 42.5t-58.5 17l5 20q19 -1 49.5 -2t57.5 -1q24 0 48 1t40 2l-5 -20q-33 -4 -52.5 -16.5t-32 -39.5t-25.5 -76l-68 -265q-36 -138 -98 -212q-36 -42 -89.5 -67.5t-115.5 -25.5q-75 0 -123 21t-72 58q-27 39 -26.5 92t21.5 131l83 314
q14 55 2.5 69.5t-61.5 16.5l6 20q25 -1 70 -2t95 -1q44 0 84 1t71 2l-6 -20q-34 -1 -53 -7.5t-29.5 -24t-20.5 -54.5l-88 -331q-22 -82 -23.5 -137.5t20 -84t69.5 -28.5q75 0 125 33.5t82 92.5t51 133zM695 844l-6 -25h-400l6 25h400z" />
    <glyph glyph-name="umacron" unicode="&#x16b;" horiz-adv-x="597" 
d="M393 351q-37 -110 -71 -181.5t-66.5 -111t-66.5 -56t-72 -16.5q-63 0 -82 40t5 111l97 295q10 29 4.5 39.5t-17.5 10.5q-13 0 -29 -14.5t-34 -64.5l-18 -48h-19l25 73q22 63 60 83t74 20q45 0 67 -19.5t24 -55t-14 -84.5l-90 -270q-22 -66 10 -66q24 0 55 38.5t64.5 104
t64.5 148.5t54 172zM442 85q-7 -25 -6 -37.5t17 -12.5q18 0 33.5 17.5t30.5 61.5l19 51h19l-27 -76q-20 -59 -57 -81t-77 -22q-27 0 -45.5 9t-28.5 25q-10 19 -8.5 45.5t9.5 60.5l101 391q41 1 77.5 4t67.5 10zM545 712l-6 -25h-336l6 25h336z" />
    <glyph glyph-name="Ubreve" unicode="&#x16c;" horiz-adv-x="694" 
d="M643 544q15 55 15.5 84.5t-17 42.5t-58.5 17l5 20q19 -1 49.5 -2t57.5 -1q24 0 48 1t40 2l-5 -20q-33 -4 -52.5 -16.5t-32 -39.5t-25.5 -76l-68 -265q-36 -138 -98 -212q-36 -42 -89.5 -67.5t-115.5 -25.5q-75 0 -123 21t-72 58q-27 39 -26.5 92t21.5 131l83 314
q14 55 2.5 69.5t-61.5 16.5l6 20q25 -1 70 -2t95 -1q44 0 84 1t71 2l-6 -20q-34 -1 -53 -7.5t-29.5 -24t-20.5 -54.5l-88 -331q-22 -82 -23.5 -137.5t20 -84t69.5 -28.5q75 0 125 33.5t82 92.5t51 133zM510 869q64 0 122 14.5t106 42.5l11 -10q-26 -36 -68 -69.5
t-91.5 -54.5t-99.5 -21q-69 0 -108 42t-50 102l15 7q29 -28 66.5 -40.5t96.5 -12.5z" />
    <glyph glyph-name="ubreve" unicode="&#x16d;" horiz-adv-x="597" 
d="M393 351q-37 -110 -71 -181.5t-66.5 -111t-66.5 -56t-72 -16.5q-63 0 -82 40t5 111l97 295q10 29 4.5 39.5t-17.5 10.5q-13 0 -29 -14.5t-34 -64.5l-18 -48h-19l25 73q22 63 60 83t74 20q45 0 67 -19.5t24 -55t-14 -84.5l-90 -270q-22 -66 10 -66q24 0 55 38.5t64.5 104
t64.5 148.5t54 172zM442 85q-7 -25 -6 -37.5t17 -12.5q18 0 33.5 17.5t30.5 61.5l19 51h19l-27 -76q-20 -59 -57 -81t-77 -22q-27 0 -45.5 9t-28.5 25q-10 19 -8.5 45.5t9.5 60.5l101 391q41 1 77.5 4t67.5 10zM373 719q53 0 106.5 17.5t96.5 51.5l11 -10q-23 -39 -61 -75
t-83.5 -59t-90.5 -23q-55 0 -85.5 46t-39.5 110l16 7q23 -34 51.5 -49.5t78.5 -15.5z" />
    <glyph glyph-name="Uring" unicode="&#x16e;" horiz-adv-x="694" 
d="M643 544q15 55 15.5 84.5t-17 42.5t-58.5 17l5 20q19 -1 49.5 -2t57.5 -1q24 0 48 1t40 2l-5 -20q-33 -4 -52.5 -16.5t-32 -39.5t-25.5 -76l-68 -265q-36 -138 -98 -212q-36 -42 -89.5 -67.5t-115.5 -25.5q-75 0 -123 21t-72 58q-27 39 -26.5 92t21.5 131l83 314
q14 55 2.5 69.5t-61.5 16.5l6 20q25 -1 70 -2t95 -1q44 0 84 1t71 2l-6 -20q-34 -1 -53 -7.5t-29.5 -24t-20.5 -54.5l-88 -331q-22 -82 -23.5 -137.5t20 -84t69.5 -28.5q75 0 125 33.5t82 92.5t51 133zM518 937q42 0 70 -23t28 -62q0 -30 -17 -55t-45.5 -40t-61.5 -15
q-40 0 -67.5 23t-27.5 63q0 47 35.5 78t85.5 31zM496 763q36 0 65 25.5t29 62.5q0 33 -24.5 49t-50.5 16q-37 0 -64 -26.5t-27 -61.5q0 -32 22.5 -48.5t49.5 -16.5z" />
    <glyph glyph-name="uring" unicode="&#x16f;" horiz-adv-x="597" 
d="M393 351q-37 -110 -71 -181.5t-66.5 -111t-66.5 -56t-72 -16.5q-63 0 -82 40t5 111l97 295q10 29 4.5 39.5t-17.5 10.5q-13 0 -29 -14.5t-34 -64.5l-18 -48h-19l25 73q22 63 60 83t74 20q45 0 67 -19.5t24 -55t-14 -84.5l-90 -270q-22 -66 10 -66q24 0 55 38.5t64.5 104
t64.5 148.5t54 172zM442 85q-7 -25 -6 -37.5t17 -12.5q18 0 33.5 17.5t30.5 61.5l19 51h19l-27 -76q-20 -59 -57 -81t-77 -22q-27 0 -45.5 9t-28.5 25q-10 19 -8.5 45.5t9.5 60.5l101 391q41 1 77.5 4t67.5 10zM392 797q42 0 70 -23t28 -62q0 -30 -17 -55t-45.5 -40
t-61.5 -15q-40 0 -67.5 23t-27.5 63q0 46 35.5 77.5t85.5 31.5zM370 623q37 0 65.5 25.5t28.5 62.5q0 33 -24 49t-51 16q-36 0 -63.5 -26.5t-27.5 -61.5q0 -32 23 -48.5t49 -16.5z" />
    <glyph glyph-name="Uhungarumlaut" unicode="&#x170;" horiz-adv-x="694" 
d="M643 544q15 55 15.5 84.5t-17 42.5t-58.5 17l5 20q19 -1 49.5 -2t57.5 -1q24 0 48 1t40 2l-5 -20q-33 -4 -52.5 -16.5t-32 -39.5t-25.5 -76l-68 -265q-36 -138 -98 -212q-36 -42 -89.5 -67.5t-115.5 -25.5q-75 0 -123 21t-72 58q-27 39 -26.5 92t21.5 131l83 314
q14 55 2.5 69.5t-61.5 16.5l6 20q25 -1 70 -2t95 -1q44 0 84 1t71 2l-6 -20q-34 -1 -53 -7.5t-29.5 -24t-20.5 -54.5l-88 -331q-22 -82 -23.5 -137.5t20 -84t69.5 -28.5q75 0 125 33.5t82 92.5t51 133zM540 783q33 35 54.5 63.5t40 51t37.5 37.5q18 12 43 11.5t39 -23.5
q14 -19 5.5 -41t-29.5 -36q-30 -20 -74.5 -33t-107.5 -41zM329 783q33 35 54.5 63.5t40 51t37.5 37.5q18 13 43 11.5t40 -23.5q12 -20 4 -41t-29 -36q-30 -20 -74.5 -33t-107.5 -41z" />
    <glyph glyph-name="uhungarumlaut" unicode="&#x171;" horiz-adv-x="597" 
d="M393 351q-37 -110 -71 -181.5t-66.5 -111t-66.5 -56t-72 -16.5q-63 0 -82 40t5 111l97 295q10 29 4.5 39.5t-17.5 10.5q-13 0 -29 -14.5t-34 -64.5l-18 -48h-19l25 73q22 63 60 83t74 20q45 0 67 -19.5t24 -55t-14 -84.5l-90 -270q-22 -66 10 -66q24 0 55 38.5t64.5 104
t64.5 148.5t54 172zM442 85q-7 -25 -6 -37.5t17 -12.5q18 0 33.5 17.5t30.5 61.5l19 51h19l-27 -76q-20 -59 -57 -81t-77 -22q-27 0 -45.5 9t-28.5 25q-10 19 -8.5 45.5t9.5 60.5l101 391q41 1 77.5 4t67.5 10zM226 606q24 50 37 85t22.5 60.5t22.5 43.5q16 21 39.5 24
t43.5 -12q17 -15 18.5 -36.5t-15.5 -42.5q-21 -27 -59 -51.5t-98 -78.5zM404 606q25 50 37.5 85t22 60.5t22.5 43.5q17 21 40.5 24t42.5 -12q18 -15 19.5 -36.5t-16.5 -42.5q-20 -27 -58 -51.5t-98 -78.5z" />
    <glyph glyph-name="Uogonek" unicode="&#x172;" horiz-adv-x="694" 
d="M643 544q15 55 15.5 84.5t-17 42.5t-58.5 17l5 20q19 -1 49.5 -2t57.5 -1q24 0 48 1t40 2l-5 -20q-33 -4 -52.5 -16.5t-32 -39.5t-25.5 -76l-68 -265q-36 -138 -98 -212q-36 -42 -89.5 -67.5t-115.5 -25.5q-75 0 -123 21t-72 58q-27 39 -26.5 92t21.5 131l83 314
q14 55 2.5 69.5t-61.5 16.5l6 20q25 -1 70 -2t95 -1q44 0 84 1t71 2l-6 -20q-34 -1 -53 -7.5t-29.5 -24t-20.5 -54.5l-88 -331q-22 -82 -23.5 -137.5t20 -84t69.5 -28.5q75 0 125 33.5t82 92.5t51 133zM390 3q-29 -11 -53 -28.5t-38 -38.5t-14 -44q0 -30 33 -30q16 0 36 6
t37 16l11 -17q-36 -29 -72 -42t-73 -13q-40 0 -62.5 16t-22.5 44q0 32 29 57.5t73 44t90 29.5h26z" />
    <glyph glyph-name="uogonek" unicode="&#x173;" horiz-adv-x="597" 
d="M393 351q-37 -110 -71 -181.5t-66.5 -111t-66.5 -56t-72 -16.5q-63 0 -82 40t5 111l97 295q10 29 4.5 39.5t-17.5 10.5q-13 0 -29 -14.5t-34 -64.5l-18 -48h-19l25 73q22 63 60 83t74 20q45 0 67 -19.5t24 -55t-14 -84.5l-90 -270q-22 -66 10 -66q24 0 55 38.5t64.5 104
t64.5 148.5t54 172zM442 85q-7 -25 -6 -37.5t17 -12.5q18 0 33.5 17.5t30.5 61.5l19 51h19l-27 -76q-20 -59 -57 -81t-77 -22q-27 0 -45.5 9t-28.5 25q-10 19 -8.5 45.5t9.5 60.5l101 391q41 1 77.5 4t67.5 10zM459 3q-29 -10 -53 -27.5t-38 -39t-14 -45.5q0 -29 29 -29
q16 0 33 9t30 21l13 -12q-29 -35 -63 -51.5t-71 -16.5q-38 0 -61 16t-23 44q0 32 29 57.5t73 44t90 29.5h26z" />
    <glyph glyph-name="Wcircumflex" unicode="&#x174;" horiz-adv-x="982" 
d="M573 497l-303 -502h-52l-79 629q-4 37 -21 50t-32 14l5 20q25 -1 63 -2t77 -1q40 0 73.5 1t56.5 2l-5 -20q-32 -2 -44.5 -17.5t-7.5 -66.5l50 -449l-30 -31l243 399zM938 565q26 48 25.5 74t-22 36.5t-62.5 12.5l5 20q14 -1 37.5 -1.5t50 -1t43.5 -0.5q23 0 41.5 1
t34.5 2l-5 -20q-20 -5 -39 -15t-38 -31t-41 -60l-315 -587h-52l-87 629q-5 37 -18 50t-25 14l5 20q23 -1 58.5 -2t71.5 -1q48 0 89 1t67 2l-5 -20q-50 -2 -67.5 -17t-10.5 -67l56 -441l-30 -27zM632 828q-43 -16 -100.5 -32t-117.5 -27l-5 14q84 26 156 68t115 87h18
q22 -52 53 -90t86 -65l-4 -14q-72 12 -116 27t-85 32z" />
    <glyph glyph-name="wcircumflex" unicode="&#x175;" horiz-adv-x="680" 
d="M298 55q-30 -30 -70 -49.5t-92 -19.5q-68 0 -101 36t-33 86q0 48 27 94.5t73.5 93.5t108 96t128.5 100l5 -2q-29 -2 -52 -15t-42.5 -28t-37 -26.5t-37.5 -11.5q-19 0 -31 9.5t-27 9.5q-14 0 -22.5 -11t-16.5 -37l-9 -27h-19l22 73q20 61 44.5 81.5t50.5 20.5
q20 0 35 -7.5t33 -14.5t46 -7q16 0 35.5 4.5t41.5 16.5l11 19l21 -10q-64 -66 -117.5 -140t-85.5 -147.5t-32 -137.5q0 -38 12 -56t39 -18q44 0 85 40zM453 47q35 0 61.5 19t45.5 50.5t30 70t15 78.5t1 75q-28 11 -58 28t-51.5 42.5t-21.5 62.5q0 23 15.5 40.5t43.5 17.5
q25 0 42.5 -17t28 -44t16 -57t6.5 -56q4 -47 -2.5 -99t-23.5 -100t-45 -87t-67.5 -62t-91.5 -23q-33 0 -63.5 12t-50 42t-19.5 83q0 46 16 88t41 75.5t52.5 53t51.5 19.5q17 0 25 -11t10.5 -26.5t2.5 -28.5q0 -60 -28 -118.5t-85 -106.5l-6 18q44 39 70 94t26 110
q0 21 -4 34t-13 13q-13 0 -28 -24t-25 -61.5t-10 -79.5q0 -34 10 -62t30.5 -45.5t52.5 -17.5zM396 684q-36 -20 -83 -39.5t-98 -34.5l-5 14q74 33 137.5 86t101.5 110h18q14 -68 40.5 -115t78.5 -81l-4 -14q-65 14 -107 32.5t-79 41.5z" />
    <glyph glyph-name="Ycircumflex" unicode="&#x176;" horiz-adv-x="734" 
d="M392 106q-13 -55 3.5 -69.5t67.5 -16.5l-5 -20q-19 1 -47.5 1.5t-61.5 1t-63 0.5q-48 0 -91.5 -0.5t-69.5 -2.5l5 20q34 2 53 8t30 24t20 54l69 274l65 -63l69 19l34 80zM714 703q-16 0 -30 -5.5t-30 -17.5q-28 -20 -68 -72.5t-81 -137t-76 -200.5l-136 -5q-4 47 -11 99
t-17 102.5t-23.5 92t-30.5 65.5t-39 24q-18 0 -29 -13.5t-17 -33.5l-21 -63h-11h-11l25 77q20 59 56.5 83t84.5 24q68 0 105 -42t55 -122t31 -193q34 96 76 170.5t88 124.5q23 25 53 43.5t65 18.5q46 0 70 -26t23 -62q-1 -37 -26 -62.5t-65 -25.5q-33 0 -51 17t-18 44
q1 34 22.5 58.5t53.5 33.5q-3 2 -7 3t-10 1zM487 830q-43 -16 -100.5 -32t-117.5 -27l-5 14q84 26 156 68t115 87h18q22 -52 53 -90t86 -65l-4 -14q-72 12 -116 27t-85 32z" />
    <glyph glyph-name="ycircumflex" unicode="&#x177;" horiz-adv-x="482" 
d="M307 61l-107 -121l-80 491q-5 27 -10 37t-16 10q-10 0 -20 -13.5t-27 -60.5l-18 -49h-19l25 73q21 61 53 82t70 21q41 0 66 -22.5t34 -85.5zM68 -139q47 23 97 62.5t102 106.5q56 69 98 149.5t62 154.5q-37 21 -65 54.5t-27 74.5q0 32 18 50t49 18q35 0 50.5 -24
t15.5 -67q0 -47 -16 -103t-44 -115.5t-63 -115.5t-74 -102q-31 -39 -69.5 -73t-81 -61t-88.5 -43q-22 -8 -40 -11.5t-31 -3.5q-32 0 -50.5 14.5t-18.5 41.5q0 26 19.5 44t49.5 18q32 0 58.5 -18.5t48.5 -50.5zM305 684q-36 -20 -83 -39.5t-98 -34.5l-5 14q74 33 137.5 86
t101.5 110h18q14 -68 40.5 -115t78.5 -81l-4 -14q-65 14 -107 32.5t-79 41.5z" />
    <glyph glyph-name="Ydieresis" unicode="&#x178;" horiz-adv-x="734" 
d="M392 106q-13 -55 3.5 -69.5t67.5 -16.5l-5 -20q-19 1 -47.5 1.5t-61.5 1t-63 0.5q-48 0 -91.5 -0.5t-69.5 -2.5l5 20q34 2 53 8t30 24t20 54l69 274l65 -63l69 19l34 80zM714 703q-16 0 -30 -5.5t-30 -17.5q-28 -20 -68 -72.5t-81 -137t-76 -200.5l-136 -5q-4 47 -11 99
t-17 102.5t-23.5 92t-30.5 65.5t-39 24q-18 0 -29 -13.5t-17 -33.5l-21 -63h-11h-11l25 77q20 59 56.5 83t84.5 24q68 0 105 -42t55 -122t31 -193q34 96 76 170.5t88 124.5q23 25 53 43.5t65 18.5q46 0 70 -26t23 -62q-1 -37 -26 -62.5t-65 -25.5q-33 0 -51 17t-18 44
q1 34 22.5 58.5t53.5 33.5q-3 2 -7 3t-10 1zM305 832q0 40 26.5 62.5t59.5 22.5t49 -19t16 -48q0 -41 -27 -62.5t-60 -21.5q-32 0 -48 18.5t-16 47.5zM545 832q0 40 26 62.5t60 22.5q32 0 48.5 -19t16.5 -48q0 -41 -27 -62.5t-60 -21.5t-48.5 18.5t-15.5 47.5z" />
    <glyph glyph-name="Zacute" unicode="&#x179;" horiz-adv-x="658" 
d="M162 346l7 20h353l-8 -20h-352zM450 212l2 9.5l2 9.5q32 -5 61.5 -18t49 -36.5t19.5 -61.5q0 -56 -39 -92.5t-106 -36.5q-43 0 -75.5 13.5t-61.5 31t-60.5 31t-73.5 13.5q-29 0 -53.5 -7.5t-52.5 -19.5q-22 -32 -48 -49t-40 -4q-12 11 2 33t67 42l580 570
q-47 -41 -99 -65.5t-104 -24.5q-47 0 -82 11t-64 22t-61 11q-22 0 -33.5 -10t-11.5 -30q0 -21 17 -35.5t56 -22.5l-2.5 -9.5l-2.5 -9.5q-31 6 -61 18.5t-49.5 36.5t-19.5 61q0 56 39 92.5t106 36.5q43 0 75.5 -13.5t61.5 -31t60.5 -31t73.5 -13.5q29 0 53.5 7.5t52.5 19.5
q23 32 48 49t40 4q12 -10 -2 -32.5t-67 -42.5l-580 -570q47 41 99 65.5t105 24.5q48 0 82.5 -11t63.5 -22t61 -11q21 0 33 10t12 30q0 21 -17 35.5t-56 22.5zM422 784q50 39 82 70t56.5 53.5t51.5 37.5q21 12 49.5 11.5t41.5 -27.5q12 -23 -1.5 -43.5t-38.5 -33.5
q-37 -21 -92 -33.5t-142 -46.5z" />
    <glyph glyph-name="zacute" unicode="&#x17a;" horiz-adv-x="464" 
d="M33 56q32 15 60.5 34t54.5 34t49 15q24 0 40 -8t31.5 -16t34.5 -8t28 10.5t9 24.5q0 23 -17 37.5t-41 19.5l6 15q54 -12 80 -38t26 -69q0 -47 -30.5 -82.5t-96.5 -35.5q-30 0 -54 8t-45 19t-44.5 19t-55.5 8q-27 0 -48.5 -8.5t-42.5 -34.5h-29l486 467
q-27 -12 -51.5 -28.5t-47.5 -31.5t-44 -25.5t-41 -10.5q-23 0 -39.5 8t-31 16t-34.5 8q-18 0 -27.5 -9t-9.5 -26q0 -21 15 -34t43 -23l-6 -15q-51 12 -78.5 37.5t-27.5 66.5q0 31 15.5 59.5t47.5 47t80 18.5q32 0 54.5 -8t43 -18t43.5 -18t53 -8q29 0 50 9.5t42 33.5h29z
M255 609q37 52 59 90t39.5 67t38.5 50q19 20 45.5 25.5t45.5 -14.5q18 -17 13 -39.5t-28 -45.5q-20 -20 -48.5 -38.5t-66.5 -42.5t-88 -62z" />
    <glyph glyph-name="Zdotaccent" unicode="&#x17b;" horiz-adv-x="658" 
d="M162 346l7 20h353l-8 -20h-352zM450 212l2 9.5l2 9.5q32 -5 61.5 -18t49 -36.5t19.5 -61.5q0 -56 -39 -92.5t-106 -36.5q-43 0 -75.5 13.5t-61.5 31t-60.5 31t-73.5 13.5q-29 0 -53.5 -7.5t-52.5 -19.5q-22 -32 -48 -49t-40 -4q-12 11 2 33t67 42l580 570
q-47 -41 -99 -65.5t-104 -24.5q-47 0 -82 11t-64 22t-61 11q-22 0 -33.5 -10t-11.5 -30q0 -21 17 -35.5t56 -22.5l-2.5 -9.5l-2.5 -9.5q-31 6 -61 18.5t-49.5 36.5t-19.5 61q0 56 39 92.5t106 36.5q43 0 75.5 -13.5t61.5 -31t60.5 -31t73.5 -13.5q29 0 53.5 7.5t52.5 19.5
q23 32 48 49t40 4q12 -10 -2 -32.5t-67 -42.5l-580 -570q47 41 99 65.5t105 24.5q48 0 82.5 -11t63.5 -22t61 -11q21 0 33 10t12 30q0 21 -17 35.5t-56 22.5zM372 826q0 42 29.5 67.5t72.5 25.5q36 0 55 -16t19 -46q0 -39 -30 -65.5t-74 -26.5q-34 0 -53 16.5t-19 44.5z" />
    <glyph glyph-name="zdotaccent" unicode="&#x17c;" horiz-adv-x="464" 
d="M33 56q32 15 60.5 34t54.5 34t49 15q24 0 40 -8t31.5 -16t34.5 -8t28 10.5t9 24.5q0 23 -17 37.5t-41 19.5l6 15q54 -12 80 -38t26 -69q0 -47 -30.5 -82.5t-96.5 -35.5q-30 0 -54 8t-45 19t-44.5 19t-55.5 8q-27 0 -48.5 -8.5t-42.5 -34.5h-29l486 467
q-27 -12 -51.5 -28.5t-47.5 -31.5t-44 -25.5t-41 -10.5q-23 0 -39.5 8t-31 16t-34.5 8q-18 0 -27.5 -9t-9.5 -26q0 -21 15 -34t43 -23l-6 -15q-51 12 -78.5 37.5t-27.5 66.5q0 31 15.5 59.5t47.5 47t80 18.5q32 0 54.5 -8t43 -18t43.5 -18t53 -8q29 0 50 9.5t42 33.5h29z
M247 681q0 43 29.5 68.5t73.5 25.5q36 0 55 -16t19 -45q0 -39 -30 -66t-74 -27q-34 0 -53.5 16t-19.5 44z" />
    <glyph glyph-name="Zcaron" unicode="&#x17d;" horiz-adv-x="658" 
d="M162 346l7 20h353l-8 -20h-352zM450 212l2 9.5l2 9.5q32 -5 61.5 -18t49 -36.5t19.5 -61.5q0 -56 -39 -92.5t-106 -36.5q-43 0 -75.5 13.5t-61.5 31t-60.5 31t-73.5 13.5q-29 0 -53.5 -7.5t-52.5 -19.5q-22 -32 -48 -49t-40 -4q-12 11 2 33t67 42l580 570
q-47 -41 -99 -65.5t-104 -24.5q-47 0 -82 11t-64 22t-61 11q-22 0 -33.5 -10t-11.5 -30q0 -21 17 -35.5t56 -22.5l-2.5 -9.5l-2.5 -9.5q-31 6 -61 18.5t-49.5 36.5t-19.5 61q0 56 39 92.5t106 36.5q43 0 75.5 -13.5t61.5 -31t60.5 -31t73.5 -13.5q29 0 53.5 7.5t52.5 19.5
q23 32 48 49t40 4q12 -10 -2 -32.5t-67 -42.5l-580 -570q47 41 99 65.5t105 24.5q48 0 82.5 -11t63.5 -22t61 -11q21 0 33 10t12 30q0 21 -17 35.5t-56 22.5zM501 878q43 16 100 32t117 27l5 -14q-84 -25 -156 -67.5t-115 -87.5h-18q-21 53 -52 90.5t-87 64.5l4 14
q72 -12 116.5 -26.5t85.5 -32.5z" />
    <glyph glyph-name="zcaron" unicode="&#x17e;" horiz-adv-x="464" 
d="M33 56q32 15 60.5 34t54.5 34t49 15q24 0 40 -8t31.5 -16t34.5 -8t28 10.5t9 24.5q0 23 -17 37.5t-41 19.5l6 15q54 -12 80 -38t26 -69q0 -47 -30.5 -82.5t-96.5 -35.5q-30 0 -54 8t-45 19t-44.5 19t-55.5 8q-27 0 -48.5 -8.5t-42.5 -34.5h-29l486 467
q-27 -12 -51.5 -28.5t-47.5 -31.5t-44 -25.5t-41 -10.5q-23 0 -39.5 8t-31 16t-34.5 8q-18 0 -27.5 -9t-9.5 -26q0 -21 15 -34t43 -23l-6 -15q-51 12 -78.5 37.5t-27.5 66.5q0 31 15.5 59.5t47.5 47t80 18.5q32 0 54.5 -8t43 -18t43.5 -18t53 -8q29 0 50 9.5t42 33.5h29z
M370 746q37 20 84 40t97 34l5 -14q-74 -32 -137 -85.5t-102 -110.5h-18q-13 69 -40 115.5t-79 80.5l4 14q66 -14 108 -32t78 -42z" />
    <glyph glyph-name="longs" unicode="&#x17f;" horiz-adv-x="341" 
d="M55 497l6 20h153l-6 -20h-153zM420 764q-16 0 -29 -5.5t-24 -14.5q-19 -17 -33 -56.5t-28 -93.5l-206 -768q-42 -1 -77 -4t-68 -10l187 696q22 85 50.5 140.5t67.5 87.5q29 23 64.5 34.5t76.5 11.5q63 0 97.5 -26t34.5 -70q0 -31 -25.5 -59t-66.5 -28q-29 0 -46.5 14
t-17.5 40q0 33 20.5 59t56.5 39q-5 5 -13.5 9t-20.5 4z" />
    <glyph glyph-name="uni018F" unicode="&#x18f;" horiz-adv-x="752" 
d="M282 -14q-70 0 -126.5 23t-90 70t-33.5 119q0 46 15 103h544l-3 -19h-380q-22 -71 -22 -128q0 -64 29.5 -105.5t87.5 -41.5q66 0 124 65.5t103 216.5l-1 7q15 43 22.5 95.5t7.5 96.5q0 73 -20.5 117.5t-57 65t-84.5 20.5q-35 0 -71 -11t-67 -33q-43 -26 -68.5 -68
t-50.5 -111h-23q18 58 28.5 101.5t17 77.5t9.5 61h23q-3 -22 -3 -35q0 -24 13 -24q9 0 23 8q21 11 51.5 26.5t75 27.5t107.5 12q82 0 144 -27t96.5 -84t34.5 -150q0 -91 -33.5 -176.5t-95.5 -153t-145 -107t-181 -39.5z" />
    <glyph glyph-name="florin" unicode="&#x192;" horiz-adv-x="527" 
d="M537 514l-5 -20h-443l5 20h443zM-46 -188q-48 0 -71.5 18t-20.5 46q2 29 23.5 48.5t52.5 19.5q29 0 45 -17.5t14 -40.5q-1 -14 -10 -30.5t-28 -28.5q40 5 64 28.5t39 79.5l155 580q20 75 49 127.5t65 81.5q35 28 75.5 43t89.5 15q62 0 90.5 -30.5t25.5 -72.5
q-2 -22 -13 -43.5t-29.5 -35t-42.5 -13.5q-29 0 -45 15.5t-14 45.5q2 33 22.5 60.5t54.5 42.5q-3 6 -12.5 10.5t-24.5 4.5q-19 0 -34.5 -10t-27.5 -26q-11 -16 -22 -41t-23.5 -66t-30.5 -108l-107 -400q-21 -80 -56 -141.5t-88 -103.5q-39 -31 -82.5 -44.5t-82.5 -13.5z" />
    <glyph glyph-name="Ohorn" unicode="&#x1a0;" horiz-adv-x="777" 
d="M586 685l-6 21q89 -10 144 -3.5t98 25.5l-2 -8q-22 12 -39.5 32.5t-17.5 49.5q0 30 19.5 49.5t49.5 19.5t50 -19.5t20 -51.5q0 -27 -16 -50t-47 -38q-35 -18 -99 -28.5t-154 1.5zM486 704q-53 0 -101.5 -42t-87 -113t-61 -158.5t-22.5 -177.5q0 -98 30.5 -153.5
t77.5 -55.5q53 0 101.5 42t87 113t61 158.5t22.5 177.5q0 98 -30.5 153.5t-77.5 55.5zM42 226q0 66 21 136t60 134t94.5 115t125.5 81t152 30q127 0 199.5 -62.5t72.5 -178.5q0 -66 -21 -135.5t-60.5 -133.5t-95.5 -115t-125.5 -81t-151.5 -30q-127 0 -199 62.5t-72 177.5z
" />
    <glyph glyph-name="ohorn" unicode="&#x1a1;" horiz-adv-x="529" 
d="M407 481l-4 19q38 1 65 6t49 14l-3 -9q-17 11 -31.5 30t-14.5 44q0 27 18.5 46t48.5 19q27 0 46 -15.5t19 -45.5q0 -26 -15 -46t-42 -34q-25 -11 -59.5 -18t-76.5 -10zM331 511q-23 0 -48.5 -27.5t-50 -73.5t-44 -103t-31 -117.5t-11.5 -115.5q0 -36 8.5 -52t25.5 -16
q23 0 48 26.5t49 71.5t43.5 101.5t31.5 117.5t12 118q0 42 -8.5 56t-24.5 14zM12 151q0 57 20 123t60.5 124.5t101 95.5t142.5 37q77 0 119.5 -42t42.5 -123q0 -57 -20 -123t-60.5 -124.5t-101 -95.5t-142.5 -37q-77 0 -119.5 42t-42.5 123z" />
    <glyph glyph-name="Uhorn" unicode="&#x1af;" horiz-adv-x="694" 
d="M287 -14q-63 0 -111.5 20.5t-73.5 58.5q-29 40 -26.5 96t21.5 127l83 314q14 54 2.5 69t-61.5 17l6 20q25 -1 70 -2t91 -1q47 0 87.5 1t71.5 2l-6 -20q-34 -1 -53 -7.5t-29.5 -24t-20.5 -54.5l-88 -331q-23 -87 -24.5 -142.5t23.5 -81.5t79 -26q66 0 114 34.5t80.5 93
t51.5 131.5l106 413l3 -8q-25 -1 -50.5 -0.5t-50.5 3.5l5 20q19 -1 36 -2.5t37 -1.5q34 0 63 4.5t56 22.5l-2 -7q-21 11 -39 32t-18 49q0 30 19.5 50t49.5 20q31 0 51 -19.5t20 -51.5q0 -29 -18 -51t-46 -37q-27 -15 -52 -22t-49 -9l8 7l-104 -401q-17 -64 -40 -118t-57 -94
q-36 -42 -89 -67.5t-126 -25.5z" />
    <glyph glyph-name="uhorn" unicode="&#x1b0;" horiz-adv-x="597" 
d="M496 500l-4 19q38 5 61.5 10.5t44.5 12.5l-3 -8q-17 10 -31.5 29t-14.5 45q0 27 18.5 46t48.5 19q27 0 46 -16t19 -46q0 -26 -15 -46t-42 -33q-23 -11 -55.5 -18.5t-72.5 -13.5zM393 351q-37 -110 -71 -181.5t-66.5 -111t-66.5 -56t-72 -16.5q-63 0 -82 40t5 111l97 295
q10 29 4.5 39.5t-17.5 10.5q-13 0 -29 -14.5t-34 -64.5l-18 -48h-19l25 73q22 63 60 83t74 20q45 0 67 -19.5t24 -55t-14 -84.5l-90 -270q-22 -66 10 -66q24 0 55 38.5t64.5 104t64.5 148.5t54 172zM442 85q-7 -25 -6 -37.5t17 -12.5q18 0 33.5 17.5t30.5 61.5l19 51h19
l-27 -76q-20 -59 -57 -81t-77 -22q-27 0 -45.5 9t-28.5 25q-10 19 -8.5 45.5t9.5 60.5l101 391q41 1 77.5 4t67.5 10z" />
    <glyph glyph-name="uni01B7" unicode="&#x1b7;" horiz-adv-x="608" 
d="M665 708l-5 -20l-256 -334l-6 42q73 -30 113 -72t40 -109q0 -66 -41.5 -118t-113 -81.5t-160.5 -29.5q-67 0 -109.5 13t-63.5 23q-11 7 -20 11t-17 4q-10 0 -18 -11t-16 -33h-23q9 24 18 56t22.5 83.5t30.5 130.5h23q-16 -72 -6 -129t50 -89.5t110 -32.5q55 0 96.5 30.5
t65.5 78t24 99.5q0 69 -34 108.5t-101 55.5l5 20l217 281h-114q-50 0 -96.5 -18.5t-86 -63t-68.5 -123.5h-23q16 46 29.5 109.5t23.5 118.5q49 -2 111.5 -2.5t112.5 -0.5q67 0 143.5 0.5t142.5 2.5z" />
    <glyph glyph-name="uni01CD" unicode="&#x1cd;" horiz-adv-x="653" 
d="M60 143q-31 -43 -32 -69.5t22 -39t62 -14.5l-5 -20q-42 2 -72.5 2.5t-57.5 0.5q-23 0 -38 -0.5t-31 -2.5l4 20q25 7 50 29.5t63 76.5l417 587q13 -1 26.5 -1t24.5 1l40 -629q3 -36 18.5 -49.5t30.5 -14.5l-4 -20q-25 2 -66.5 2.5t-78.5 0.5q-45 0 -85 -0.5t-65 -2.5l4 20
q48 2 68.5 17.5t17.5 66.5l-24 460l34 36zM153 288h292l-8 -20h-302zM532 878q43 16 100 32t117 27l5 -14q-84 -25 -156 -67.5t-115 -87.5h-18q-21 53 -52 90.5t-87 64.5l4 14q72 -12 116.5 -26.5t85.5 -32.5z" />
    <glyph glyph-name="uni01CE" unicode="&#x1ce;" horiz-adv-x="558" 
d="M175 40q16 0 35 17t39 49.5t39 79.5t35 109l-22 -109q-38 -112 -86 -156t-104 -44t-84 33t-28 90q0 54 18.5 113t50 114t71 99t84 70t87.5 26q33 0 51 -26t11 -81l-11 -6q5 36 -3.5 56t-28.5 20q-26 0 -57 -35.5t-59.5 -93t-47 -127t-18.5 -136.5q0 -34 7 -48t21 -14z
M387 516q43 1 78 4.5t67 10.5l-131 -446q-3 -13 -4.5 -24.5t3 -18.5t15.5 -7q13 0 29 15.5t33 63.5l18 48h19l-25 -73q-22 -61 -59.5 -82t-72.5 -21q-52 0 -74 31q-15 22 -13.5 54.5t13.5 74.5zM428 746q37 20 84 40t97 34l5 -14q-74 -32 -137 -85.5t-102 -110.5h-18
q-13 69 -40 115.5t-79 80.5l4 14q66 -14 108 -32t78 -42z" />
    <glyph glyph-name="uni01D3" unicode="&#x1d3;" horiz-adv-x="694" 
d="M643 544q15 55 15.5 84.5t-17 42.5t-58.5 17l5 20q19 -1 49.5 -2t57.5 -1q24 0 48 1t40 2l-5 -20q-33 -4 -52.5 -16.5t-32 -39.5t-25.5 -76l-68 -265q-36 -138 -98 -212q-36 -42 -89.5 -67.5t-115.5 -25.5q-75 0 -123 21t-72 58q-27 39 -26.5 92t21.5 131l83 314
q14 55 2.5 69.5t-61.5 16.5l6 20q25 -1 70 -2t95 -1q44 0 84 1t71 2l-6 -20q-34 -1 -53 -7.5t-29.5 -24t-20.5 -54.5l-88 -331q-22 -82 -23.5 -137.5t20 -84t69.5 -28.5q75 0 125 33.5t82 92.5t51 133zM553 878q43 16 100 32t117 27l5 -14q-84 -25 -156 -67.5t-115 -87.5
h-18q-21 53 -52 90.5t-87 64.5l4 14q72 -12 116.5 -26.5t85.5 -32.5z" />
    <glyph glyph-name="uni01D4" unicode="&#x1d4;" horiz-adv-x="597" 
d="M393 351q-37 -110 -71 -181.5t-66.5 -111t-66.5 -56t-72 -16.5q-63 0 -82 40t5 111l97 295q10 29 4.5 39.5t-17.5 10.5q-13 0 -29 -14.5t-34 -64.5l-18 -48h-19l25 73q22 63 60 83t74 20q45 0 67 -19.5t24 -55t-14 -84.5l-90 -270q-22 -66 10 -66q24 0 55 38.5t64.5 104
t64.5 148.5t54 172zM442 85q-7 -25 -6 -37.5t17 -12.5q18 0 33.5 17.5t30.5 61.5l19 51h19l-27 -76q-20 -59 -57 -81t-77 -22q-27 0 -45.5 9t-28.5 25q-10 19 -8.5 45.5t9.5 60.5l101 391q41 1 77.5 4t67.5 10zM410 746q37 20 84 40t97 34l5 -14q-74 -32 -137 -85.5
t-102 -110.5h-18q-13 69 -40 115.5t-79 80.5l4 14q66 -14 108 -32t78 -42z" />
    <glyph glyph-name="uni01E4" unicode="&#x1e4;" horiz-adv-x="739" 
d="M313 -14q-130 0 -202.5 60t-72.5 169q0 68 22.5 139t64 137t101 118t133 82.5t159.5 30.5q65 0 100.5 -19t63.5 -46q15 -15 28 -5t29 56h22q-15 -39 -31 -94.5t-33 -135.5h-22q2 20 3.5 38.5t1.5 36.5q0 21 -2.5 38.5t-11.5 34.5q-20 38 -59.5 58t-94.5 20
q-62 0 -111.5 -35.5t-88 -94t-64 -128t-38.5 -139t-13 -125.5q0 -90 35.5 -133t107.5 -43q22 0 42.5 6t34.5 15q18 12 26 29t15 44l29 110q11 40 8.5 60t-22 27.5t-61.5 8.5l5 20q31 -1 80 -2t90 -1q44 0 81 1t60 2l-5 -20q-22 -1 -34.5 -7.5t-21 -24t-18.5 -54.5l-59 -220
h-20q2 26 -4.5 41.5t-23.5 15.5q-19 0 -40.5 -10.5t-43.5 -21.5q-38 -20 -73 -29.5t-72 -9.5zM376 174l4 20h341l-4 -20h-341z" />
    <glyph glyph-name="uni01E5" unicode="&#x1e5;" horiz-adv-x="472" 
d="M452 -73l-4 -20h-620l4 20h620zM223 226l46 5q-59 -26 -94 -45t-35 -35q0 -9 11.5 -15.5t33.5 -13.5l84 -28q29 -9 55 -22.5t42.5 -34t16.5 -51.5q0 -37 -24 -69t-66.5 -56.5t-97 -38t-116.5 -13.5q-51 0 -92 9.5t-65.5 26.5t-24.5 40q0 19 17 35t44 27.5t59 19t63 10.5
l4 -15q-34 -19 -48 -39t-14 -40q0 -28 21.5 -42.5t57.5 -14.5q37 0 77 14t67.5 38.5t27.5 53.5q0 18 -14 25t-38 14l-142 41q-25 7 -42.5 23.5t-17.5 41.5q0 28 23.5 51t69.5 46.5t111 51.5zM266 512q-23 0 -41 -21.5t-29.5 -55.5t-17 -72t-5.5 -71t8.5 -46t23.5 -13
q25 0 42.5 20.5t29 53t16.5 70t5 72.5q0 26 -6 44.5t-26 18.5zM284 530q65 0 108 -26.5t43 -86.5q0 -48 -30.5 -94.5t-85.5 -77t-131 -30.5q-64 0 -107 27t-43 85q0 33 15.5 68.5t46 66t76.5 49.5t108 19zM362 478l-19 7q15 39 48.5 64.5t72.5 25.5q31 0 48 -17t17 -47
q0 -28 -15 -43t-32 -15q-16 0 -30.5 12t-18.5 37t12 63l8 -5q-38 -14 -57 -32.5t-34 -49.5z" />
    <glyph glyph-name="Gcaron" unicode="&#x1e6;" horiz-adv-x="739" 
d="M340 6q22 0 42.5 6t34.5 15q18 12 26 28.5t15 44.5l23 88q11 41 8.5 61t-22 27t-61.5 8l5 20q31 -1 80 -2t90 -1q44 0 81 1t60 2l-5 -20q-22 -1 -34.5 -7t-21 -24t-18.5 -55l-53 -198h-20q2 26 -4.5 41.5t-23.5 15.5q-19 0 -40.5 -10.5t-43.5 -21.5q-38 -20 -73 -29.5
t-72 -9.5q-130 0 -202.5 60t-72.5 169q0 68 22.5 139t64 137t101 118t133 82.5t159.5 30.5q65 0 100.5 -19t63.5 -46q15 -15 28 -5t29 56h22q-15 -39 -31 -94.5t-33 -135.5h-22q2 20 3.5 38.5t1.5 36.5q0 21 -2.5 38.5t-11.5 34.5q-20 38 -59.5 58t-94.5 20
q-62 0 -111.5 -35.5t-88 -94t-64 -128t-38.5 -139t-13 -125.5q0 -90 35.5 -133t107.5 -43zM579 878q43 16 100 32t117 27l5 -14q-84 -25 -156 -67.5t-115 -87.5h-18q-21 53 -52 90.5t-87 64.5l4 14q72 -12 116.5 -26.5t85.5 -32.5z" />
    <glyph glyph-name="gcaron" unicode="&#x1e7;" horiz-adv-x="472" 
d="M223 226l46 5q-59 -26 -94 -45t-35 -35q0 -9 11.5 -15.5t33.5 -13.5l84 -28q29 -9 55 -22.5t42.5 -34t16.5 -51.5q0 -37 -24 -69t-66.5 -56.5t-97 -38t-116.5 -13.5q-51 0 -92 9.5t-65.5 26.5t-24.5 40q0 19 17 35t44 27.5t59 19t63 10.5l4 -15q-34 -19 -48 -39t-14 -40
q0 -28 21.5 -42.5t57.5 -14.5q37 0 77 14t67.5 38.5t27.5 53.5q0 18 -14 25t-38 14l-142 41q-25 7 -42.5 23.5t-17.5 41.5q0 28 23.5 51t69.5 46.5t111 51.5zM266 512q-23 0 -41 -21.5t-29.5 -55.5t-17 -72t-5.5 -71t8.5 -46t23.5 -13q25 0 42.5 20.5t29 53t16.5 70t5 72.5
q0 26 -6 44.5t-26 18.5zM284 530q65 0 108 -26.5t43 -86.5q0 -48 -30.5 -94.5t-85.5 -77t-131 -30.5q-64 0 -107 27t-43 85q0 33 15.5 68.5t46 66t76.5 49.5t108 19zM362 478l-19 7q15 39 48.5 64.5t72.5 25.5q31 0 48 -17t17 -47q0 -28 -15 -43t-32 -15q-16 0 -30.5 12
t-18.5 37t12 63l8 -5q-38 -14 -57 -32.5t-34 -49.5zM373 746q37 20 84 40t97 34l5 -14q-74 -32 -137 -85.5t-102 -110.5h-18q-13 69 -40 115.5t-79 80.5l4 14q66 -14 108 -32t78 -42z" />
    <glyph glyph-name="uni01E8" unicode="&#x1e8;" horiz-adv-x="740" 
d="M224 106q-14 -55 -3 -69.5t62 -16.5l-4 -20q-28 2 -70.5 2.5t-86.5 0.5q-50 0 -93 -0.5t-70 -2.5l5 20q33 2 51.5 8t29.5 24t20 54l132 496q14 55 2.5 69.5t-61.5 16.5l5 20q25 -1 69 -2t94 -1q44 0 85.5 1t72.5 2l-5 -20q-34 -1 -53 -7.5t-29.5 -24t-20.5 -54.5zM587 59
q20 0 33 15.5t23 44.5l17 51h20l-26 -77q-19 -56 -54.5 -81.5t-79.5 -25.5q-64 0 -93 34.5t-21 91.5l19 140q4 36 2 57.5t-10.5 34t-23.5 21.5l2 10q73 -4 114 -21t56 -53.5t8 -99.5l-11 -105q-2 -16 4 -26.5t21 -10.5zM407 360q-54 -14 -73.5 -11t-17.5 20q3 16 21 19.5
t70 -10.5v-18zM625 681q-22 -23 -35.5 -62t-26.5 -82.5t-32.5 -82t-51.5 -63t-85 -23.5l2 10q49 5 77.5 31t45.5 64t28.5 80.5t25 79.5t37.5 60q17 18 35.5 23.5t35.5 5.5q45 0 70 -25.5t24 -65.5q0 -33 -23 -65t-68 -32q-28 0 -47.5 17.5t-18.5 49.5q0 29 20 56.5t54 42.5
q-2 2 -6.5 2.5t-9.5 0.5q-19 0 -30.5 -5.5t-20.5 -16.5zM523 878q43 16 100 32t117 27l5 -14q-84 -25 -156 -67.5t-115 -87.5h-18q-21 53 -52 90.5t-87 64.5l4 14q72 -12 116.5 -26.5t85.5 -32.5z" />
    <glyph glyph-name="uni01E9" unicode="&#x1e9;" horiz-adv-x="552" 
d="M123 0h-141l198 667q10 34 -2 50t-61 16l6 21q71 1 127 11.5t106 29.5zM394 77q-5 -24 -1 -33t16 -9q13 0 28.5 15.5t32.5 63.5l18 48h19l-25 -73q-14 -41 -37.5 -63.5t-51 -31t-55.5 -8.5q-49 0 -70 29.5t-9 85.5l17 77q13 54 -5.5 78t-82.5 30v4q44 3 87.5 -0.5
t77 -17.5t50 -43.5t6.5 -77.5zM440 511q-13 0 -23 -4t-19 -11q-18 -14 -29 -40t-22.5 -55.5t-28 -55.5t-44.5 -42.5t-74 -15.5l-10 -1l2 11q45 3 71 20.5t41.5 42.5t26 53t21.5 53.5t31 41.5q16 13 32.5 18t29.5 5q49 0 71.5 -27.5t21.5 -64.5t-24 -61.5t-60 -24.5
q-32 0 -48.5 17.5t-15.5 40.5q0 31 20 55t46 37q-3 4 -7 6t-9 2zM490 1001q37 20 84 40t97 34l5 -14q-74 -32 -137 -85.5t-102 -110.5h-18q-13 69 -40 115.5t-79 80.5l4 14q66 -14 108 -32t78 -42z" />
    </font>
</defs>
</svg>
