<?xml version="1.0" standalone="no"?>
<!DOCTYPE svg PUBLIC "-//W3C//DTD SVG 1.1//EN" "http://www.w3.org/Graphics/SVG/1.1/DTD/svg11.dtd" >
<svg xmlns="http://www.w3.org/2000/svg" xmlns:xlink="http://www.w3.org/1999/xlink" version="1.1">
<metadata>
Created by FontForge 20170731 at Tue Mar 19 18:39:57 2019
 By Aleksey,,,
Copyright 2017 The Playfair Display Project Authors (https://github.com/clauseggers/Playfair-Display), with Reserved Font Name "Playfair Display".
</metadata>
<defs>
<font id="PlayfairDisplay-BlackItalic" horiz-adv-x="0" >
  <font-face 
    font-family="Playfair Display Black"
    font-weight="900"
    font-style="italic"
    font-stretch="normal"
    units-per-em="1000"
    panose-1="0 0 0 0 0 0 0 0 0 0"
    ascent="800"
    descent="-200"
    x-height="528"
    cap-height="708"
    bbox="-370 -251 1308 1201"
    underline-thickness="20"
    underline-position="-130"
    slope="-14"
    unicode-range="U+000D-FB02"
  />
<missing-glyph horiz-adv-x="562" 
d="M60 772h442v-772h-442v772zM96 30h370v712h-370v-712z" />
    <glyph glyph-name="IJ" unicode="IJ" horiz-adv-x="878" 
d="M858 366l-1.5 -10l-1.5 -10h-431l1.5 10l1.5 10h431zM324 462q62 0 97 9.5t69 25.5l7 -18q-34 -16 -71.5 -27.5t-103.5 -11.5q-67 0 -118 17.5t-80 53t-29 88.5q0 62 47.5 101t144.5 39q67 0 115 -14.5t88.5 -34t86 -34t107.5 -14.5q44 0 104.5 8t109.5 27q21 32 41 49
t35 4q12 -10 -1 -27t-66 -37q-63 -57 -99 -150t-66 -209l-62 -242q-17 -68 -56.5 -126t-107.5 -92.5t-173 -34.5q-68 0 -116.5 19.5t-48.5 69.5q0 38 26.5 62.5t77.5 24.5q42 0 71.5 -18t29.5 -55q0 -28 -16.5 -49t-48.5 -35q8 -1 13 -1.5t10 -0.5q23 0 39.5 11t29.5 34
t25.5 59.5t26.5 86.5l69 242q22 76 54 132.5t74.5 100t95 80.5t113.5 75q-56 -13 -97 -31.5t-76.5 -35.5t-75 -28.5t-92.5 -11.5q-37 0 -70.5 7t-66 16t-65 16t-67.5 7q-34 0 -53 -12t-19 -39q0 -22 14.5 -39t45 -27t78.5 -10zM217 460h203l-111 -354q-17 -54 -4.5 -69
t63.5 -17l-4 -20q-32 2 -83 2.5t-104 0.5q-54 0 -101 -0.5t-76 -2.5l5 20q33 2 50.5 8t28.5 24t22 54z" />
    <glyph glyph-name="ij" unicode="ij" horiz-adv-x="645" 
d="M284 92q22 49 31 108t17 119t28 111q23 58 68 80.5t93 22.5q51 0 73 -21.5t24.5 -54t-6.5 -64.5l-76 -278q-18 -67 -35.5 -111t-38 -73t-47.5 -52q-52 -43 -105.5 -55t-92.5 -12q-66 0 -96.5 19t-30.5 53q0 35 25.5 58t62.5 23q35 0 55.5 -20.5t20.5 -46.5q0 -18 -11 -38
t-34 -33q38 5 60.5 28.5t38.5 79.5l140 499q6 21 1.5 31.5t-14.5 10.5q-20 0 -35.5 -19t-28.5 -53q-15 -45 -22 -102t-17 -116t-34 -112q-25 -54 -64.5 -71t-85.5 -17q-82 0 -112 42t-1 130l92 276q8 22 5 32t-14 10q-15 0 -28 -13.5t-27 -49.5l-23 -61h-19l28 78
q20 56 58.5 79.5t90.5 23.5q51 0 75 -22t28 -54t-7 -64l-104 -308q-7 -23 -2 -37.5t24 -14.5q20 0 39.5 15.5t32.5 43.5zM168 676q0 54 35 80t87 26q44 0 66.5 -17t22.5 -51q0 -47 -35.5 -75.5t-87.5 -28.5q-43 0 -65.5 17t-22.5 49zM492 676q0 54 35 80t87 26
q44 0 66.5 -17t22.5 -51q0 -47 -35.5 -75.5t-87.5 -28.5q-43 0 -65.5 17t-22.5 49z" />
    <glyph glyph-name="fi" unicode="fi" horiz-adv-x="619" 
d="M47 498l6 20h434l-6 -20h-434zM616 751q-16 5 -31.5 9.5t-41.5 4.5q-41 0 -73.5 -7t-56.5 -23q-31 -19 -51 -54.5t-35 -89.5l-204 -765q-54 -1 -96.5 -4t-84.5 -10l186 692q23 84 60.5 139.5t93.5 86.5t117 41.5t139 10.5q29 0 58 -5.5t44 -22.5zM448 676q0 54 35 77.5
t87 23.5q44 0 66.5 -18t22.5 -45q0 -47 -35.5 -75.5t-87.5 -28.5q-43 0 -65.5 17t-22.5 49zM475 85q-7 -25 -2.5 -33.5t14.5 -8.5q9 0 23 10.5t30 52.5l21 56h19l-25 -73q-14 -41 -40 -63.5t-55 -31t-53 -8.5q-43 0 -68 20.5t-29.5 59.5t10.5 92l103 360q52 1 97 4.5
t84 10.5z" />
    <glyph glyph-name="fl" unicode="fl" horiz-adv-x="628" 
d="M481 85q-7 -24 0 -33t16 -9q5 0 20 9.5t31 53.5l21 56h19l-25 -73q-15 -43 -39.5 -65t-51.5 -30t-51 -8q-42 0 -69.5 19.5t-34.5 57.5t10 95l153 509q10 34 -2 50t-61 16l7 21q82 1 145.5 11.5t122.5 29.5zM47 498l6 20h334l-6 -20h-334zM428 733q-16 0 -28 -3t-22 -11
q-10 -9 -18.5 -24.5t-15.5 -40.5l-221 -828q-54 -1 -96.5 -4t-84.5 -10l186 692q19 71 46.5 120t68.5 79q35 26 82.5 38.5t108.5 12.5h28l-1 -21h-33z" />
    <glyph glyph-name="f_f" unicode="ff" horiz-adv-x="695" 
d="M42 499l6 20h365l-6 -20h-365zM139 -174q-54 -1 -96.5 -4t-84.5 -10l177 658q24 90 59.5 145t72.5 80q35 24 79 35.5t94 11.5q44 0 77 -13t50 -27l-10 -14q-11 9 -27 15.5t-45 6.5q-31 0 -58.5 -14t-51 -49.5t-41.5 -98.5zM387 499l6 20h355l-6 -20h-355zM780 762
q-14 0 -26 -3.5t-23 -12.5q-14 -12 -25.5 -35.5t-22.5 -63.5l-220 -821q-54 -1 -96.5 -4t-84.5 -10l186 692q23 88 54.5 145.5t74.5 88.5q32 23 69.5 33.5t81.5 10.5q74 0 115.5 -30t41.5 -82q0 -35 -29.5 -67.5t-78.5 -32.5q-37 0 -58.5 17.5t-21.5 50.5q0 38 23.5 70
t65.5 48q-7 3 -13 4.5t-13 1.5z" />
    <glyph glyph-name="f_f_i" unicode="ffi" horiz-adv-x="946" 
d="M42 498l6 20h365l-6 -20h-365zM139 -174q-54 -1 -96.5 -4t-84.5 -10l177 658q24 90 59.5 144.5t72.5 80.5q33 23 74.5 35t88.5 12q59 0 96.5 -16t58.5 -36l-9 -14q-14 14 -36.5 24t-55.5 10q-21 0 -39.5 -5t-35.5 -17q-22 -16 -41 -49.5t-34 -90.5zM374 498l6 20h434
l-6 -20h-434zM943 751q-16 5 -31.5 9.5t-41.5 4.5q-41 0 -73.5 -7t-56.5 -23q-31 -19 -51 -54.5t-35 -89.5l-204 -765q-54 -1 -96.5 -4t-84.5 -10l186 692q23 84 60.5 139.5t93.5 86.5t117 41.5t139 10.5q29 0 58 -5.5t44 -22.5zM775 676q0 54 35 77.5t87 23.5
q44 0 66.5 -18t22.5 -45q0 -47 -35.5 -75.5t-87.5 -28.5q-43 0 -65.5 17t-22.5 49zM802 85q-7 -25 -2.5 -33.5t14.5 -8.5q9 0 23 10.5t30 52.5l21 56h19l-25 -73q-14 -41 -40 -63.5t-55 -31t-53 -8.5q-43 0 -68 20.5t-29.5 59.5t10.5 92l103 360q52 1 97 4.5t84 10.5z" />
    <glyph glyph-name="f_f_l" unicode="ffl" horiz-adv-x="955" 
d="M42 498l6 20h365l-6 -20h-365zM139 -174q-54 -1 -96.5 -4t-84.5 -10l177 658q24 90 59.5 144.5t72.5 80.5q33 23 74.5 35t88.5 12q59 0 96.5 -16t58.5 -36l-9 -14q-14 14 -36.5 24t-55.5 10q-23 0 -43.5 -5.5t-38.5 -21.5q-20 -17 -37 -49.5t-31 -85.5zM808 85
q-7 -24 0 -33t16 -9q5 0 20 9.5t31 53.5l21 56h19l-25 -73q-15 -43 -39.5 -65t-51.5 -30t-51 -8q-42 0 -69.5 19.5t-34.5 57.5t10 95l153 509q10 34 -2 50t-61 16l7 21q82 1 145.5 11.5t122.5 29.5zM374 498l6 20h334l-6 -20h-334zM755 733q-16 0 -28 -3t-22 -11
q-10 -9 -18.5 -24.5t-15.5 -40.5l-221 -828q-54 -1 -96.5 -4t-84.5 -10l186 692q19 71 46.5 120t68.5 79q35 26 82.5 38.5t108.5 12.5h28l-1 -21h-33z" />
    <glyph glyph-name="T_h.liga" unicode="Th" horiz-adv-x="1197" 
d="M779 143q37 119 70.5 195t67 118.5t72 59.5t84.5 17q40 0 62 -19t26 -52.5t-11 -79.5l-99 -297q-9 -25 -3 -33.5t15 -8.5t23 10.5t30 52.5l21 56h19l-25 -73q-22 -63 -62.5 -83t-80.5 -20q-67 0 -93.5 42t2.5 130l86 259q6 18 8 30t-1 18t-11 6q-25 0 -61.5 -52t-77 -156
t-81.5 -260zM783 757q53 5 98.5 14.5t88.5 23.5l-212 -795h-18h-44.5h-52.5h-44h-18zM387 687l20 -1.5t49.5 -4t58.5 -5.5t49 -4.5l20 -1.5l-146 -554q-13 -52 2 -72t73 -24l-4 -20q-35 2 -91.5 2.5t-117.5 0.5q-58 0 -111 -0.5t-85 -2.5l4 20q42 2 66.5 10.5t38 29
t22.5 56.5zM803 680q-34 -15 -74.5 -20.5t-86.5 -5.5q-45 0 -108 7.5t-128 15t-115 7.5q-36 0 -65.5 -4t-48.5 -13q38 -5 63.5 -30.5t25.5 -66.5q0 -43 -28 -71.5t-69 -28.5q-43 0 -66.5 29.5t-23.5 67.5q0 27 15 58.5t58 52.5q24 12 49.5 17t48 6t36.5 1q65 0 130 -7
t125.5 -14t110.5 -7q53 0 84 6.5t63 19.5z" />
    <glyph glyph-name="f_b.liga" unicode="fb" horiz-adv-x="892" 
d="M47 498l6 20h334l-6 -20h-334zM438 733q-37 0 -58.5 -16t-35.5 -63l-221 -828q-54 -1 -96.5 -4t-84.5 -10l186 692q24 87 62.5 142t100 81.5t153.5 26.5zM659 466q-16 0 -33.5 -18t-34.5 -50t-32 -73t-26 -87l19 98q40 104 81.5 150.5t98.5 46.5q70 0 103.5 -42.5
t33.5 -120.5q0 -47 -14 -99.5t-41 -103t-66 -91.5t-89.5 -65.5t-112.5 -24.5q-28 0 -50.5 8t-35.5 19l7 13q8 -3 16 -5t18 -2q27 0 53.5 24.5t49.5 66t41 92.5t28 104.5t10 102.5q0 35 -6.5 46t-17.5 11zM470 7q-39 11 -84.5 1.5t-85.5 -24.5l-15 7q7 14 12.5 28.5t9.5 30.5
l174 617q7 34 -2.5 50t-43.5 16l7 21q76 1 136 11.5t115 29.5z" />
    <glyph glyph-name="f_f_b.liga" unicode="ffb" horiz-adv-x="1219" 
d="M42 498l6 20h365l-6 -20h-365zM139 -174q-54 -1 -96.5 -4t-84.5 -10l177 658q24 90 59.5 144.5t72.5 80.5q33 23 74.5 35t88.5 12q59 0 96.5 -16t58.5 -36l-9 -14q-14 14 -36.5 24t-55.5 10t-60.5 -13t-49.5 -48t-40 -101zM374 498l6 20h334l-6 -20h-334zM765 733
q-37 0 -58.5 -16t-35.5 -63l-221 -828q-54 -1 -96.5 -4t-84.5 -10l186 692q24 87 62.5 142t100 81.5t153.5 26.5zM986 466q-16 0 -33.5 -18t-34.5 -50t-32 -73t-26 -87l19 98q40 104 81.5 150.5t98.5 46.5q70 0 103.5 -42.5t33.5 -120.5q0 -47 -14 -99.5t-41 -103t-66 -91.5
t-89.5 -65.5t-112.5 -24.5q-28 0 -50.5 8t-35.5 19l7 13q8 -3 16 -5t18 -2q27 0 53.5 24.5t49.5 66t41 92.5t28 104.5t10 102.5q0 35 -6.5 46t-17.5 11zM797 7q-39 11 -84.5 1.5t-85.5 -24.5l-15 7q7 14 12.5 28.5t9.5 30.5l174 617q7 34 -2.5 50t-43.5 16l7 21
q76 1 136 11.5t115 29.5z" />
    <glyph glyph-name="f_f_h.liga" unicode="ffh" horiz-adv-x="1233" 
d="M42 498l6 20h365l-6 -20h-365zM139 -174q-54 -1 -96.5 -4t-84.5 -10l177 658q24 90 59.5 144.5t72.5 80.5q33 23 74.5 35t88.5 12q59 0 96.5 -16t58.5 -36l-9 -14q-14 14 -36.5 24t-55.5 10t-60.5 -13t-49.5 -48t-40 -101zM374 498l6 20h334l-6 -20h-334zM815 143
q37 119 70.5 195t67 118.5t72 59.5t84.5 17q40 0 62 -19t26 -52.5t-11 -79.5l-99 -297q-9 -25 -3 -33.5t15 -8.5t23 10.5t30 52.5l21 56h19l-25 -73q-22 -63 -62.5 -83t-80.5 -20q-67 0 -93.5 42t2.5 130l86 259q6 18 8 30t-1 18t-11 6q-19 0 -47.5 -41.5t-60 -110t-61 -151
t-51.5 -165.5zM794 0h-177l188 667q7 34 -1 50t-42 16l9 21q76 1 133.5 11.5t112.5 29.5zM765 733q-37 0 -59 -15.5t-35 -63.5l-221 -828q-54 -1 -96.5 -4t-84.5 -10l186 692q35 130 106 190t210 60z" />
    <glyph glyph-name="f_f_j.liga" unicode="ffj" horiz-adv-x="935" 
d="M42 498l6 20h365l-6 -20h-365zM139 -174q-54 -1 -96.5 -4t-84.5 -10l177 658q24 90 59.5 144.5t72.5 80.5q33 23 74.5 35t88.5 12q59 0 96.5 -16t58.5 -36l-9 -14q-14 14 -36.5 24t-55.5 10t-60.5 -13t-49.5 -48t-40 -101zM824 115q-18 -67 -35.5 -111t-37.5 -73t-48 -52
q-52 -43 -105.5 -55t-92.5 -12q-66 0 -96.5 19t-30.5 53q0 35 25.5 58t62.5 23q35 0 55.5 -20.5t20.5 -46.5q0 -18 -11 -38t-34 -33q38 5 60.5 28.5t38.5 79.5l163 583q52 1 97 4.5t84 10.5zM373 498l6 20h434l-6 -20h-434zM952 751q-16 5 -31.5 9.5t-41.5 4.5
q-66 0 -110.5 -18t-71.5 -56t-44 -100l-157 -591h-177l135 504q23 84 60.5 139.5t93.5 86.5q58 31 121.5 41.5t144.5 10.5q29 0 58 -5.5t44 -22.5zM784 676q0 54 35 77.5t87 23.5q44 0 66.5 -18t22.5 -45q0 -47 -35.5 -75.5t-87.5 -28.5q-43 0 -65.5 17t-22.5 49z" />
    <glyph glyph-name="f_f_k.liga" unicode="ffk" horiz-adv-x="1218" 
d="M42 498l6 20h365l-6 -20h-365zM139 -174q-54 -1 -96.5 -4t-84.5 -10l177 658q24 90 59.5 144.5t72.5 80.5q33 23 74.5 35t88.5 12q59 0 96.5 -16t58.5 -36l-9 -14q-14 14 -36.5 24t-55.5 10t-60.5 -13t-49.5 -48t-40 -101zM374 498l6 20h334l-6 -20h-334zM765 733
q-37 0 -59 -15.5t-35 -63.5l-221 -828q-54 -1 -96.5 -4t-84.5 -10l186 692q35 130 106 190t210 60zM794 0h-18h-44h-52.5h-44.5h-18l188 667q10 34 2 50t-42 16l6 21q55 1 95 5.5t76 13.5t75 22zM1073 85q-5 -25 -1 -33.5t13 -8.5t23 10.5t30 52.5l21 56h19l-25 -73
q-15 -42 -41.5 -64t-57.5 -30.5t-61 -8.5q-61 0 -83 34t-9 95l17 71q14 51 -1 72.5t-65 27.5v4q48 3 94 -0.5t81.5 -18.5t52 -46t5.5 -82zM1092 514q-14 0 -25 -4t-21 -12q-17 -14 -27 -40t-20 -55.5t-25 -56t-41 -43.5t-69 -16l-10 -1l2 11q42 3 66 20.5t38 43t23 54t19 54
t29 41.5q15 13 33 18t31 5q58 0 86.5 -34t28.5 -80q0 -49 -29.5 -75t-71.5 -26q-39 0 -60 20.5t-21 48.5q0 41 27.5 70t61.5 44q-4 6 -11 9.5t-14 3.5z" />
    <glyph glyph-name="f_h.liga" unicode="fh" horiz-adv-x="906" 
d="M47 498l6 20h334l-6 -20h-334zM488 143q37 119 70.5 195t67 118.5t72 59.5t84.5 17q40 0 62 -19t26 -52.5t-11 -79.5l-99 -297q-9 -25 -3 -33.5t15 -8.5t23 10.5t30 52.5l21 56h19l-25 -73q-22 -63 -62.5 -83t-80.5 -20q-67 0 -93.5 42t2.5 130l86 259q6 18 8 30t-1 18
t-11 6q-19 0 -47.5 -41.5t-60 -110t-61 -151t-51.5 -165.5zM467 0h-177l188 667q7 34 -1 50t-42 16l9 21q76 1 133.5 11.5t112.5 29.5zM438 733q-37 0 -59 -15.5t-35 -63.5l-221 -828q-54 -1 -96.5 -4t-84.5 -10l186 692q35 130 106 190t210 60z" />
    <glyph glyph-name="f_idieresis.liga" unicode="f&#xef;" horiz-adv-x="619" 
d="M47 498l6 20h434l-6 -20h-434zM481 741q-7 10 -21.5 20t-33.5 10q-30 0 -51 -7t-35 -20q-25 -22 -32.5 -56t-6.5 -70.5t4 -67t-1 -45.5l-181 -679q-54 -1 -96.5 -4t-84.5 -10l186 692q24 87 56 145t78 90q32 22 70.5 32.5t86.5 10.5q28 0 52 -9.5t34 -28.5zM475 85
q-7 -25 -2.5 -33.5t14.5 -8.5q9 0 23 10.5t30 52.5l21 56h19l-25 -73q-14 -41 -40 -63.5t-55 -31t-53 -8.5q-65 0 -87.5 46t0.5 126l103 360q52 1 97 4.5t84 10.5zM345 674q0 52 30.5 75t68.5 23q40 0 57.5 -21.5t17.5 -56.5q0 -52 -31.5 -74t-68.5 -22q-40 0 -57 21t-17 55
zM583 674q0 52 30.5 75t68.5 23q40 0 57.5 -21.5t17.5 -56.5q0 -52 -31.5 -74t-68.5 -22q-40 0 -57 21t-17 55z" />
    <glyph glyph-name="f_igrave.liga" unicode="f&#xec;" horiz-adv-x="619" 
d="M47 498l6 20h434l-6 -20h-434zM475 672q-23 22 -40.5 35t-34.5 13q-13 0 -24 -10.5t-21 -33.5t-21 -62l-211 -788q-54 -1 -96.5 -4t-84.5 -10l186 692q27 100 68 150t87.5 67.5t86.5 17.5q30 0 56 -12t49 -42v-13zM475 85q-7 -25 -2.5 -33.5t14.5 -8.5q9 0 23 10.5
t30 52.5l21 56h19l-25 -73q-14 -41 -40 -63.5t-55 -31t-53 -8.5q-65 0 -87.5 46t0.5 126l103 360q52 1 97 4.5t84 10.5zM545 599q-40 46 -70 72t-50.5 43.5t-33.5 39.5q-14 23 -9.5 49.5t26.5 40.5q26 17 54.5 7t41.5 -30q15 -22 19 -49t9.5 -66t24.5 -100z" />
    <glyph glyph-name="f_j.liga" unicode="fj" horiz-adv-x="609" 
d="M498 115q-18 -67 -35.5 -111t-37.5 -73t-48 -52q-52 -43 -105.5 -55t-92.5 -12q-66 0 -96.5 19t-30.5 53q0 35 25.5 58t62.5 23q35 0 55.5 -20.5t20.5 -46.5q0 -18 -11 -38t-34 -33q38 5 60.5 28.5t38.5 79.5l163 583q52 1 97 4.5t84 10.5zM47 498l6 20h434l-6 -20h-434z
M626 751q-16 5 -31.5 9.5t-41.5 4.5q-66 0 -110.5 -18t-71.5 -56t-44 -100l-157 -591h-177l135 504q23 84 60.5 139.5t93.5 86.5q58 31 121.5 41.5t144.5 10.5q29 0 58 -5.5t44 -22.5zM458 676q0 54 35 77.5t87 23.5q44 0 66.5 -18t22.5 -45q0 -47 -35.5 -75.5t-87.5 -28.5
q-43 0 -65.5 17t-22.5 49z" />
    <glyph glyph-name="f_k.liga" unicode="fk" horiz-adv-x="891" 
d="M47 498l6 20h334l-6 -20h-334zM438 733q-37 0 -59 -15.5t-35 -63.5l-221 -828q-54 -1 -96.5 -4t-84.5 -10l186 692q35 130 106 190t210 60zM467 0h-18h-44h-52.5h-44.5h-18l188 667q10 34 2 50t-42 16l6 21q55 1 95 5.5t76 13.5t75 22zM746 85q-5 -25 -1 -33.5t13 -8.5
t23 10.5t30 52.5l21 56h19l-25 -73q-15 -42 -41.5 -64t-57.5 -30.5t-61 -8.5q-61 0 -83 34t-9 95l17 71q14 51 -1 72.5t-65 27.5v4q48 3 94 -0.5t81.5 -18.5t52 -46t5.5 -82zM765 514q-14 0 -25 -4t-21 -12q-17 -14 -27 -40t-20 -55.5t-25 -56t-41 -43.5t-69 -16l-10 -1
l2 11q42 3 66 20.5t38 43t23 54t19 54t29 41.5q15 13 33 18t31 5q58 0 86.5 -34t28.5 -80q0 -49 -29.5 -75t-71.5 -26q-39 0 -60 20.5t-21 48.5q0 41 27.5 70t61.5 44q-4 6 -11 9.5t-14 3.5z" />
    <glyph glyph-name=".notdef" horiz-adv-x="562" 
d="M60 772h442v-772h-442v772zM96 30h370v712h-370v-712z" />
    <glyph glyph-name=".null" 
 />
    <glyph glyph-name="nonmarkingreturn" horiz-adv-x="333" 
 />
    <glyph glyph-name="CR" unicode="&#xd;" 
 />
    <glyph glyph-name="space" unicode=" " horiz-adv-x="257" 
 />
    <glyph glyph-name="exclam" unicode="!" horiz-adv-x="348" 
d="M136 199q14 60 15 117t-3 114.5t-4 117.5q0 38 7 79t23 76t43.5 57t69.5 22q39 0 61.5 -22.5t22.5 -69.5q0 -52 -25 -108t-62 -117t-73 -127.5t-57 -141.5zM36 52q0 47 32 76.5t80 29.5q38 0 58.5 -17t20.5 -51q0 -40 -33 -72t-80 -32q-38 0 -58 17t-20 49z" />
    <glyph glyph-name="quotedbl" unicode="&#x22;" horiz-adv-x="454" 
d="M303 673q0 -34 -22 -68t-50 -68t-47 -69h-14q-6 38 -14.5 64.5t-14.5 48t-6 43.5q0 41 28.5 73.5t74.5 32.5q29 0 46.5 -15t18.5 -42zM501 673q0 -34 -22 -68t-50 -68t-47 -69h-14q-6 38 -14.5 64.5t-14.5 48t-6 43.5q0 41 28.5 73.5t74.5 32.5q29 0 46.5 -15t18.5 -42z
" />
    <glyph glyph-name="numbersign" unicode="#" horiz-adv-x="616" 
d="M622 454l-8 -20h-501l8 20h501zM536 267l-10 -20h-500l9 20h501zM316 101h-24l232 501h24zM129 101h-24l232 501h24z" />
    <glyph glyph-name="dollar" unicode="$" horiz-adv-x="649" 
d="M437 840l-270 -972h-22l270 972h22zM521 840l-270 -972h-22l270 972h22zM400 699q-43 0 -75.5 -22.5t-32.5 -68.5q0 -37 29.5 -73.5t73.5 -73.5t87.5 -76.5t73 -83t29.5 -93.5q0 -67 -31 -110.5t-79 -68t-101.5 -34t-99.5 -9.5q-65 0 -109 11t-85 35q-37 23 -56 54
t-19 71q0 50 24 84.5t64 34.5q38 0 61.5 -27t23.5 -71t-19 -82t-33 -59q24 -15 56.5 -21.5t72.5 -6.5q82 0 109.5 27.5t27.5 70.5q0 35 -27.5 70t-67.5 71t-80.5 75.5t-68 83t-27.5 92.5q0 65 24.5 108.5t64.5 68.5t86 35.5t88 10.5q65 0 109.5 -11t84.5 -35
q38 -22 56.5 -53t18.5 -72q0 -50 -23.5 -84.5t-64.5 -34.5q-38 0 -61.5 27t-23.5 71t19.5 82t32.5 59q-24 15 -58 21.5t-74 6.5z" />
    <glyph glyph-name="percent" unicode="%" horiz-adv-x="816" 
d="M341 748q-25 0 -44 -24t-32 -61.5t-19.5 -77.5t-6.5 -72q0 -62 22 -62q25 0 44 24t32 61.5t19.5 78t6.5 72.5q0 61 -22 61zM112 562q0 48 30.5 93.5t84.5 75.5t122 30q66 0 103.5 -32.5t37.5 -91.5q0 -47 -30.5 -93t-83.5 -76t-122 -30q-66 0 -104 32.5t-38 91.5z
M599 296q-25 0 -44 -24t-32 -61.5t-19.5 -77.5t-6.5 -72q0 -62 22 -62q25 0 44 24t32 61.5t19.5 78t6.5 72.5q0 61 -22 61zM370 110q0 48 30.5 93.5t84.5 75.5t122 30q66 0 103.5 -32.5t37.5 -91.5q0 -47 -30.5 -93t-83.5 -76t-122 -30q-66 0 -104 32.5t-38 91.5zM847 824
l15 -13l-833 -866l-15 13z" />
    <glyph glyph-name="ampersand" unicode="&#x26;" horiz-adv-x="894" 
d="M580 209q-10 -25 -42 -51.5t-85 -26.5q-31 0 -60.5 12.5t-48.5 40t-19 71.5q0 62 44.5 109.5t136.5 75.5q44 14 88.5 27t88.5 26.5t88 26.5q28 9 59 20t53 30.5t22 53.5q0 39 -29 60t-70 21q-16 0 -27 -4q58 -22 58 -72q0 -40 -33.5 -61.5t-71.5 -21.5q-40 0 -65.5 22
t-25.5 56q0 31 19.5 52t50.5 32q22 9 46.5 11.5t40.5 2.5q60 0 101.5 -31.5t41.5 -114.5q0 -97 -61.5 -147.5t-173.5 -84.5q-37 -11 -74.5 -22.5t-75 -22.5t-75.5 -23q-30 -9 -49 -20t-28 -25t-9 -31q0 -28 20 -38t42 -10q29 0 50.5 10.5t35.5 25.5t20 28zM476 578
q21 0 35.5 13t14.5 32q0 17 -14.5 28t-40.5 11q-32 0 -62.5 -17t-50 -48t-19.5 -73q0 -7 1 -14.5t2 -15.5q18 3 36 4.5t27 1.5q36 0 36 -21q0 -11 -10 -16t-21 -5q-19 0 -38.5 8.5t-30.5 13.5q-43 -19 -73 -79.5t-30 -133.5q0 -62 24 -103.5t71 -62.5t115 -21
q62 0 122.5 18.5t100.5 59.5t40 108q0 38 -18 73t-67 55l11 11q46 -18 70.5 -57t24.5 -89q0 -46 -22.5 -94t-69 -88.5t-118.5 -65.5t-171 -25q-91 0 -165.5 24.5t-118.5 74.5t-44 126q0 68 36.5 124.5t105 96t163.5 56.5q-53 14 -76.5 41t-23.5 58q0 39 28.5 64.5t72.5 38
t92 12.5q68 0 98 -21.5t30 -54.5q0 -34 -24.5 -50t-47.5 -16z" />
    <glyph glyph-name="quotesingle" unicode="'" horiz-adv-x="256" 
d="M303 673q0 -34 -22 -68t-50 -68t-47 -69h-14q-6 38 -14.5 64.5t-14.5 48t-6 43.5q0 41 28.5 73.5t74.5 32.5q29 0 46.5 -15t18.5 -42z" />
    <glyph glyph-name="parenleft" unicode="(" horiz-adv-x="420" 
d="M263 -182q-69 57 -120.5 117t-80 130t-28.5 158q0 84 37 165.5t103.5 157.5t156.5 142t196 118l10 -13q-98 -74 -171.5 -162t-114 -199.5t-40.5 -254.5q0 -101 17.5 -180t52.5 -166z" />
    <glyph glyph-name="parenright" unicode=")" horiz-adv-x="421" 
d="M167 806q69 -57 120.5 -117t80 -130t28.5 -158q0 -84 -37 -165.5t-103.5 -157.5t-156.5 -142t-196 -118l-10 13q98 74 171.5 162t114 199.5t40.5 254.5q0 101 -17.5 180t-52.5 166z" />
    <glyph glyph-name="asterisk" unicode="*" horiz-adv-x="477" 
d="M298 518q35 56 61 92.5t33 64.5q8 30 -7 42t-36 12t-41.5 -12t-28.5 -42q-7 -28 1 -66t15 -91h3zM297 519q-26 47 -41 79.5t-36 46.5q-22 15 -43.5 6t-36.5 -28q-15 -18 -18.5 -39.5t18.5 -36.5q20 -14 60.5 -18t94.5 -13zM296 518q-61 -9 -101.5 -12.5t-69.5 -17.5
q-30 -15 -37 -36t0 -40q5 -18 22.5 -27.5t47.5 5.5q27 14 59.5 48t79.5 78zM295 517q-35 -55 -60.5 -91t-33.5 -65q-7 -30 7.5 -42t36.5 -12q20 0 41 12t28 42q8 29 0 66.5t-15 90.5zM453 413q15 18 19 39.5t-19 36.5q-20 14 -60.5 18t-94.5 13l-2 -3q26 -46 41 -79t36 -47
q23 -15 44 -6t36 28zM505 624q-5 18 -22.5 27.5t-47.5 -5.5q-27 -14 -59.5 -48t-79.5 -78l1 -3q62 10 102.5 13.5t68.5 17.5q30 15 37 36t0 40z" />
    <glyph glyph-name="plus" unicode="+" horiz-adv-x="569" 
d="M55 370h233l67 236h36l-67 -236h232l-9 -30h-232l-67 -235h-36l67 235h-233z" />
    <glyph glyph-name="comma" unicode="," horiz-adv-x="310" 
d="M192 76q0 -70 -40 -127t-110 -87l-5 18q41 17 74 53t36 84q-14 -15 -32 -23t-38 -8q-78 0 -78 66q0 31 14.5 55t40 37.5t57.5 13.5q38 0 59.5 -19t21.5 -63z" />
    <glyph glyph-name="hyphen" unicode="-" horiz-adv-x="507" 
d="M80 321h361l-27 -99h-361z" />
    <glyph glyph-name="period" unicode="." horiz-adv-x="302" 
d="M-1 52q0 47 32 76.5t80 29.5q38 0 58.5 -17t20.5 -51q0 -40 -33 -72t-80 -32q-38 0 -58 17t-20 49z" />
    <glyph glyph-name="slash" unicode="/" horiz-adv-x="456" 
d="M-47 -14l548 736h33l-548 -736h-33z" />
    <glyph glyph-name="zero" unicode="0" horiz-adv-x="659" 
d="M398 533q104 0 163.5 -50t59.5 -136q0 -67 -30 -131.5t-82.5 -116.5t-121 -82.5t-145.5 -30.5q-102 0 -162.5 50t-60.5 136q0 68 30 132t82.5 116t121 82.5t145.5 30.5zM384 515q-43 0 -77 -33.5t-58 -88.5t-36 -120t-12 -128q0 -74 16.5 -107.5t38.5 -33.5q43 0 77 34
t57.5 89t36 120t12.5 127q0 74 -16 107.5t-39 33.5z" />
    <glyph glyph-name="one" unicode="1" horiz-adv-x="391" 
d="M376 530l-159 -530h-177l124 415q-25 -7 -52.5 -13.5t-69.5 -15.5l3 21q120 26 190 59t121 64h20z" />
    <glyph glyph-name="two" unicode="2" horiz-adv-x="556" 
d="M328 533q83 0 130 -30t47 -79q0 -36 -24 -67.5t-62 -58.5t-82.5 -51.5t-86.5 -46.5t-73 -43q22 0 47.5 -7t55 -14t61.5 -7q41 0 69 12t28 36q0 26 -32 44l10 13q31 -17 43.5 -38.5t12.5 -50.5q0 -36 -18 -71t-56.5 -57.5t-101.5 -22.5q-50 0 -97.5 14t-105.5 16
q-40 2 -64.5 -4.5t-55.5 -19.5l5 21q21 18 63 49t91.5 71.5t95 87.5t75 96.5t29.5 98.5q0 41 -21 59t-55 18q-41 0 -81 -22t-65.5 -56.5t-25.5 -72.5q0 -24 13 -36t44 -12q29 0 49.5 10.5t43.5 30.5l12 -14q-28 -26 -57 -37t-54 -11t-50 13t-25 55q0 44 33 86.5t93.5 70
t141.5 27.5z" />
    <glyph glyph-name="three" unicode="3" horiz-adv-x="539" 
d="M314 533q85 0 134 -28t49 -73q0 -36 -23 -65.5t-60 -52.5t-80 -39t-84 -25q60 -1 107.5 -13.5t75 -40.5t27.5 -75q0 -49 -36 -91t-95.5 -75t-132 -56.5t-147.5 -36t-140 -13.5l5 18q58 4 121.5 23t118.5 53.5t89 84t34 115.5q0 40 -11.5 64.5t-33.5 26.5
q-16 -7 -30.5 -12t-27.5 -5q-8 0 -14 3t-3 12q3 14 22 17t45 1q46 21 77 58.5t31 92.5q0 42 -26 66t-75 24q-36 0 -68.5 -16.5t-53 -41.5t-20.5 -53q0 -24 13.5 -36t44.5 -12q34 0 62 15l11 -15q-21 -11 -41.5 -16t-38.5 -5q-25 0 -50 13t-25 55q0 37 33 72t89.5 58.5
t126.5 23.5z" />
    <glyph glyph-name="four" unicode="4" horiz-adv-x="549" 
d="M452 533l6 -22l-497 -447l-2 11h524l-6 -21h-539l6 21zM478 533l-181 -674h-177l130 480l202 194h26z" />
    <glyph glyph-name="five" unicode="5" horiz-adv-x="480" 
d="M436 538l12 -7q-26 -73 -65.5 -116.5t-91.5 -43.5q-23 0 -50 10t-52 19t-46 6l-80 -181q32 18 73.5 27t90.5 9q96 0 139.5 -32t43.5 -90q0 -54 -33 -98.5t-87.5 -79t-121 -58.5t-134.5 -36.5t-127 -14.5l5 18q51 0 105.5 18t101.5 52.5t76.5 84t29.5 112.5q0 44 -19 69
t-67 25q-14 0 -36 -4.5t-54 -22.5l-10 5l131 309q29 2 55 -4.5t53 -13.5t59 -7q33 0 57 9.5t42 35.5z" />
    <glyph glyph-name="six" unicode="6" horiz-adv-x="593" 
d="M560 722l6 -20q-63 -19 -127.5 -67t-117.5 -123.5t-85.5 -175.5t-32.5 -223q0 -64 10 -85.5t29 -21.5q28 0 52.5 30t42.5 76t28 96.5t10 90.5q0 47 -12 63.5t-27 16.5q-19 0 -39 -21t-34 -70l-17 5q14 53 37.5 85t54.5 46t69 14q65 0 108.5 -38t43.5 -114q0 -58 -27 -112
t-75 -96.5t-111 -67t-135 -24.5q-88 0 -138.5 44t-50.5 143q0 86 36 164t95 144t130 116.5t143.5 82.5t133.5 42z" />
    <glyph glyph-name="seven" unicode="7" horiz-adv-x="514" 
d="M205 524q45 0 83 -10.5t78.5 -21.5t91.5 -12q26 -1 50 5.5t43 32.5h29q-72 -79 -122 -137.5t-85 -111.5t-59.5 -113.5t-45.5 -143.5q-8 -32 -10.5 -44.5t-2.5 -17.5t-3 -17q-7 -34 -33.5 -57.5t-74.5 -23.5q-41 0 -58.5 17.5t-19 44.5t5.5 54q15 55 55 112t94 113
t113 109.5t113.5 101.5t93.5 88l7.5 1l7.5 1q-69 -41 -113 -72.5t-78.5 -48.5t-75.5 -17q-31 0 -53.5 8.5t-43 16.5t-46.5 8t-45 -12.5t-19 -41.5q0 -36 30 -58.5t79 -33.5l-5 -17q-66 14 -107 48t-41 98q0 37 16.5 72t53.5 57.5t97 22.5z" />
    <glyph glyph-name="eight" unicode="8" horiz-adv-x="595" 
d="M432 722q77 0 130.5 -26t53.5 -82q0 -36 -24 -68t-62.5 -59t-81.5 -49t-82 -38l-4 4q23 22 42 56.5t30 76.5t11 87q0 80 -42 80q-23 0 -45 -20.5t-35.5 -52.5t-13.5 -67q0 -47 22 -81t54 -62l64 -56t54 -62.5t22 -82.5q0 -50 -27 -93t-73 -74.5t-104.5 -49t-121.5 -17.5
q-56 0 -104 14t-77 43t-29 75q0 42 25 78.5t67 68t93.5 56.5t103.5 43l4 -4q-47 -36 -81 -106t-34 -153q0 -43 12.5 -70t46.5 -27q33 0 63.5 24t49.5 62.5t19 81.5q0 49 -21 84.5t-51.5 64.5l-61 58t-51.5 62.5t-21 79.5q0 61 39.5 106t103.5 70t137 25z" />
    <glyph glyph-name="nine" unicode="9" horiz-adv-x="582" 
d="M360 533q89 0 139 -44t50 -143q0 -83 -35 -158.5t-93 -140t-128 -114t-141 -81t-131 -40.5l-6 20q62 18 124 65.5t114 121.5t83.5 171.5t31.5 215.5q0 64 -9.5 85.5t-29.5 21.5q-28 0 -52.5 -30t-42.5 -76t-28 -96t-10 -91q0 -46 12 -63t27 -17q19 0 39.5 21t33.5 70
l17 -5q-14 -53 -37 -85t-54.5 -46t-69.5 -14q-64 0 -108 38t-44 114q0 59 27 112.5t75 96t111 67t135 24.5z" />
    <glyph glyph-name="colon" unicode=":" horiz-adv-x="333" 
d="M112 427q0 47 32 76.5t80 29.5q38 0 58.5 -17t20.5 -51q0 -40 -33 -72t-80 -32q-38 0 -58 17t-20 49zM12 52q0 47 32 76.5t80 29.5q38 0 58.5 -17t20.5 -51q0 -40 -33 -72t-80 -32q-38 0 -58 17t-20 49z" />
    <glyph glyph-name="semicolon" unicode=";" horiz-adv-x="338" 
d="M120 427q0 47 32 76.5t80 29.5q38 0 58.5 -17t20.5 -51q0 -40 -33 -72t-80 -32q-38 0 -58 17t-20 49zM199 76q0 -70 -40 -127t-110 -87l-5 18q41 17 74 53t36 84q-14 -15 -32 -23t-38 -8q-78 0 -78 66q0 31 14.5 55t40 37.5t57.5 13.5q38 0 59.5 -19t21.5 -63z" />
    <glyph glyph-name="less" unicode="&#x3c;" horiz-adv-x="588" 
d="M598 582l10 -29l-487 -202l331 -174l-16 -32l-390 210z" />
    <glyph glyph-name="equal" unicode="=" horiz-adv-x="641" 
d="M59 270l9 30h501l-9 -30h-501zM99 410l9 30h501l-9 -30h-501z" />
    <glyph glyph-name="greater" unicode="&#x3e;" horiz-adv-x="591" 
d="M55 155l-10 29l460 192l-370 198l16 29l429 -231z" />
    <glyph glyph-name="question" unicode="?" horiz-adv-x="518" 
d="M293 757q-13 0 -34.5 -3.5t-39.5 -14.5q37 2 68 -20t31 -58t-26.5 -62.5t-66.5 -26.5q-34 0 -62.5 22t-28.5 63q0 38 21.5 62.5t55 38t72 19t71.5 5.5q56 0 106 -14t82 -42t32 -72q0 -43 -45.5 -88.5t-142.5 -115.5q-67 -48 -101.5 -78t-46.5 -53t-12 -49q0 -25 16.5 -43
t49.5 -18q16 0 32.5 3.5t31.5 10.5q-22 8 -42 27.5t-20 53.5q0 35 23.5 58t61.5 23q29 0 51.5 -20.5t22.5 -50.5q0 -36 -20 -60.5t-51 -39t-65.5 -21t-64.5 -6.5q-73 0 -125 29.5t-52 92.5q0 38 20.5 69.5t54 60.5t72.5 61q71 57 110 94t39 84q0 35 -20 57t-58 22zM113 52
q0 47 32 76.5t80 29.5q38 0 58.5 -17t20.5 -51q0 -40 -33 -72t-80 -32q-38 0 -58 17t-20 49z" />
    <glyph glyph-name="at" unicode="@" horiz-adv-x="873" 
d="M603 63q17 0 52.5 17t73.5 52.5t64.5 91t26.5 132.5q0 87 -38 143.5t-106 83.5t-158 27q-114 0 -202 -39.5t-147.5 -104t-90 -143t-30.5 -156.5q0 -79 29 -135t78 -90t110.5 -50t127.5 -16q71 0 139 17t123 48l6 -13q-47 -30 -115.5 -49.5t-151.5 -19.5q-68 0 -133.5 16
t-118 51.5t-84 94t-31.5 144.5q0 82 31.5 164t93.5 149.5t154 108.5t212 41q98 0 170.5 -30t112.5 -90.5t40 -150.5q0 -84 -31.5 -146t-80.5 -103t-103 -61.5t-99 -20.5q-38 0 -57 13t-24 34t-1 45.5t11 48.5l90 297q37 0 77 3t74 11l-106 -357q-9 -31 -6 -44.5t18 -13.5z
M476 201q-18 -69 -44.5 -107t-58.5 -53t-67 -15q-47 0 -84 26.5t-37 96.5q0 50 20.5 106.5t57.5 107.5t86 83t106 32q53 0 66 -31t5 -82l-12 -9q3 13 3.5 31.5t-5.5 33t-24 14.5q-19 0 -43.5 -25t-48 -66.5t-39 -93t-15.5 -104.5q0 -31 7 -45.5t26 -14.5q30 0 53 34t44 98z
" />
    <glyph glyph-name="A" unicode="A" horiz-adv-x="669" 
d="M47 131q-27 -38 -24 -61.5t28.5 -35t63.5 -14.5l-4 -20q-52 2 -83 2.5t-59 0.5q-21 0 -35 -0.5t-30 -2.5l4 20q29 8 54 33t68 86l408 574q18 -2 38.5 -2t36.5 2l40 -629q3 -36 18.5 -49.5t30.5 -14.5l-4 -20q-29 2 -78 2.5t-91 0.5q-51 0 -97 -0.5t-73 -2.5l4 20
q48 2 68.5 17.5t17.5 66.5l-23 438l53 58zM149 288h292l-8 -20h-302z" />
    <glyph glyph-name="B" unicode="B" horiz-adv-x="710" 
d="M460 707q131 0 186.5 -36.5t55.5 -98.5q0 -53 -36 -98t-105.5 -73t-170.5 -31q127 2 196.5 -41t69.5 -109q0 -52 -24 -93t-69 -69.5t-110 -43t-147 -14.5q-27 0 -67 1.5t-110 1.5q-40 0 -92.5 -0.5t-84.5 -2.5l4 20q34 2 53 8t30 24t20 54l132 496q8 31 8.5 49.5t-14 27
t-53.5 9.5l5 20q21 -1 52 -1.5t64 -1t58 -0.5q54 0 86 1t63 1zM277 359l4 17h67q53 0 88 33t52.5 85.5t17.5 108.5q0 35 -10.5 60t-45.5 25q-21 0 -31.5 -14t-21.5 -57l-135 -511q-4 -17 -7 -36.5t5 -33t34 -13.5q44 0 77.5 32t53 82t19.5 103q0 47 -20 83t-76 36h-71z" />
    <glyph glyph-name="C" unicode="C" horiz-adv-x="708" 
d="M768 708q-15 -39 -31 -94.5t-33 -135.5h-22q9 50 9.5 90t-16.5 69q-19 33 -46 45t-64 12q-48 0 -92.5 -24.5t-81.5 -69t-65 -103.5t-43.5 -129t-15.5 -145q0 -104 35.5 -151.5t95.5 -47.5q33 0 68.5 15t61.5 43q27 29 46.5 64.5t43.5 93.5h22q-25 -91 -38.5 -146.5
t-20.5 -93.5h-22q3 21 3 34q0 20 -8 24.5t-25 -7.5q-40 -28 -90 -46.5t-110 -18.5q-153 0 -222.5 68t-69.5 188q0 72 24 141.5t69 130.5t108 108t140.5 73.5t165.5 26.5q60 0 93 -19.5t55 -45.5q13 -16 26.5 -3t28.5 54h21z" />
    <glyph glyph-name="D" unicode="D" horiz-adv-x="802" 
d="M791 457q0 -59 -17 -122.5t-54 -123t-96 -107.5t-143 -76t-196 -28q-25 0 -61 1.5t-97 1.5q-23 0 -55.5 -0.5t-63.5 -1t-51 -1.5l3 20q32 2 50.5 8t29.5 24t20 54l131 496q10 38 2 60.5t-60 25.5l3 20q21 -1 54 -2t70 -1h68q14 1 42 1.5t57.5 1t48.5 0.5q147 0 231 -62.5
t84 -188.5zM293 18q70 0 124 44.5t91.5 116t57 154.5t19.5 160q0 95 -30 146t-97 51q-22 0 -32 -6t-16 -24t-16 -56l-131 -500q-13 -51 -11 -68.5t41 -17.5z" />
    <glyph glyph-name="E" unicode="E" horiz-adv-x="637" 
d="M242 346l4 20h214l-4 -20h-214zM349 366q33 0 61 16t49.5 41.5t32.5 54.5h22q-13 -39 -19.5 -64.5t-14.5 -57.5q-5 -20 -9 -35.5t-7.5 -34.5t-9.5 -52h-22q0 23 -8.5 49t-29.5 44.5t-59 18.5zM618 528q1 59 -13 93.5t-41 49t-67 14.5h-3q-33 0 -51.5 -5.5t-28.5 -23
t-20 -54.5l-132 -496q-14 -55 -3 -69t60 -14h13q48 0 85 17t69.5 55.5t64.5 104.5h22q-5 -13 -10.5 -32t-10.5 -40q-5 -19 -13 -54.5t-13 -73.5q-51 2 -113.5 2.5t-112.5 0.5h-96t-127 -0.5t-125 -2.5l4 20q34 2 53 8t30 24t20 54l132 496q14 55 2.5 69.5t-61.5 16.5l5 20
q58 -1 124.5 -2t126.5 -1h96q46 0 103 0.5t104 2.5q-13 -35 -21.5 -59.5t-16.5 -58.5q-4 -18 -7.5 -34t-5.5 -28h-22z" />
    <glyph glyph-name="F" unicode="F" horiz-adv-x="603" 
d="M252 346l4 20h214l-4 -20h-214zM608 498q6 71 -8.5 112t-43.5 58t-69 17h-3q-29 0 -45.5 -5.5t-26 -23t-18.5 -54.5l-132 -496q-9 -36 -6 -54t23 -24t62 -8l-4 -20q-34 2 -88.5 2.5t-110.5 0.5q-57 0 -106.5 -0.5t-79.5 -2.5l4 20q34 2 53 8t30 24t20 54l132 496
q14 55 2.5 69.5t-61.5 16.5l5 20q58 -1 124.5 -2t126.5 -1h96q46 0 103 0.5t104 2.5q-13 -35 -21 -59.5t-17 -58.5q-7 -27 -13 -50t-10 -42h-22zM359 366q31 0 57.5 14t48.5 39t37 59h22q-13 -39 -19.5 -64.5t-14.5 -57.5q-7 -31 -14.5 -66.5t-16.5 -85.5h-22
q0 46 -10.5 77.5t-31 48t-50.5 16.5z" />
    <glyph glyph-name="G" unicode="G" horiz-adv-x="761" 
d="M356 6q13 0 27 3t25 11q15 11 22 28.5t16 51.5l23 88q11 41 8.5 61t-22 27t-61.5 8l5 20q34 -1 89.5 -2t100.5 -1q51 0 94.5 1t70.5 2l-5 -20q-22 -1 -34.5 -7t-21 -24t-18.5 -55l-53 -198h-20q1 32 -9 44.5t-30 12.5q-28 0 -58.5 -15.5t-56.5 -26.5q-37 -17 -67.5 -23
t-60.5 -6q-135 0 -212.5 60t-77.5 169q0 68 23.5 139t68 137t107 118t140.5 82.5t169 30.5q65 0 100.5 -19t63.5 -46q15 -15 28 -5t29 56h22q-15 -39 -31 -94.5t-33 -135.5h-22q2 20 3.5 38.5t1.5 36.5q0 21 -2.5 38t-11.5 35q-19 38 -57.5 58t-96.5 20t-105.5 -35.5
t-84 -94t-60.5 -128t-36.5 -139t-12.5 -125.5q0 -90 31 -133t92 -43z" />
    <glyph glyph-name="H" unicode="H" horiz-adv-x="846" 
d="M257 346l7 20h353l-8 -20h-352zM615 602q15 55 3 69.5t-62 16.5l5 20q30 -1 78.5 -2t97.5 -1q57 0 107.5 1t81.5 2l-5 -20q-34 -1 -53 -7.5t-29.5 -24t-20.5 -54.5l-132 -496q-14 -55 -3 -69.5t62 -16.5l-4 -20q-30 2 -80.5 2.5t-107.5 0.5q-49 0 -97.5 -0.5t-79.5 -2.5
l4 20q34 2 53 8t30 24t20 54zM262 106q-14 -55 -3 -69.5t62 -16.5l-4 -20q-31 2 -79 2.5t-98 0.5q-57 0 -106.5 -0.5t-80.5 -2.5l5 20q33 2 51.5 8t29.5 24t20 54l132 496q14 55 2.5 69.5t-61.5 16.5l5 20q29 -1 79.5 -2t107.5 -1q50 0 96.5 1t81.5 2l-5 -20
q-34 -1 -53 -7.5t-29.5 -24t-20.5 -54.5z" />
    <glyph glyph-name="I" unicode="I" horiz-adv-x="422" 
d="M262 106q-14 -55 -3 -69.5t62 -16.5l-4 -20q-32 2 -83 2.5t-104 0.5q-54 0 -101 -0.5t-76 -2.5l5 20q33 2 51.5 8t29.5 24t20 54l132 496q14 55 2.5 69.5t-61.5 16.5l5 20q28 -1 75.5 -2t101.5 -1q53 0 102 1t86 2l-5 -20q-34 -1 -53 -7.5t-29.5 -24t-20.5 -54.5z" />
    <glyph glyph-name="J" unicode="J" horiz-adv-x="715" 
d="M695 366l-3 -20h-431l3 20h431zM414 543q-39 0 -73 11.5t-64 23t-57 11.5q-23 0 -40 -12t-17 -39q0 -33 31.5 -54t106.5 -26l-1 -9l-1 -9q-98 6 -157.5 46t-59.5 113q0 62 39 101t120 39q53 0 91.5 -14.5t72 -34t72.5 -34t94 -14.5q33 0 80 8t84 27q21 32 41 49t35 4
q12 -10 -1 -27t-66 -37q-63 -57 -99 -150t-66 -209l-62 -242q-17 -68 -56.5 -126t-107.5 -92.5t-173 -34.5q-68 0 -116.5 19.5t-48.5 69.5q0 38 26.5 62.5t77.5 24.5q42 0 71.5 -18t29.5 -55q0 -28 -16.5 -49t-48.5 -35q8 -1 13 -1.5t10 -0.5q23 0 39.5 11t29.5 34
t25.5 59.5t26.5 86.5l69 242q29 102 76.5 169.5t113 118t147.5 100.5q-48 -13 -83 -31.5t-65.5 -35.5t-64 -28.5t-78.5 -11.5z" />
    <glyph glyph-name="K" unicode="K" horiz-adv-x="783" 
d="M262 106q-14 -55 -3 -69.5t62 -16.5l-4 -20q-31 2 -79 2.5t-98 0.5q-57 0 -106.5 -0.5t-80.5 -2.5l5 20q33 2 51.5 8t29.5 24t20 54l132 496q14 55 2.5 69.5t-61.5 16.5l5 20q29 -1 79.5 -2t107.5 -1q50 0 96.5 1t81.5 2l-5 -20q-34 -1 -53 -7.5t-29.5 -24t-20.5 -54.5z
M646 71q15 0 25.5 13t17.5 35l17 51h20l-26 -77q-19 -56 -58 -81.5t-84 -25.5q-75 0 -109.5 37.5t-24.5 95.5l28 158q5 25 4.5 42t-7.5 28t-22 18l2 10q97 -1 145 -22t61.5 -60t4.5 -95l-16 -100q-2 -12 5 -19.5t17 -7.5zM441 360q-53 -14 -72.5 -12t-15.5 21q4 17 21.5 20
t66.5 -11v-18zM639 677q-21 -25 -33.5 -64t-24 -81.5t-29 -80t-46.5 -61t-78 -22.5l2 10q45 5 71 30t41 62t25 78.5t22.5 78.5t34.5 62q17 20 38 26.5t41 6.5q51 0 84.5 -30.5t33.5 -81.5q0 -43 -29 -81.5t-84 -38.5q-32 0 -58.5 20.5t-26.5 62.5q0 39 27.5 74.5t75.5 52.5
q-4 2 -10.5 3.5t-15.5 1.5q-22 0 -36 -7t-25 -21z" />
    <glyph glyph-name="L" unicode="L" horiz-adv-x="617" 
d="M580 210q-6 -16 -12 -37t-12 -45q-5 -19 -13 -54.5t-13 -73.5q-51 2 -113.5 2.5t-112.5 0.5h-97t-129 -0.5t-126 -2.5l4 20q34 2 53 8t30 24t20 54l132 496q14 55 2.5 69.5t-61.5 16.5l5 20q29 -1 80.5 -2t108.5 -1q50 0 95 1t80 2l-5 -20q-34 -1 -53 -7.5t-29.5 -24
t-20.5 -54.5l-132 -496q-14 -55 -3 -69t60 -14h18q34 0 74.5 18t80 59t67.5 110h22z" />
    <glyph glyph-name="M" unicode="M" horiz-adv-x="949" 
d="M746 705h98q53 0 100.5 1t84.5 2l-5 -20q-34 -1 -53 -7.5t-29.5 -24t-20.5 -54.5l-132 -496q-14 -55 -2.5 -69.5t61.5 -16.5l-4 -20q-37 2 -84 2.5t-100 0.5q-54 0 -102.5 -0.5t-77.5 -2.5l4 20q35 2 53.5 8t29.5 24t20 54l145 539l-415 -650h-22l-89 584l-116 -442
q-7 -28 -6.5 -54.5t19.5 -43.5t68 -19l-4 -20q-18 2 -55.5 2.5t-63.5 0.5t-52 -0.5t-43 -2.5l4 20q52 2 76 38t35 79l124 465q14 55 2.5 69.5t-61.5 16.5l5 20q28 -1 73.5 -2t95.5 -1q25 0 49 1t43 2l58 -456z" />
    <glyph glyph-name="N" unicode="N" horiz-adv-x="861" 
d="M543 -5l-268 488l2 18t4 41.5t4 41.5l2 18q8 37 5.5 54.5t-20 24t-56.5 7.5l5 20q16 -1 39.5 -2t49.5 -1q47 0 81 3l224 -436l-5 -28t-12.5 -69t-15 -82.5t-12.5 -69.5l-5 -28h-22zM851 737q-25 0 -47 -16t-38 -39q-46 -68 -94 -239t-107 -448l-14 28q18 84 40.5 182.5
t47.5 193.5t52.5 172t56.5 119q19 27 45 45.5t63 18.5q53 0 85 -31t32 -76q0 -48 -32.5 -76.5t-79.5 -28.5q-40 0 -64.5 19.5t-24.5 54.5q0 45 30 75.5t74 37.5q-4 4 -10.5 6t-14.5 2zM37 -57q28 0 49 15.5t37 40.5q29 46 58.5 144t60 237t61.5 305l17 -21
q-20 -102 -42 -208t-45.5 -201t-47 -165.5t-46.5 -100.5q-18 -24 -42.5 -43.5t-64.5 -19.5q-53 0 -85 31t-32 76q0 48 33 76.5t79 28.5q41 0 65 -19.5t24 -54.5q0 -45 -30 -75t-74 -38q4 -4 10.5 -6t14.5 -2z" />
    <glyph glyph-name="O" unicode="O" horiz-adv-x="809" 
d="M502 704q-49 0 -94 -42t-80.5 -113t-56.5 -158.5t-21 -177.5q0 -98 25 -153.5t63 -55.5q49 0 94 42t80.5 113t56.5 158.5t21 177.5q0 98 -25 153.5t-63 55.5zM34 226q0 66 22 136t63 134t99.5 115t132.5 81t160 30q138 0 217 -62.5t79 -178.5q0 -66 -22 -135.5
t-63.5 -133.5t-100.5 -115t-132.5 -81t-159.5 -30q-138 0 -216.5 62.5t-78.5 177.5z" />
    <glyph glyph-name="P" unicode="P" horiz-adv-x="679" 
d="M248 284l5 20h45q61 0 102.5 27t66.5 69.5t36 91t11 91.5q0 50 -18 77.5t-59 27.5q-22 0 -26 -17t-18 -69l-132 -496q-7 -28 -6 -46.5t16.5 -28t48.5 -11.5l-4 -20q-34 2 -79 2.5t-95 0.5q-57 0 -108.5 -0.5t-81.5 -2.5l4 20q34 2 53 8t30 24t20 54l132 496q6 30 6.5 48
t-13.5 27t-52 11l5 20q29 -1 80.5 -2t102.5 -1q36 0 72.5 1t73.5 1q132 0 195.5 -37t63.5 -114q0 -78 -55 -139.5t-153.5 -97t-228.5 -35.5h-40z" />
    <glyph glyph-name="Q" unicode="Q" horiz-adv-x="865" 
d="M318 243q-68 0 -122.5 20.5t-86.5 60.5t-32 99q0 64 37 118.5t101 95t145.5 63t170.5 22.5q94 0 168 -25t116.5 -70t42.5 -105t-41 -127.5t-110.5 -135t-154.5 -129t-173.5 -109.5t-169 -75.5t-139.5 -27.5q-46 0 -75 20t-29 65q0 55 43.5 91.5t108.5 36.5
q53 0 104.5 -22.5t103 -55.5l103 -66t103.5 -55.5t104 -22.5q58 0 83.5 25.5t34.5 47.5q-34 -33 -85 -33q-40 0 -68.5 23t-28.5 66q0 44 31 72t80 28q44 0 74 -25t30 -76q0 -40 -20 -80t-58.5 -72.5t-92.5 -52.5t-123 -20q-74 0 -130 22t-99.5 54t-79.5 64.5t-71 54.5
t-74 22q-25 0 -37.5 -10t-12.5 -28q0 -25 22.5 -40.5t64.5 -15.5q34 0 81 13.5t97 34t93 42.5q66 34 120.5 81t94 106.5t61 130.5t21.5 153q0 100 -35 154t-102 54q-50 0 -90.5 -28t-69 -74.5t-43.5 -102.5t-15 -112q0 -49 18 -80t77 -31q39 0 72 14t57.5 38t36.5 54
q5 13 8 26.5t4 26.5q-11 -40 -41.5 -55t-56.5 -15q-40 0 -64 26.5t-24 66.5q0 49 33 81t79 32t71.5 -32.5t25.5 -86.5q0 -63 -34 -110t-94.5 -73t-138.5 -26z" />
    <glyph glyph-name="R" unicode="R" horiz-adv-x="742" 
d="M311 356l24 -2t23.5 -2t23.5 -2q69 -3 126 -14t88 -40t21 -87l-17 -104q-5 -33 3 -47.5t27 -14.5q21 0 36 16.5t26 47.5l5 14h23l-4 -13q-19 -63 -61 -92.5t-114 -29.5q-83 0 -117.5 35t-24.5 95l19 114q6 34 0 59t-31 39t-78 14zM291 343l5 16h25q46 0 92.5 24
t78.5 75.5t32 131.5q0 51 -18.5 74.5t-51.5 23.5q-20 0 -32 -10.5t-20 -41.5l-140 -530q-8 -30 -9.5 -48t13.5 -27t54 -11l-4 -20q-34 2 -79.5 2.5t-98.5 0.5t-104.5 -0.5t-81.5 -2.5l4 20q34 2 53 8t30 24t20 54l131 496q8 30 8.5 48t-14 27t-52.5 11l5 20q20 -1 50 -1.5
t62.5 -1t57.5 -0.5q53 0 87.5 1t65.5 1q136 0 200.5 -31t64.5 -107q0 -70 -49.5 -120t-138 -77t-206.5 -27z" />
    <glyph glyph-name="S" unicode="S" horiz-adv-x="609" 
d="M649 715q-10 -26 -27 -75.5t-32 -128.5h-20q6 29 6 55q0 61 -38 95t-106 34q-43 0 -75.5 -22t-32.5 -75q0 -41 22.5 -80t56 -77t66.5 -77.5t55.5 -83t22.5 -92.5q0 -55 -29 -93.5t-74 -62.5t-95 -35t-93 -11q-52 0 -85 5t-57 15.5t-52 25.5q-10 6 -19 10.5t-15 4.5
q-13 0 -21 -11t-22 -43h-20q14 32 30 84t38 156h20q-5 -15 -7.5 -37.5t-1.5 -40.5q3 -73 46 -109.5t117 -36.5q70 0 93.5 26.5t23.5 65.5q0 51 -20.5 93t-50 80.5t-59.5 76t-50.5 78.5t-20.5 90q0 53 24.5 91t64.5 63t86 37t88 12q71 0 113 -17.5t64 -28.5l18 -9t15 -5
q14 0 33 53h20z" />
    <glyph glyph-name="T" unicode="T" horiz-adv-x="695" 
d="M790 886q45 0 71.5 -26.5t26.5 -59.5q0 -37 -21.5 -64.5t-62.5 -44.5q-33 -13 -76.5 -20t-96.5 -7q-43 0 -104.5 5t-124.5 10t-112 5q-36 0 -65.5 -4t-48.5 -13q38 -5 63.5 -30.5t25.5 -66.5q0 -43 -28 -71.5t-69 -28.5q-43 0 -66.5 29.5t-23.5 67.5q0 27 15 58.5
t58 52.5q24 12 49.5 17t48 6t36.5 1q63 0 126 -4.5t122 -9t108 -4.5q35 0 58.5 3t42.5 7l-3 -9q-18 14 -33 40t-15 61q0 46 28 73t71 27zM406 687l20 -1.5t49.5 -3.5l59 -4t49.5 -3.5l20 -1.5l-147 -557q-14 -52 1.5 -72t73.5 -24l-4 -20q-35 2 -91.5 2.5t-117.5 0.5
q-58 0 -111 -0.5t-85 -2.5l4 20q42 2 66.5 10.5t38 29t22.5 56.5z" />
    <glyph glyph-name="U" unicode="U" horiz-adv-x="702" 
d="M651 512q18 67 21.5 102.5t-14 51.5t-63.5 22l6 20q20 -1 51.5 -2t59.5 -1q23 0 45.5 1t38.5 2l-6 -20q-32 -6 -51 -21t-32.5 -46.5t-28.5 -88.5l-62 -241q-36 -138 -98 -212q-36 -42 -89.5 -67.5t-115.5 -25.5q-91 0 -145 27t-77 68q-20 38 -20.5 87.5t18.5 119.5
l83 314q14 55 2.5 69.5t-61.5 16.5l6 20q29 -1 80.5 -2t108.5 -1q50 0 95 1t80 2l-6 -20q-34 -1 -53 -7.5t-29.5 -24t-20.5 -54.5l-88 -331q-24 -91 -24.5 -146t18.5 -79.5t52 -24.5q75 0 125 33.5t82 92.5t51 133z" />
    <glyph glyph-name="V" unicode="V" horiz-adv-x="680" 
d="M652 577q38 59 14 83t-82 28l5 20q10 -1 36.5 -1.5t57 -1t48.5 -0.5q21 0 40 1t35 2l-5 -20q-24 -7 -43.5 -18.5t-40.5 -35t-48 -65.5l-373 -574q-19 2 -37.5 2t-37.5 -2l-79 629q-4 36 -21 49.5t-31 14.5l5 20q29 -1 75.5 -2t92.5 -1q54 0 99.5 1t74.5 2l-5 -20
q-48 -2 -66.5 -17t-13.5 -67l48 -441l-45 -42z" />
    <glyph glyph-name="W" unicode="W" horiz-adv-x="1035" 
d="M609 514l-317 -519h-75l-79 629q-4 36 -21 49.5t-31 14.5l5 20q29 -1 75.5 -2t92.5 -1q45 0 82 1t62 2l-5 -20q-30 -2 -41.5 -17t-8.5 -67l46 -425l-44 -48l254 410zM1001 577q24 42 21 65t-26.5 33t-62.5 13l5 20q10 -1 36.5 -1.5t57 -1t48.5 -0.5q21 0 40 1t35 2
l-5 -20q-24 -7 -44.5 -18t-41.5 -34t-46 -67l-327 -574h-75l-79 629q-4 36 -17.5 49.5t-24.5 14.5l5 20q27 -1 71 -2t87 -1q54 0 99.5 1t74.5 2l-5 -20q-48 -2 -66.5 -17t-13.5 -67l46 -425l-46 -45z" />
    <glyph glyph-name="X" unicode="X" horiz-adv-x="769" 
d="M540 105q3 -19 13 -28.5t29 -9.5q20 0 34.5 12t24.5 40l17 51h20l-26 -77q-22 -59 -59.5 -83t-90.5 -24q-60 0 -95 18t-52 53t-24 85l-58 466q-3 22 -12.5 31t-27.5 9q-19 0 -34.5 -14t-26.5 -45l-17 -51h-20l26 77q22 59 63.5 83t99.5 24q53 0 85.5 -16.5t50.5 -51
t24 -88.5zM729 705q-32 0 -66 -25q-43 -36 -105 -138.5t-116 -263.5l11 76q22 65 54 130t68 118.5t68 83.5q45 36 91 36q50 0 79 -33.5t29 -82.5q0 -53 -32 -84.5t-77 -31.5q-37 0 -59.5 22t-22.5 62q0 45 29 79t75 44q-4 4 -10 6t-16 2zM68 3q18 0 34.5 7t33.5 18
q30 22 72 71t86.5 124t82.5 173l-15 -76q-23 -58 -57.5 -116.5t-72.5 -106.5t-75 -78q-45 -33 -94 -33t-78.5 33.5t-29.5 82.5q0 53 32 84.5t77 31.5q38 0 60 -22t22 -62q0 -45 -29 -78.5t-75 -44.5q4 -4 10 -6t16 -2z" />
    <glyph glyph-name="Y" unicode="Y" horiz-adv-x="776" 
d="M422 106q-13 -55 7.5 -69.5t71.5 -16.5l-5 -20q-21 1 -55.5 1.5t-74 1t-74.5 0.5q-54 0 -103 -0.5t-78 -2.5l5 20q34 2 53 8t30 24t20 54l69 274l85 -63l93 19l34 80zM732 705q-16 0 -30.5 -5t-33.5 -19q-25 -18 -62.5 -72t-75.5 -140t-67 -199l-188 -5q-4 47 -11 98
t-17.5 99.5t-24 88t-29.5 62.5t-36 23q-19 0 -29.5 -15.5t-15.5 -31.5l-17 -51h-11h-11l21 64q23 69 70 94.5t99 25.5q77 0 117 -40.5t58.5 -119.5t31.5 -193q31 95 69 169.5t79 123.5q23 27 52.5 43.5t66.5 16.5q53 0 85 -31t32 -76q0 -48 -32.5 -76.5t-79.5 -28.5
q-40 0 -64.5 19.5t-24.5 54.5q0 45 30 75.5t74 37.5q-4 4 -10.5 6t-14.5 2z" />
    <glyph glyph-name="Z" unicode="Z" horiz-adv-x="662" 
d="M164 346l7 20h353l-8 -20h-352zM452 216l2 9.5l2 9.5q36 -5 69.5 -18.5t55 -37t21.5 -60.5q0 -58 -43.5 -95.5t-117.5 -37.5q-47 0 -83 11.5t-68 27t-67 27t-81 11.5q-21 0 -39.5 -4t-38.5 -11q-22 -32 -48 -49t-40 -4q-12 11 2 33t67 42l580 570q-51 -52 -107.5 -83
t-115.5 -31q-51 0 -87.5 9t-63.5 18t-52 9q-13 0 -21 -5t-8 -18q0 -14 16 -26.5t57 -20.5l-2.5 -9.5l-2.5 -9.5q-35 6 -69 19t-55.5 37t-21.5 60q0 58 43.5 95.5t117.5 37.5q47 0 83 -11.5t68 -27t67 -27t81 -11.5q21 0 39.5 4t38.5 11q23 32 48 49t40 4q12 -10 -2 -32.5
t-67 -42.5l-580 -570q51 52 108 83t116 31q52 0 88 -9t63 -18t52 -9q13 0 21 5t8 18q0 14 -16 26.5t-57 20.5z" />
    <glyph glyph-name="bracketleft" unicode="[" horiz-adv-x="404" 
d="M-21 -181l237 953h270l-4 -19h-81l-229 -915h81l-4 -19h-270z" />
    <glyph glyph-name="backslash" unicode="\" horiz-adv-x="490" 
d="M162 722l228 -736h-33l-226 736h31z" />
    <glyph glyph-name="bracketright" unicode="]" horiz-adv-x="405" 
d="M426 772l-237 -953h-270l4 19h81l229 915h-81l4 19h270z" />
    <glyph glyph-name="asciicircum" unicode="^" horiz-adv-x="523" 
d="M250 362q-37 -18 -88 -33.5t-102 -26.5l-4 14q80 35 148.5 92.5t109.5 119.5h18q10 -62 47 -119t103 -92l-6 -15q-58 7 -116 22.5t-110 37.5z" />
    <glyph glyph-name="underscore" unicode="_" horiz-adv-x="667" 
d="M-16 -2h515l-42 -139h-515z" />
    <glyph glyph-name="grave" unicode="`" horiz-adv-x="326" 
d="M350 599q-40 46 -70 72t-50.5 43.5t-33.5 39.5q-14 23 -9.5 49.5t26.5 40.5q26 17 54.5 7t41.5 -30q15 -22 19 -49t9.5 -66t24.5 -100z" />
    <glyph glyph-name="a" unicode="a" horiz-adv-x="582" 
d="M204 54q10 0 21 8t23 27.5t26 54.5t30 90l-26 -109q-25 -80 -66.5 -109.5t-94.5 -29.5q-63 0 -93.5 32.5t-30.5 92.5q0 58 19.5 118t53 114.5t75 97t86.5 67.5t87 25q32 0 49.5 -20t12.5 -71l-11 -6q5 25 0 36.5t-17 11.5q-21 0 -49.5 -33t-55 -87.5t-44.5 -121.5
t-18 -135q0 -28 5 -40.5t18 -12.5zM389 518q55 1 97.5 4.5t83.5 10.5l-135 -448q-5 -16 -4.5 -25.5t5 -13t11.5 -3.5q9 0 23 10.5t30 52.5l21 56h19l-25 -73q-22 -63 -62.5 -83t-80.5 -20q-61 0 -87 35q-15 21 -16.5 55t12.5 82z" />
    <glyph glyph-name="b" unicode="b" horiz-adv-x="575" 
d="M342 466q-16 0 -33.5 -18t-34.5 -50t-32 -73t-26 -87l19 98q40 104 81.5 150.5t98.5 46.5q70 0 103.5 -42.5t33.5 -120.5q0 -47 -14 -99.5t-41 -103t-66 -91.5t-89.5 -65.5t-112.5 -24.5q-28 0 -50.5 8t-35.5 19l7 13q8 -3 16 -5t18 -2q27 0 53.5 24.5t49.5 66t41 92.5
t28 104.5t10 102.5q0 35 -6 46t-18 11zM153 7q-39 11 -84.5 1.5t-85.5 -24.5l-15 7q7 14 12.5 28.5t9.5 30.5l184 617q10 34 -2 50t-61 16l7 21q82 1 145.5 11.5t122.5 29.5z" />
    <glyph glyph-name="c" unicode="c" horiz-adv-x="484" 
d="M382 513q-37 0 -72 -31.5t-62 -84t-43 -117t-16 -130.5q0 -54 22 -78t58 -24q29 0 59 17t61 63l20 -8q-21 -33 -52.5 -64t-75 -50.5t-101.5 -19.5q-76 0 -127 38t-51 120q0 65 25.5 133t73.5 126t116 94t152 36q62 0 96 -31t34 -73q0 -32 -16 -62t-42.5 -49.5
t-58.5 -19.5q-26 0 -47 18t-21 52q0 49 31 85t71 48q-7 6 -15 9t-19 3z" />
    <glyph glyph-name="d" unicode="d" horiz-adv-x="603" 
d="M460 85q-9 -25 -3 -33.5t15 -8.5t23 10.5t30 52.5l21 56h19l-25 -73q-22 -63 -62.5 -83t-80.5 -20q-64 0 -90 38q-14 21 -14.5 54.5t13.5 79.5l135 509q10 34 -2 50t-61 16l7 21q82 1 147 11.5t124 29.5zM210 48q12 0 29.5 17t38.5 55.5t43 101.5t43 154l-15 -108
q-29 -92 -57.5 -155t-66.5 -95t-97 -32q-52 0 -90.5 34t-38.5 112q0 44 14 97.5t41.5 106.5t68.5 98t94.5 72t120.5 27q39 0 51.5 -12.5t15.5 -32.5l-8 -20q-4 20 -10 31t-26 11q-22 0 -52 -33.5t-58 -90.5t-46.5 -129.5t-18.5 -151.5q0 -28 5 -42.5t19 -14.5z" />
    <glyph glyph-name="e" unicode="e" horiz-adv-x="496" 
d="M162 210q32 15 63 36t57 46q40 39 65.5 89t25.5 108q0 14 -4 19.5t-12 5.5q-25 0 -55 -34t-57 -88t-44 -117t-17 -120q0 -58 23 -77.5t60 -19.5q20 0 60 15t80 55l16 -8q-22 -33 -58 -64t-85 -50.5t-110 -19.5q-70 0 -121.5 35.5t-51.5 105.5q0 59 18.5 117t52.5 110
t81.5 92.5t105.5 63.5t124 23q53 0 88.5 -21.5t35.5 -66.5q0 -38 -20 -71.5t-55 -61t-79 -49.5t-92.5 -38t-95.5 -25z" />
    <glyph glyph-name="f" unicode="f" horiz-adv-x="355" 
d="M47 499l6 20h355l-6 -20h-355zM440 762q-14 0 -26 -3.5t-23 -12.5q-14 -12 -25.5 -35.5t-22.5 -63.5l-220 -821q-54 -1 -96.5 -4t-84.5 -10l186 692q23 88 54.5 145.5t74.5 88.5q32 23 69.5 33.5t81.5 10.5q74 0 115.5 -30t41.5 -82q0 -35 -29.5 -67.5t-78.5 -32.5
q-37 0 -58.5 17.5t-21.5 50.5q0 38 23.5 70t65.5 48q-7 3 -13 4.5t-13 1.5z" />
    <glyph glyph-name="g" unicode="g" horiz-adv-x="487" 
d="M228 227l60 8q-63 -22 -94 -39t-31 -31q0 -8 9.5 -13.5t25.5 -11.5l91 -34q27 -10 53 -25t43.5 -38.5t17.5 -58.5q0 -45 -29 -77.5t-76.5 -53.5t-102 -31t-105.5 -10q-50 0 -95 9.5t-73.5 26.5t-28.5 41q0 21 22 35.5t55.5 22.5t69 11t63.5 1l1 -15q-32 -18 -45.5 -35.5
t-13.5 -34.5q0 -21 17 -33t49 -12q33 0 68.5 11.5t60.5 32.5t25 47q0 21 -16.5 29.5t-41.5 15.5l-136 43q-25 8 -44.5 25.5t-19.5 43.5q0 32 30 56.5t80.5 47t110.5 46.5zM266 514q-13 0 -26 -17.5t-23.5 -48.5t-16.5 -71t-6 -85q0 -33 4.5 -45t14.5 -12q15 0 28.5 18.5
t24 50t16 71.5t5.5 83q0 21 -3.5 38.5t-17.5 17.5zM292 532q70 0 117 -26.5t47 -87.5q0 -48 -32.5 -94.5t-92 -76.5t-140.5 -30q-70 0 -117 27t-47 87q0 36 18 71.5t52.5 65t83.5 47t111 17.5zM376 479l-21 7q16 42 49.5 67.5t73.5 25.5q35 0 52 -19t17 -47q0 -29 -15 -45
t-34 -16q-16 0 -30.5 13t-18.5 39t12 66l4 -7q-35 -13 -55 -32t-34 -52z" />
    <glyph glyph-name="h" unicode="h" horiz-adv-x="592" 
d="M153 0h-177l198 667q10 34 -2 50t-61 16l7 21q82 1 145.5 11.5t122.5 29.5zM176 143q41 122 75.5 198.5t67 118.5t67 57.5t74.5 15.5q50 0 73 -20t24.5 -54.5t-12.5 -76.5l-99 -297q-10 -28 -2.5 -35t14.5 -7q9 0 23 10.5t30 52.5l21 56h19l-25 -73q-22 -63 -62.5 -83
t-80.5 -20q-53 0 -78 23.5t-26.5 63t13.5 85.5l86 259q6 18 7.5 30t-0.5 18t-9 6q-20 0 -49 -41.5t-60.5 -110t-61 -151t-51.5 -165.5z" />
    <glyph glyph-name="i" unicode="i" horiz-adv-x="336" 
d="M169 676q0 54 35 80t87 26q44 0 66.5 -17t22.5 -51q0 -47 -35.5 -75.5t-87.5 -28.5q-43 0 -65.5 17t-22.5 49zM127 434q14 42 -9 42q-15 0 -28 -13.5t-27 -49.5l-23 -61h-19l28 78q20 56 58.5 79.5t90.5 23.5q51 0 75 -22t28 -54t-7 -64l-104 -308q-8 -25 -3 -33.5
t15 -8.5q9 0 23 10.5t30 52.5l21 56h19l-25 -73q-22 -63 -62.5 -83t-80.5 -20q-44 0 -71.5 18.5t-33.5 57t13 96.5z" />
    <glyph glyph-name="j" unicode="j" horiz-adv-x="318" 
d="M-139 -188l5 20q40 0 74 28.5t51 97.5l133 476q6 23 4 32.5t-14 9.5q-15 0 -28 -14.5t-26 -48.5l-23 -61h-19l28 78q21 58 63.5 80.5t87.5 22.5q51 0 73.5 -21.5t24.5 -54t-7 -64.5l-86 -313q-22 -88 -50 -136t-75 -82q-31 -22 -82 -36t-134 -14zM162 676q0 54 35 80
t87 26q44 0 66.5 -17t22.5 -51q0 -47 -35.5 -75.5t-87.5 -28.5q-43 0 -65.5 17t-22.5 49z" />
    <glyph glyph-name="k" unicode="k" horiz-adv-x="577" 
d="M153 0h-177l198 667q10 34 -2 50t-61 16l7 21q82 1 145.5 11.5t122.5 29.5zM432 85q-5 -25 -1 -33.5t13 -8.5t23 10.5t30 52.5l21 56h19l-25 -73q-15 -42 -41.5 -64t-57.5 -30.5t-61 -8.5q-61 0 -83 34t-9 95l17 71q14 51 -1 72.5t-65 27.5v4q48 3 94 -0.5t81.5 -18.5
t52 -46t5.5 -82zM451 514q-14 0 -25 -4t-21 -12q-17 -14 -27 -40t-20 -55.5t-25 -56t-41 -43.5t-69 -16l-10 -1l2 11q42 3 66 20.5t38 43t23 54t19 54t29 41.5q15 13 33 18t31 5q58 0 86.5 -34t28.5 -80q0 -49 -29.5 -75t-71.5 -26q-39 0 -60 20.5t-21 48.5q0 41 27.5 70
t61.5 44q-4 6 -11 9.5t-14 3.5z" />
    <glyph glyph-name="l" unicode="l" horiz-adv-x="316" 
d="M169 85q-7 -24 0 -33t16 -9q5 0 20 9.5t31 53.5l21 56h19l-25 -73q-15 -43 -39.5 -65t-51.5 -30t-51 -8q-42 0 -69.5 19.5t-34.5 57.5t10 95l153 509q10 34 -2 50t-61 16l7 21q82 1 145.5 11.5t122.5 29.5z" />
    <glyph glyph-name="m" unicode="m" horiz-adv-x="887" 
d="M180 0h-177l122 434q5 16 4.5 25t-4 13t-11.5 4q-14 0 -27 -14.5t-26 -48.5l-23 -61h-19l28 78q20 56 59 79.5t85 23.5q49 0 71 -21t25.5 -53t-5.5 -66zM394 417q6 21 7.5 32.5t-9.5 11.5q-19 0 -40 -23t-44 -65.5t-46.5 -102.5t-47.5 -135l-13 8q40 141 79.5 227
t89 124.5t116.5 38.5q44 0 64.5 -18t23 -52t-11.5 -81l-110 -382h-178zM672 417q8 23 7.5 33.5t-8.5 10.5q-17 0 -44.5 -28.5t-61.5 -99t-74 -197.5l-11 5q33 121 65.5 197.5t67 119t72 59t78.5 16.5q44 0 66 -18.5t24 -52t-14 -80.5l-99 -297q-10 -28 -2.5 -35t14.5 -7
q9 0 23 10.5t30 52.5l21 56h19l-25 -73q-22 -63 -62.5 -83t-80.5 -20q-33 0 -56.5 10.5t-36.5 31.5t-13 53.5t15 76.5z" />
    <glyph glyph-name="n" unicode="n" horiz-adv-x="619" 
d="M180 0h-177l122 434q5 16 6 25t-2.5 13t-12.5 4q-15 0 -28 -13.5t-27 -49.5l-23 -61h-19l28 78q19 53 52 78t85 25q53 0 76.5 -21.5t27.5 -54t-5 -64.5zM203 143q41 122 75.5 198.5t67 118.5t67 57.5t74.5 15.5q50 0 73 -20t24.5 -54.5t-12.5 -76.5l-99 -297
q-10 -28 -2.5 -35t14.5 -7q9 0 23 10.5t30 52.5l21 56h19l-25 -73q-22 -63 -62.5 -83t-80.5 -20q-64 0 -90 36q-15 21 -16.5 52.5t15.5 83.5l86 259q6 18 7.5 30t-0.5 18t-9 6q-20 0 -49 -41.5t-60.5 -110t-61 -151t-51.5 -165.5z" />
    <glyph glyph-name="o" unicode="o" horiz-adv-x="557" 
d="M349 513q-17 0 -40 -28.5t-47 -76.5t-44.5 -107t-33 -121t-12.5 -118q0 -31 4.5 -43.5t14.5 -12.5q16 0 38.5 27t46 73t44 104t33.5 121.5t13 123.5q0 38 -5 48t-12 10zM6 156q0 59 20.5 124.5t63.5 123t108.5 93.5t155.5 36q87 0 132.5 -44t45.5 -126
q0 -59 -20.5 -124.5t-63.5 -123t-108.5 -93.5t-155.5 -36q-87 0 -132.5 44t-45.5 126z" />
    <glyph glyph-name="p" unicode="p" horiz-adv-x="605" 
d="M370 466q-16 0 -33.5 -18t-34.5 -50t-32 -73t-26 -87l19 98q36 104 79.5 150.5t100.5 46.5q70 0 103.5 -42.5t33.5 -120.5q0 -47 -13 -99.5t-38 -103t-62 -91.5t-84.5 -65.5t-105.5 -24.5q-34 0 -62 8t-44 19l7 13q8 -3 16 -5t18 -2q27 0 53.5 22t49.5 59.5t41 84.5
t28 99t10 101q0 53 -6.5 67t-17.5 14zM187 652q53 5 98.5 14.5t88.5 23.5l-213 -757q-16 -58 3 -75t72 -18l-6 -21q-26 1 -73.5 2.5t-100.5 1.5q-46 0 -92 -1.5t-69 -2.5l6 21q36 0 52 13.5t26 48.5zM3 346q35 39 65.5 78.5t59.5 93t59 134.5l3 -16q-31 -106 -75.5 -174
t-100.5 -129z" />
    <glyph glyph-name="q" unicode="q" horiz-adv-x="581" 
d="M417 -86q-10 -38 4 -54.5t57 -19.5l-6 -21q-25 1 -72 2.5t-97 1.5q-49 0 -97.5 -1.5t-73.5 -2.5l6 21q50 2 71 20.5t31 54.5l162 595q39 -11 84.5 -1.5t85.5 24.5l15 -7q-7 -13 -12 -28t-10 -31zM212 63q16 0 33.5 17.5t34.5 47.5t32 69.5t26 83.5l-19 -98
q-40 -103 -81.5 -150t-98.5 -47q-70 0 -103.5 42.5t-33.5 120.5q0 47 15.5 99.5t44.5 103t69.5 91.5t89.5 65.5t104 24.5q28 0 50.5 -8t35.5 -19l-7 -13q-8 3 -15.5 5t-18.5 2q-27 0 -53.5 -26.5t-49.5 -70t-41 -95t-28 -103.5t-10 -95q0 -28 6 -37.5t18 -9.5z" />
    <glyph glyph-name="r" unicode="r" horiz-adv-x="499" 
d="M180 0h-177l122 434q6 23 4 32.5t-13 9.5q-15 0 -28 -13.5t-27 -49.5l-23 -61h-19l28 78q20 56 58.5 79.5t90.5 23.5q46 0 67 -21.5t24.5 -54t-4.5 -64.5zM435 513q-19 0 -40.5 -6t-45 -30.5t-50 -78.5t-56.5 -150t-63 -245l21 140q30 117 55 192.5t50 119t55 61t70 17.5
q47 0 72 -28t25 -69q0 -50 -31.5 -87.5t-81.5 -37.5q-37 0 -56 19t-19 56q0 44 32.5 80t76.5 44q-3 1 -6.5 2t-7.5 1z" />
    <glyph glyph-name="s" unicode="s" horiz-adv-x="446" 
d="M84 14q8 -4 16.5 -5.5t18.5 -1.5q31 0 51.5 20.5t20.5 55.5q0 34 -16 71t-42 78q-24 39 -42 73.5t-18 76.5q0 64 49.5 107.5t149.5 43.5q42 0 81.5 -10t65 -34.5t25.5 -70.5q0 -31 -18 -60t-53 -29q-30 0 -47 23.5t-17 60.5q0 32 10.5 57t21.5 37q-8 4 -25 4
q-35 0 -52.5 -20t-18.5 -58q-1 -34 18.5 -67t40.5 -69q33 -56 46.5 -91.5t13.5 -69.5q0 -41 -22.5 -75t-67 -54.5t-110.5 -20.5q-47 0 -89.5 11.5t-69 39.5t-26.5 77q0 37 18.5 63t49.5 26q29 0 47 -24t18 -64q0 -32 -10.5 -59t-17.5 -42z" />
    <glyph glyph-name="t" unicode="t" horiz-adv-x="365" 
d="M420 519l-3 -20h-371l5 20h369zM193 85q-6 -21 -0.5 -31.5t18.5 -10.5q20 0 40 22t32 54l16 43h19l-19 -55q-19 -57 -60 -89t-99 -32q-76 0 -98.5 51t-2.5 121l146 508q55 1 98 4t84 10z" />
    <glyph glyph-name="u" unicode="u" horiz-adv-x="617" 
d="M391 354q-39 -117 -73 -189.5t-66.5 -111t-67 -53t-74.5 -14.5q-61 0 -83.5 38t2.5 113l97 297q10 29 2.5 35.5t-14.5 6.5q-9 0 -23 -10.5t-30 -52.5l-21 -56h-19l25 73q22 63 62.5 83t80.5 20q45 0 72 -18.5t33 -56.5t-14 -97l-86 -259q-18 -54 2 -54t49 41.5t61 110
t61.5 151.5t51.5 165zM474 85q-7 -23 -5.5 -32.5t14.5 -9.5q15 0 28.5 13.5t26.5 49.5l23 61h19l-28 -78q-20 -56 -59 -79.5t-84 -23.5q-35 0 -56.5 10.5t-32.5 28.5q-12 20 -11.5 46.5t7.5 54.5l103 393q52 1 97 4t84 10z" />
    <glyph glyph-name="v" unicode="v" horiz-adv-x="519" 
d="M463 296q-49 23 -82 63.5t-33 91.5q0 38 20.5 60t57.5 22q40 0 58 -26t18 -72q0 -55 -12.5 -117t-38 -121t-65 -106.5t-93 -76t-122.5 -28.5q-62 0 -96.5 18.5t-48.5 47t-14 58.5q0 65 38 128.5t104.5 126.5t149.5 125q-31 -1 -52.5 -15.5t-38.5 -32.5t-33.5 -31.5
t-37.5 -13.5q-16 0 -27.5 7.5t-25.5 7.5q-13 0 -20 -9t-13 -29l-7 -21h-19l22 73q18 64 43 86t51 22q19 0 33 -7t31 -14.5t46 -7.5q10 0 27 2.5t38 12.5l10 19l21 -10q-44 -71 -78 -150.5t-53 -151t-19 -120.5q0 -34 10 -51t36 -17q31 0 59 14t52 39t44 57.5t35 70t25 76.5z
" />
    <glyph glyph-name="w" unicode="w" horiz-adv-x="676" 
d="M299 45q-28 -26 -67.5 -42.5t-95.5 -16.5q-68 0 -104.5 36.5t-36.5 91.5q0 46 26 89t73.5 87.5t113.5 94.5t145 110l-3 -5q-37 0 -64 -14t-47.5 -32.5t-39.5 -32.5t-42 -14q-19 0 -30 7.5t-25 7.5q-13 0 -19.5 -9t-13.5 -29l-7 -21h-19l22 73q19 63 44.5 82.5t51.5 19.5
q20 0 36.5 -5.5t37.5 -11.5t55 -6q11 0 30.5 2.5t43.5 12.5l10 19l21 -10q-61 -71 -108.5 -149.5t-74.5 -151t-27 -126.5q0 -29 10 -46t37 -17q31 0 58 19zM483 69q25 0 45 13t35.5 35.5t25.5 52.5t16 64.5t7 71.5q-34 16 -70 37t-60.5 51.5t-24.5 73.5q0 21 16 43t53 22
q33 0 54 -22.5t32.5 -56.5t16 -69.5t4.5 -62.5q0 -49 -9.5 -98t-28 -91.5t-45.5 -75.5t-62.5 -52t-79.5 -19q-34 0 -67 12t-54 42t-21 83q0 47 17 89.5t43 75.5t55.5 52t54.5 19q19 0 27.5 -11t11 -26t2.5 -26q0 -65 -27.5 -125t-80.5 -108l-7 17q42 41 67 97.5t25 112.5
q0 21 -4 34t-12 13q-12 0 -23 -23t-18 -59t-7 -77q0 -32 10.5 -56.5t31.5 -38.5t51 -14z" />
    <glyph glyph-name="x" unicode="x" horiz-adv-x="591" 
d="M396 88q5 -26 13 -36t21 -10t26.5 15.5t30.5 66.5l13 37h19l-25 -73q-14 -44 -39 -66t-54 -29t-55 -7q-52 0 -87.5 21.5t-41.5 80.5l-40 343q-4 26 -13.5 32.5t-22.5 6.5q-12 0 -25 -12t-30 -63l-13 -37h-19l25 73q14 44 39 66t55.5 29t58.5 7q55 0 87.5 -23t39.5 -93z
M421 456q-31 -43 -52 -96.5t-32 -95.5l-10 0.5l-10 0.5q2 10 13.5 45.5t31 80t46.5 81.5t57.5 49t58.5 12q41 0 67 -22t26 -63q0 -39 -25 -64t-65 -25q-31 0 -61.5 21t-44.5 76zM150 63q32 43 52.5 96.5t31.5 95.5l10 -0.5l10 -0.5q-7 -28 -20 -65t-30.5 -74.5t-40.5 -67.5
q-28 -36 -58.5 -48.5t-58.5 -12.5q-43 0 -67.5 21.5t-24.5 58.5q0 44 27.5 69t64.5 25q40 0 65.5 -26.5t38.5 -70.5z" />
    <glyph glyph-name="y" unicode="y" horiz-adv-x="483" 
d="M323 75l-133 -153l-84 511q-4 25 -8 34t-13 9q-10 0 -17.5 -11.5t-22.5 -51.5l-21 -56h-19l25 73q21 61 53.5 82t75.5 21q47 0 77.5 -24.5t40.5 -94.5zM71 -137q49 22 100 61.5t104 106.5q53 66 91 137.5t59 131.5q-46 26 -75 65.5t-29 85.5q0 38 20.5 60t57.5 22
q40 0 58 -26t18 -71t-15.5 -99.5t-43 -113.5t-63 -115t-75.5 -104q-42 -51 -87 -88t-90.5 -61t-90.5 -35q-16 -4 -31.5 -6t-27.5 -2q-40 0 -61.5 17.5t-21.5 48.5q0 29 21.5 51t58.5 22t67.5 -22.5t55.5 -65.5z" />
    <glyph glyph-name="z" unicode="z" horiz-adv-x="476" 
d="M39 67q34 13 66.5 37.5t63.5 45.5t58 21q24 0 37 -8t23.5 -16t26.5 -8q14 0 19.5 9t5.5 16q0 21 -14 32t-30 15l6 15q59 -13 85 -40.5t26 -72.5q0 -53 -33.5 -90t-99.5 -37q-34 0 -60.5 9t-49.5 21.5t-48.5 21.5t-59.5 9q-27 0 -48.5 -9.5t-42.5 -37.5h-31l509 461
q-30 -11 -59.5 -31.5t-57.5 -41.5t-54.5 -36t-49.5 -15t-36.5 8t-23.5 16t-25 8q-13 0 -19.5 -7.5t-6.5 -17.5q0 -17 10.5 -26.5t33.5 -20.5l-6 -15q-53 12 -82 38.5t-29 69.5q0 34 18 65.5t54 52t89 20.5q35 0 60 -8.5t47 -20t46 -20t56 -8.5q31 0 51.5 10.5t40.5 36.5h31z
" />
    <glyph glyph-name="braceleft" unicode="{" horiz-adv-x="398" 
d="M251 -188q-88 -1 -137 11.5t-68 40.5t-16 72.5t18 106.5q16 67 24.5 111.5t8.5 72.5q-1 31 -12.5 44t-34.5 15h-5l3 18h5q31 2 53.5 24t41.5 73.5t42 145.5q23 97 63 147.5t102 69t152 18.5l-5 -19q-24 0 -41 -6.5t-30.5 -28t-27.5 -64.5t-33 -117q-23 -91 -60.5 -141
t-94.5 -74.5t-140 -36.5q66 -13 107 -30t60 -44t18.5 -70t-16.5 -108q-15 -61 -22.5 -100t-6.5 -62q0 -31 14 -40t43 -10z" />
    <glyph glyph-name="bar" unicode="|" horiz-adv-x="403" 
d="M271 858v-1053h-120v1053h120z" />
    <glyph glyph-name="braceright" unicode="}" horiz-adv-x="397" 
d="M148 782q88 1 137 -11.5t68 -40.5t16 -72.5t-18 -106.5q-16 -67 -24.5 -111.5t-8.5 -72.5q1 -31 12.5 -44t34.5 -15h5l-3 -18h-5q-31 -2 -53.5 -24t-41.5 -73.5t-42 -145.5q-23 -97 -63 -147.5t-102 -69t-152 -18.5l5 19q24 0 41 6.5t30.5 28t27.5 64.5t33 117
q23 91 60.5 141t94.5 74.5t140 36.5q-66 13 -107 30t-60 44t-18.5 70t16.5 108q15 61 22.5 100t6.5 62q0 31 -14 40t-43 10z" />
    <glyph glyph-name="asciitilde" unicode="~" horiz-adv-x="643" 
d="M388 197q-38 0 -67 12t-54.5 27t-52.5 27t-61 12q-30 0 -56.5 -13t-46.5 -45l-14 5q32 86 92 136.5t133 50.5q38 0 67 -12t54.5 -27t52.5 -27t61 -12q30 0 56.5 13t46.5 45l14 -5q-31 -85 -91 -136t-134 -51z" />
    <glyph glyph-name="uni00A0" unicode="&#xa0;" horiz-adv-x="257" 
 />
    <glyph glyph-name="exclamdown" unicode="&#xa1;" horiz-adv-x="328" 
d="M172 316q-16 -61 -14.5 -122t8 -122t6.5 -125t-34 -99.5t-100 -35.5q-37 0 -61.5 17t-24.5 55q0 40 24 87.5t58.5 102t67.5 116t52 129.5zM116 427q0 47 32 76.5t80 29.5q38 0 58.5 -17t20.5 -51q0 -40 -33 -72t-80 -32q-38 0 -58 17t-20 49z" />
    <glyph glyph-name="cent" unicode="&#xa2;" horiz-adv-x="507" 
d="M393 708l-239 -889h-22l239 889h22zM386 513q-37 0 -72 -31.5t-62 -84t-43 -117t-16 -130.5q0 -54 22 -78t58 -24q29 0 59 17t61 63l20 -8q-21 -33 -52.5 -64t-75 -50.5t-101.5 -19.5q-76 0 -127 38t-51 120q0 65 25.5 133t73.5 126t116 94t152 36q62 0 96 -31t34 -73
q0 -32 -16 -62t-42.5 -49.5t-58.5 -19.5q-26 0 -47 18t-21 52q0 49 31 85t71 48q-7 6 -15 9t-19 3z" />
    <glyph glyph-name="sterling" unicode="&#xa3;" horiz-adv-x="704" 
d="M493 317l-6 -20h-435l6 20h435zM520 417l-6 -20h-435l6 20h435zM547 721q-28 1 -49.5 -10.5t-37 -37.5t-27.5 -70l-49 -188q-16 -61 -42.5 -100t-59.5 -66t-67.5 -51t-67.5 -54t-59 -76q51 52 108 83t116 31q52 0 88 -9t63 -18t52 -9q13 0 21 5t8 18q0 14 -16 26.5
t-57 20.5l4 19q36 -5 69.5 -18.5t55 -37t21.5 -60.5q0 -38 -19.5 -68.5t-55.5 -47.5t-86 -17q-47 0 -83 11.5t-68 27t-67 27t-81 11.5q-21 0 -40.5 -2t-39.5 -9q-17 -35 -44.5 -50.5t-54.5 -15.5q-13 0 -13 10q0 17 23 41t76 32q17 34 34.5 76t36.5 113l48 181
q22 84 68 151.5t118.5 106.5t175.5 39q58 0 92.5 -31t34.5 -76q0 -57 -31 -91t-78 -34q-40 0 -64.5 20.5t-24.5 60.5q0 47 27.5 81.5t71.5 43.5q-4 5 -11.5 8t-18.5 3z" />
    <glyph glyph-name="currency" unicode="&#xa4;" horiz-adv-x="717" 
d="M269 300q0 -34 12.5 -57t34 -35t46.5 -12q26 0 47 12t33.5 35t12.5 57t-12.5 57.5t-33.5 35.5t-47 12q-25 0 -46.5 -12t-34 -35.5t-12.5 -57.5zM75 138l68 68q-10 22 -14.5 45.5t-4.5 48.5q0 47 19 93l-68 68l123 123l67 -67q22 10 46 15t49 5t48.5 -5t45.5 -15l68 68
l123 -123l-68 -68q10 -22 15 -45.5t5 -48.5t-5 -49t-15 -46l68 -68l-123 -123l-69 69q-22 -9 -45 -14t-48 -5q-52 0 -94 19l-68 -68z" />
    <glyph glyph-name="yen" unicode="&#xa5;" horiz-adv-x="825" 
d="M601 217l-5 -20h-470l5 20h470zM623 297l-5 -20h-470l5 20h470zM446 106q-13 -55 7.5 -69.5t71.5 -16.5l-5 -20q-21 1 -55.5 1.5t-74 1t-74.5 0.5q-54 0 -103 -0.5t-78 -2.5l5 20q34 2 53 8t30 24t20 54l69 274l85 -63l93 19l34 80zM756 705q-16 0 -30.5 -5t-33.5 -19
q-25 -18 -62.5 -72t-75.5 -140t-67 -199l-188 -5q-4 47 -11 98t-17.5 99.5t-24 88t-29.5 62.5t-36 23q-19 0 -29.5 -15.5t-15.5 -31.5l-17 -51h-11h-11l21 64q23 69 70 94.5t99 25.5q77 0 117 -40.5t58.5 -119.5t31.5 -193q31 95 69 169.5t79 123.5q23 27 52.5 43.5
t66.5 16.5q53 0 85 -31t32 -76q0 -48 -32.5 -76.5t-79.5 -28.5q-40 0 -64.5 19.5t-24.5 54.5q0 45 30 75.5t74 37.5q-4 4 -10.5 6t-14.5 2z" />
    <glyph glyph-name="brokenbar" unicode="&#xa6;" horiz-adv-x="406" 
d="M153 -195v521h120v-521h-120zM273 858v-474h-120v474h120z" />
    <glyph glyph-name="section" unicode="&#xa7;" horiz-adv-x="621" 
d="M530 749q-2 3 -11 6t-21.5 5.5t-28.5 2.5q-34 0 -63 -14.5t-47 -41.5t-18 -64q0 -26 12.5 -45.5t37 -40t59.5 -50.5q62 -52 100 -90.5t38 -89.5q0 -59 -34 -101.5t-84.5 -71t-101.5 -49.5l-7 10q18 13 30.5 24.5t21.5 26.5t14 38q7 28 -1.5 50.5t-39 51.5t-89.5 74
q-73 57 -108 99.5t-35 90.5q0 55 29 95t75.5 66t101 38.5t104.5 12.5q21 0 49.5 -3t56.5 -12.5t46.5 -27.5t18.5 -48q0 -43 -33 -76.5t-80 -33.5q-36 0 -54 18t-18 45q0 34 24.5 62.5t55.5 42.5zM153 -169q34 0 63 14.5t47 41.5t18 64q0 27 -12.5 46.5t-37 39.5t-59.5 50
q-62 53 -100 91t-38 89q0 60 34 101.5t85 71t101 49.5l7 -10q-17 -12 -33 -28.5t-26 -36.5t-10 -45q0 -31 28.5 -63.5t104.5 -91.5q73 -57 108 -99.5t35 -90.5q0 -55 -29 -95t-75.5 -66t-101 -38.5t-104.5 -12.5q-21 0 -49.5 3t-56.5 12t-46 27t-18 48q0 44 32 77.5t80 33.5
q35 0 53.5 -16.5t18.5 -42.5q0 -37 -23.5 -65.5t-56.5 -43.5q4 -4 21 -9t40 -5z" />
    <glyph glyph-name="dieresis" unicode="&#xa8;" horiz-adv-x="514" 
d="M157 674q0 52 30.5 75t68.5 23q40 0 57.5 -21.5t17.5 -56.5q0 -52 -31.5 -74t-68.5 -22q-40 0 -57 21t-17 55zM395 674q0 52 30.5 75t68.5 23q40 0 57.5 -21.5t17.5 -56.5q0 -52 -31.5 -74t-68.5 -22q-40 0 -57 21t-17 55z" />
    <glyph glyph-name="copyright" unicode="&#xa9;" horiz-adv-x="902" 
d="M77 384q0 83 31 155t85.5 126.5t127 85.5t154.5 31q83 0 155 -31t126.5 -85.5t85.5 -126.5t31 -155q0 -82 -31 -154.5t-85.5 -127t-126.5 -85.5t-155 -31q-82 0 -154.5 31t-127 85.5t-85.5 127t-31 154.5zM117 384q0 -76 28 -142t77 -116.5t114 -79t139 -28.5t139 28.5
t114 79t77 116.5t28 142t-28 142t-77 116.5t-114 79t-139 28.5t-139 -28.5t-114 -79t-77 -116.5t-28 -142zM556 190q14 0 33.5 6t42.5 26.5t45 64.5l17 -6q-12 -40 -38.5 -79.5t-68.5 -65t-102 -25.5q-67 0 -121.5 26t-87 86t-32.5 161q0 96 34 156.5t92.5 89t130.5 28.5
q44 0 88 -13t74 -42.5t30 -78.5q0 -41 -27 -69t-69 -28q-44 0 -68 25t-24 65q0 38 24.5 64.5t57.5 35.5q-9 6 -24.5 10.5t-32.5 4.5q-33 0 -55 -19.5t-33 -70t-11 -144.5q0 -82 19 -127.5t48 -63t58 -17.5z" />
    <glyph glyph-name="ordfeminine" unicode="&#xaa;" horiz-adv-x="584" 
d="M509 463q-5 -17 -3.5 -29t17.5 -12q12 0 22 7.5t16 23.5l9 25h19l-10 -28q-16 -46 -51 -68t-85 -22q-34 0 -58.5 12t-32 42.5t7.5 84.5l61 214q95 0 170 9zM296 421q18 0 38 30.5t37.5 78t25.5 97.5l-11 -79q-20 -78 -48 -118.5t-60.5 -55t-67.5 -14.5q-53 0 -81 25
t-28 76q0 48 23 94t61 84t86 60.5t97 22.5q19 0 34.5 -8.5t10.5 -46.5l-7 -16q1 26 -6.5 36.5t-17.5 10.5q-15 0 -33.5 -19.5t-35.5 -52t-28 -72t-11 -79.5q0 -54 22 -54z" />
    <glyph glyph-name="guillemotleft" unicode="&#xab;" horiz-adv-x="632" 
d="M402 533q-15 -31 -37.5 -70t-49 -78.5t-53 -72.5t-47.5 -53q16 -26 30 -75t22.5 -102.5t7.5 -95.5h-18q-52 72 -110 138.5t-132 124.5l5 20q101 59 189 125.5t175 138.5h18zM608 493q-11 -27 -29 -60.5t-39 -67t-42 -61.5t-37 -45q11 -22 20.5 -63.5t15.5 -87.5t4 -82
h-18q-47 60 -97.5 117t-115.5 106l5 20q87 50 164 107t151 117h18z" />
    <glyph glyph-name="logicalnot" unicode="&#xac;" horiz-adv-x="636" 
d="M80 340l9 30h501l-59 -205h-36l50 175h-465z" />
    <glyph glyph-name="uni00AD" unicode="&#xad;" horiz-adv-x="507" 
 />
    <glyph glyph-name="registered" unicode="&#xae;" horiz-adv-x="676" 
d="M394 782q77 0 140.5 -37.5t101 -101t37.5 -140.5t-37.5 -140.5t-101 -101t-140.5 -37.5t-140.5 37.5t-101 101t-37.5 140.5t37.5 140.5t101 101t140.5 37.5zM330 525q34 0 48.5 -1t22 -2.5t18.5 -3.5q57 -4 77.5 -17.5t25.5 -41.5l17 -71q2 -10 5 -13.5t8 -3.5q6 0 11 4
l6 -11q-9 -7 -23.5 -12t-34.5 -5q-35 0 -54.5 11.5t-23.5 33.5l-13 72q-3 19 -9.5 28.5t-23.5 13.5t-55 4zM394 750q-66 0 -120 -33.5t-85.5 -89.5t-31.5 -124q0 -67 31.5 -123.5t85.5 -90t120 -33.5t120 33.5t85.5 90t31.5 123.5q0 68 -31.5 124t-85.5 89.5t-120 33.5z
M408 676q70 0 98 -20.5t28 -58.5q0 -15 -12 -33.5t-44 -33t-93 -17.5l-60 -3v8v8h53q27 0 42 17.5t15 50.5q0 32 -11 49.5t-32 17.5q-10 0 -14 -5.5t-4 -19.5v-232q0 -23 4.5 -29t18.5 -8v-15q-14 0 -32.5 0.5t-38.5 0.5q-22 0 -43 -0.5t-33 -0.5v15q14 2 18.5 8t4.5 29v219
q0 24 -4.5 30.5t-18.5 7.5v15q12 -1 32.5 -1h39.5q28 0 52 0.5t34 0.5z" />
    <glyph glyph-name="macron" unicode="&#xaf;" horiz-adv-x="452" 
d="M515 712l-6 -25h-352l6 25h352z" />
    <glyph glyph-name="degree" unicode="&#xb0;" horiz-adv-x="332" 
d="M261 820q49 0 85.5 -32t36.5 -88t-36.5 -88.5t-85.5 -32.5q-48 0 -84.5 32.5t-36.5 88.5t36.5 88t84.5 32zM261 599q34 0 66 25.5t32 75.5q0 49 -32 74.5t-66 25.5t-65.5 -25.5t-31.5 -74.5q0 -50 31.5 -75.5t65.5 -25.5z" />
    <glyph glyph-name="plusminus" unicode="&#xb1;" horiz-adv-x="606" 
d="M-33 0l9 30h501l-9 -30h-501zM78 370h233l67 236h36l-67 -236h232l-9 -30h-232l-67 -235h-36l67 235h-233z" />
    <glyph glyph-name="uni00B2" unicode="&#xb2;" horiz-adv-x="366" 
d="M307 754q42 0 69.5 -13.5t27.5 -42.5q0 -26 -20.5 -49.5t-52 -44t-65 -39t-58.5 -35.5q25 0 60.5 -9t60.5 -9q17 0 27 6.5t10 19.5q0 10 -4 18l17 7q9 -13 14.5 -28.5t5.5 -31.5q0 -29 -22.5 -49.5t-71.5 -20.5q-34 0 -71.5 8t-83.5 10q-23 1 -38 -1.5t-40 -12.5l4 18
q18 14 52 37t70.5 53t61.5 63t25 66q0 22 -12.5 31t-33.5 9q-24 0 -48 -11.5t-47 -34.5l-14 11q26 29 70.5 52t106.5 23z" />
    <glyph glyph-name="uni00B3" unicode="&#xb3;" horiz-adv-x="348" 
d="M310 754q44 0 72 -13t28 -41t-29.5 -51.5t-71.5 -39.5t-78 -23q66 -1 107.5 -17.5t41.5 -56.5q0 -37 -33.5 -66.5t-86.5 -50t-113 -32.5t-113 -15v18q53 5 105 23.5t86.5 51.5t34.5 79q0 27 -10.5 38t-24.5 14q-11 -6 -19 -8t-13 -2q-6 0 -12 3t-6 10q0 10 12.5 14
t31.5 3q32 15 52.5 37.5t20.5 47.5q0 20 -11.5 29t-28.5 9q-24 0 -49 -11t-54 -37l-14 12q24 25 70.5 50t104.5 25z" />
    <glyph glyph-name="acute" unicode="&#xb4;" horiz-adv-x="309" 
d="M137 609q34 54 53.5 94.5t35.5 71t39 53.5q20 20 52.5 27.5t57.5 -18.5q23 -22 16 -49t-32 -52q-21 -21 -51 -39t-70 -40.5t-91 -57.5z" />
    <glyph glyph-name="paragraph" unicode="&#xb6;" horiz-adv-x="754" 
d="M409 327q-16 -78 -23.5 -141.5t-8.5 -100.5t1 -37l8.5 32.5t23 86.5t32 118.5t34.5 129.5t31.5 119t24 87.5t9.5 34.5q-3 0 -22.5 -38.5t-46 -102t-50.5 -139.5q-74 0 -136.5 -5t-99.5 -11t-38 -9q0 -3 34 -9t93.5 -10.5t133.5 -4.5zM360 -13q-115 0 -185 30.5t-101.5 85
t-31.5 126.5q0 99 36 186t100.5 153t150 103.5t184.5 37.5q56 0 105 -1.5t95 -1.5q29 0 60.5 0.5t59.5 1.5l-5 -19q-49 -2 -67.5 -18.5t-27.5 -49.5l-145 -556q-19 -74 -58.5 -131t-106.5 -89.5t-172 -32.5q-68 0 -116.5 19.5t-48.5 69.5q0 38 26.5 62.5t77.5 24.5
q42 0 71.5 -18t29.5 -55q0 -28 -16.5 -49t-48.5 -35q8 -1 13 -1.5t10 -0.5q41 0 63.5 37.5t47.5 120.5z" />
    <glyph glyph-name="periodcentered" unicode="&#xb7;" horiz-adv-x="310" 
d="M54 253q0 47 32 76.5t80 29.5q38 0 58.5 -17t20.5 -51q0 -40 -33 -72t-80 -32q-38 0 -58 17t-20 49z" />
    <glyph glyph-name="cedilla" unicode="&#xb8;" horiz-adv-x="371" 
d="M146 0l-50 -67q14 5 30.5 8.5t31.5 3.5q29 0 50.5 -10t21.5 -33q0 -33 -28.5 -52.5t-72.5 -28.5t-90 -9q-33 0 -58.5 6.5t-37.5 11.5l6 16l24 -6t37 -4q12 0 31.5 3t35 12t15.5 27q0 23 -28 23q-5 0 -14 -1.5t-17 -5.5l84 106h29z" />
    <glyph glyph-name="uni00B9" unicode="&#xb9;" horiz-adv-x="278" 
d="M349 753l-101 -316h-119l73 223q-22 -7 -44 -13.5t-54 -12.5l5 19q87 22 135.5 48.5t85.5 51.5h19z" />
    <glyph glyph-name="ordmasculine" unicode="&#xba;" horiz-adv-x="545" 
d="M381 704q-20 0 -40 -24.5t-37 -64.5t-27.5 -86.5t-10.5 -91.5q0 -58 28 -58q20 0 40 24.5t37 64t27.5 86.5t10.5 92q0 58 -28 58zM104 495q0 32 18 71t53 74.5t88 58.5t123 23q84 0 134.5 -33t50.5 -102q0 -32 -18 -71t-53 -74.5t-88 -58t-123 -22.5q-84 0 -134.5 33
t-50.5 101z" />
    <glyph glyph-name="guillemotright" unicode="&#xbb;" horiz-adv-x="631" 
d="M356 533q53 -72 111 -138.5t132 -125.5l-5 -20q-101 -58 -189.5 -124.5t-175.5 -138.5h-18q15 32 37.5 70.5t49 77.5t52.5 72t47 53q-15 27 -29 75.5t-22 102.5t-8 96h18zM130 493q47 -60 98 -117t115 -107l-5 -20q-87 -49 -163.5 -106t-150.5 -117h-18q11 27 29 60
t39 66.5t41 61.5t36 45q-10 23 -19.5 64.5t-15 87.5t-4.5 82h18z" />
    <glyph glyph-name="onequarter" unicode="&#xbc;" horiz-adv-x="709" 
d="M720 824l15 -13l-833 -866l-15 13zM349 753l-101 -316h-119l73 223q-22 -7 -44 -13.5t-54 -12.5l5 19q87 22 135.5 48.5t85.5 51.5h19zM495 317l5 -21l-323 -273l35 40h278l-22 -71h-338l5 18zM514 317l-117 -402h-92l88 303l102 99h19z" />
    <glyph glyph-name="onehalf" unicode="&#xbd;" horiz-adv-x="631" 
d="M720 824l15 -13l-833 -866l-15 13zM349 753l-101 -316h-119l73 223q-22 -7 -44 -13.5t-54 -12.5l5 19q87 22 135.5 48.5t85.5 51.5h19zM474 317q42 0 69.5 -13.5t27.5 -42.5q0 -26 -20.5 -49.5t-52 -44t-65 -39t-58.5 -35.5q25 0 60.5 -9t60.5 -9q17 0 27 6.5t10 19.5
q0 10 -4 18l17 7q9 -13 14.5 -28.5t5.5 -31.5q0 -29 -22.5 -49.5t-71.5 -20.5q-34 0 -71.5 8t-83.5 10q-23 1 -38 -1.5t-40 -12.5l4 18q18 14 52 37t70.5 53t61.5 63t25 66q0 22 -12.5 31t-33.5 9q-24 0 -48 -11.5t-47 -34.5l-14 11q26 29 70.5 52t106.5 23z" />
    <glyph glyph-name="threequarters" unicode="&#xbe;" horiz-adv-x="779" 
d="M820 824l15 -13l-833 -866l-15 13zM310 754q44 0 72 -13t28 -41t-29.5 -51.5t-71.5 -39.5t-78 -23q66 -1 107.5 -17.5t41.5 -56.5q0 -37 -33.5 -66.5t-86.5 -50t-113 -32.5t-113 -15v18q53 5 105 23.5t86.5 51.5t34.5 79q0 27 -10.5 38t-24.5 14q-11 -6 -19 -8t-13 -2
q-6 0 -12 3t-6 10q0 10 12.5 14t31.5 3q32 15 52.5 37.5t20.5 47.5q0 20 -11.5 29t-28.5 9q-24 0 -49 -11t-54 -37l-14 12q24 25 70.5 50t104.5 25zM595 317l5 -21l-323 -273l35 40h278l-22 -71h-338l5 18zM614 317l-117 -402h-92l88 303l102 99h19z" />
    <glyph glyph-name="questiondown" unicode="&#xbf;" horiz-adv-x="516" 
d="M229 -163q7 0 18 1t23.5 3t21.5 5q-34 4 -58 25.5t-24 52.5q0 34 27 56t64 22q32 0 57.5 -18.5t25.5 -57.5q0 -34 -20.5 -56.5t-53 -35t-70.5 -17.5t-73 -5q-97 0 -155 32t-58 89q0 30 17 54t50.5 49.5t82.5 58.5q42 28 70 50t42 43.5t14 48.5q0 22 -13 39.5t-51 17.5
q-16 0 -32 -3t-25 -7q23 -1 44 -19t21 -47q0 -30 -24 -49.5t-60 -19.5q-30 0 -50 15.5t-20 46.5q0 32 20 52.5t51.5 32t67 16.5t66.5 5q83 0 140.5 -28t57.5 -80q0 -32 -21.5 -60t-54.5 -52.5t-66 -46.5q-67 -45 -100.5 -74.5t-33.5 -69.5q0 -36 24 -52.5t58 -16.5zM215 427
q0 47 32 76.5t80 29.5q38 0 58.5 -17t20.5 -51q0 -40 -33 -72t-80 -32q-38 0 -58 17t-20 49z" />
    <glyph glyph-name="Agrave" unicode="&#xc0;" horiz-adv-x="669" 
d="M47 131q-27 -38 -24 -61.5t28.5 -35t63.5 -14.5l-4 -20q-52 2 -83 2.5t-59 0.5q-21 0 -35 -0.5t-30 -2.5l4 20q29 8 54 33t68 86l408 574q18 -2 38.5 -2t36.5 2l40 -629q3 -36 18.5 -49.5t30.5 -14.5l-4 -20q-29 2 -78 2.5t-91 0.5q-51 0 -97 -0.5t-73 -2.5l4 20
q48 2 68.5 17.5t17.5 66.5l-23 438l53 58zM149 288h292l-8 -20h-302zM534 772q-58 18 -97 24.5t-65.5 10.5t-49.5 16q-25 13 -35 37.5t2 48.5q14 28 43 34.5t51 -4.5q25 -11 42 -31.5t42.5 -51t73.5 -72.5z" />
    <glyph glyph-name="Aacute" unicode="&#xc1;" horiz-adv-x="669" 
d="M47 131q-27 -38 -24 -61.5t28.5 -35t63.5 -14.5l-4 -20q-52 2 -83 2.5t-59 0.5q-21 0 -35 -0.5t-30 -2.5l4 20q29 8 54 33t68 86l408 574q18 -2 38.5 -2t36.5 2l40 -629q3 -36 18.5 -49.5t30.5 -14.5l-4 -20q-29 2 -78 2.5t-91 0.5q-51 0 -97 -0.5t-73 -2.5l4 20
q48 2 68.5 17.5t17.5 66.5l-23 438l53 58zM149 288h292l-8 -20h-302zM460 784q48 42 78 75.5t54.5 58.5t53.5 40q25 14 58 11.5t50 -34.5q15 -28 0.5 -52t-45.5 -41q-39 -21 -96.5 -31t-145.5 -39z" />
    <glyph glyph-name="Acircumflex" unicode="&#xc2;" horiz-adv-x="669" 
d="M47 131q-27 -38 -24 -61.5t28.5 -35t63.5 -14.5l-4 -20q-52 2 -83 2.5t-59 0.5q-21 0 -35 -0.5t-30 -2.5l4 20q29 8 54 33t68 86l408 574q18 -2 38.5 -2t36.5 2l40 -629q3 -36 18.5 -49.5t30.5 -14.5l-4 -20q-29 2 -78 2.5t-91 0.5q-51 0 -97 -0.5t-73 -2.5l4 20
q48 2 68.5 17.5t17.5 66.5l-23 438l53 58zM149 288h292l-8 -20h-302zM477 824q-46 -16 -103.5 -29.5t-121.5 -24.5l-5 14q91 29 169.5 75.5t125.5 96.5h18q19 -58 49.5 -99t89.5 -73l-4 -14q-75 12 -124.5 25t-93.5 29z" />
    <glyph glyph-name="Atilde" unicode="&#xc3;" horiz-adv-x="669" 
d="M47 131q-27 -38 -24 -61.5t28.5 -35t63.5 -14.5l-4 -20q-52 2 -83 2.5t-59 0.5q-21 0 -35 -0.5t-30 -2.5l4 20q29 8 54 33t68 86l408 574q18 -2 38.5 -2t36.5 2l40 -629q3 -36 18.5 -49.5t30.5 -14.5l-4 -20q-29 2 -78 2.5t-91 0.5q-51 0 -97 -0.5t-73 -2.5l4 20
q48 2 68.5 17.5t17.5 66.5l-23 438l53 58zM149 288h292l-8 -20h-302zM449 948q39 0 65 -11t46 -25.5t40.5 -25.5t49.5 -11q23 0 43 13.5t39 44.5l18 -5q-32 -87 -84.5 -125t-105.5 -38q-39 0 -65 11t-46 25.5t-40.5 25.5t-49.5 11q-23 0 -42.5 -13t-39.5 -45l-18 5
q32 87 84.5 125t105.5 38z" />
    <glyph glyph-name="Adieresis" unicode="&#xc4;" horiz-adv-x="669" 
d="M47 131q-27 -38 -24 -61.5t28.5 -35t63.5 -14.5l-4 -20q-52 2 -83 2.5t-59 0.5q-21 0 -35 -0.5t-30 -2.5l4 20q29 8 54 33t68 86l408 574q18 -2 38.5 -2t36.5 2l40 -629q3 -36 18.5 -49.5t30.5 -14.5l-4 -20q-29 2 -78 2.5t-91 0.5q-51 0 -97 -0.5t-73 -2.5l4 20
q48 2 68.5 17.5t17.5 66.5l-23 438l53 58zM149 288h292l-8 -20h-302zM274 838q0 52 30.5 75t68.5 23q40 0 57.5 -21.5t17.5 -56.5q0 -52 -31.5 -74t-68.5 -22q-40 0 -57 21t-17 55zM532 838q0 52 30.5 75t68.5 23q40 0 57.5 -21.5t17.5 -56.5q0 -52 -31.5 -74t-68.5 -22
q-40 0 -57 21t-17 55z" />
    <glyph glyph-name="Aring" unicode="&#xc5;" horiz-adv-x="669" 
d="M47 131q-27 -38 -24 -61.5t28.5 -35t63.5 -14.5l-4 -20q-52 2 -83 2.5t-59 0.5q-21 0 -35 -0.5t-30 -2.5l4 20q29 8 54 33t68 86l408 574q18 -2 38.5 -2t36.5 2l40 -629q3 -36 18.5 -49.5t30.5 -14.5l-4 -20q-29 2 -78 2.5t-91 0.5q-51 0 -97 -0.5t-73 -2.5l4 20
q48 2 68.5 17.5t17.5 66.5l-23 438l53 58zM149 288h292l-8 -20h-302zM504 945q45 0 75.5 -24t30.5 -65q0 -31 -18.5 -57t-49 -41.5t-65.5 -15.5q-43 0 -72.5 24t-29.5 66q0 48 37.5 80.5t91.5 32.5zM482 763q39 0 70.5 26.5t31.5 64.5q0 36 -27 53t-56 17q-40 0 -69.5 -28
t-29.5 -64q0 -34 25 -51.5t55 -17.5z" />
    <glyph glyph-name="AE" unicode="&#xc6;" horiz-adv-x="910" 
d="M591 773l-561 -679q-29 -33 -28 -51t61 -23v-20q-13 2 -37 2.5t-49 0.5q-18 0 -36.5 -0.5t-30.5 -2.5v20q31 2 86 64l569 689h26zM222 346l19 20h492l-4 -20h-507zM662 366q45 0 66 34.5t37 77.5h22q-13 -39 -19.5 -64.5t-14.5 -57.5q-6 -22 -11.5 -47t-14.5 -75h-22
q0 23 4 48t-4.5 43.5t-46.5 20.5zM535 106q-14 -55 -3 -69t60 -14h53q48 0 79.5 17t54.5 55.5t45 104.5h22q-5 -13 -10.5 -32t-10.5 -40q-5 -19 -13 -54.5t-13 -73.5q-51 2 -113.5 2.5t-112.5 0.5h-96t-127 -0.5t-125 -2.5l4 20q34 2 53 8t30 24t20 54l132 496
q14 55 2.5 69.5t-61.5 16.5l5 20q58 -1 124.5 -2t126.5 -1h96q46 0 103 0.5t104 2.5q-13 -35 -23 -68t-15 -50q-5 -18 -8 -34.5l-5 -27.5h-22q16 89 -2.5 123t-78.5 34h-43q-33 0 -51.5 -5.5t-28.5 -23t-20 -54.5z" />
    <glyph glyph-name="Ccedilla" unicode="&#xc7;" horiz-adv-x="708" 
d="M768 708q-15 -39 -31 -94.5t-33 -135.5h-22q9 50 9.5 90t-16.5 69q-19 33 -46 45t-64 12q-48 0 -92.5 -24.5t-81.5 -69t-65 -103.5t-43.5 -129t-15.5 -145q0 -104 35.5 -151.5t95.5 -47.5q33 0 68.5 15t61.5 43q27 29 46.5 64.5t43.5 93.5h22q-25 -91 -38.5 -146.5
t-20.5 -93.5h-22q3 21 3 34q0 20 -8 24.5t-25 -7.5q-40 -28 -90 -46.5t-110 -18.5q-153 0 -222.5 68t-69.5 188q0 72 24 141.5t69 130.5t108 108t140.5 73.5t165.5 26.5q60 0 93 -19.5t55 -45.5q13 -16 26.5 -3t28.5 54h21zM352 7l-28 -64q31 12 62 12q34 0 55.5 -12.5
t21.5 -40.5q0 -33 -27 -52.5t-68.5 -28.5t-85.5 -9q-38 0 -69.5 6.5t-46.5 11.5l6 16q9 -2 34 -6t47 -4q16 0 35 3t33 12t14 27q0 23 -28 23q-5 0 -14 -1.5t-17 -5.5l49 113h27z" />
    <glyph glyph-name="Egrave" unicode="&#xc8;" horiz-adv-x="637" 
d="M242 346l4 20h214l-4 -20h-214zM349 366q33 0 61 16t49.5 41.5t32.5 54.5h22q-13 -39 -19.5 -64.5t-14.5 -57.5q-5 -20 -9 -35.5t-7.5 -34.5t-9.5 -52h-22q0 23 -8.5 49t-29.5 44.5t-59 18.5zM618 528q1 59 -13 93.5t-41 49t-67 14.5h-3q-33 0 -51.5 -5.5t-28.5 -23
t-20 -54.5l-132 -496q-14 -55 -3 -69t60 -14h13q48 0 85 17t69.5 55.5t64.5 104.5h22q-5 -13 -10.5 -32t-10.5 -40q-5 -19 -13 -54.5t-13 -73.5q-51 2 -113.5 2.5t-112.5 0.5h-96t-127 -0.5t-125 -2.5l4 20q34 2 53 8t30 24t20 54l132 496q14 55 2.5 69.5t-61.5 16.5l5 20
q58 -1 124.5 -2t126.5 -1h96q46 0 103 0.5t104 2.5q-13 -35 -21.5 -59.5t-16.5 -58.5q-4 -18 -7.5 -34t-5.5 -28h-22zM490 772q-58 18 -97 24.5t-65.5 10.5t-49.5 16q-25 13 -35 37.5t2 48.5q14 28 43 34.5t51 -4.5q25 -11 42 -31.5t42.5 -51t73.5 -72.5z" />
    <glyph glyph-name="Eacute" unicode="&#xc9;" horiz-adv-x="637" 
d="M242 346l4 20h214l-4 -20h-214zM349 366q33 0 61 16t49.5 41.5t32.5 54.5h22q-13 -39 -19.5 -64.5t-14.5 -57.5q-5 -20 -9 -35.5t-7.5 -34.5t-9.5 -52h-22q0 23 -8.5 49t-29.5 44.5t-59 18.5zM618 528q1 59 -13 93.5t-41 49t-67 14.5h-3q-33 0 -51.5 -5.5t-28.5 -23
t-20 -54.5l-132 -496q-14 -55 -3 -69t60 -14h13q48 0 85 17t69.5 55.5t64.5 104.5h22q-5 -13 -10.5 -32t-10.5 -40q-5 -19 -13 -54.5t-13 -73.5q-51 2 -113.5 2.5t-112.5 0.5h-96t-127 -0.5t-125 -2.5l4 20q34 2 53 8t30 24t20 54l132 496q14 55 2.5 69.5t-61.5 16.5l5 20
q58 -1 124.5 -2t126.5 -1h96q46 0 103 0.5t104 2.5q-13 -35 -21.5 -59.5t-16.5 -58.5q-4 -18 -7.5 -34t-5.5 -28h-22zM416 784q48 42 78 75.5t54.5 58.5t53.5 40q25 14 58 11.5t50 -34.5q15 -28 0.5 -52t-45.5 -41q-39 -21 -96.5 -31t-145.5 -39z" />
    <glyph glyph-name="Ecircumflex" unicode="&#xca;" horiz-adv-x="637" 
d="M242 346l4 20h214l-4 -20h-214zM349 366q33 0 61 16t49.5 41.5t32.5 54.5h22q-13 -39 -19.5 -64.5t-14.5 -57.5q-5 -20 -9 -35.5t-7.5 -34.5t-9.5 -52h-22q0 23 -8.5 49t-29.5 44.5t-59 18.5zM618 528q1 59 -13 93.5t-41 49t-67 14.5h-3q-33 0 -51.5 -5.5t-28.5 -23
t-20 -54.5l-132 -496q-14 -55 -3 -69t60 -14h13q48 0 85 17t69.5 55.5t64.5 104.5h22q-5 -13 -10.5 -32t-10.5 -40q-5 -19 -13 -54.5t-13 -73.5q-51 2 -113.5 2.5t-112.5 0.5h-96t-127 -0.5t-125 -2.5l4 20q34 2 53 8t30 24t20 54l132 496q14 55 2.5 69.5t-61.5 16.5l5 20
q58 -1 124.5 -2t126.5 -1h96q46 0 103 0.5t104 2.5q-13 -35 -21.5 -59.5t-16.5 -58.5q-4 -18 -7.5 -34t-5.5 -28h-22zM433 824q-46 -16 -103.5 -29.5t-121.5 -24.5l-5 14q91 29 169.5 75.5t125.5 96.5h18q19 -58 49.5 -99t89.5 -73l-4 -14q-75 12 -124.5 25t-93.5 29z" />
    <glyph glyph-name="Edieresis" unicode="&#xcb;" horiz-adv-x="637" 
d="M242 346l4 20h214l-4 -20h-214zM349 366q33 0 61 16t49.5 41.5t32.5 54.5h22q-13 -39 -19.5 -64.5t-14.5 -57.5q-5 -20 -9 -35.5t-7.5 -34.5t-9.5 -52h-22q0 23 -8.5 49t-29.5 44.5t-59 18.5zM618 528q1 59 -13 93.5t-41 49t-67 14.5h-3q-33 0 -51.5 -5.5t-28.5 -23
t-20 -54.5l-132 -496q-14 -55 -3 -69t60 -14h13q48 0 85 17t69.5 55.5t64.5 104.5h22q-5 -13 -10.5 -32t-10.5 -40q-5 -19 -13 -54.5t-13 -73.5q-51 2 -113.5 2.5t-112.5 0.5h-96t-127 -0.5t-125 -2.5l4 20q34 2 53 8t30 24t20 54l132 496q14 55 2.5 69.5t-61.5 16.5l5 20
q58 -1 124.5 -2t126.5 -1h96q46 0 103 0.5t104 2.5q-13 -35 -21.5 -59.5t-16.5 -58.5q-4 -18 -7.5 -34t-5.5 -28h-22zM230 838q0 52 30.5 75t68.5 23q40 0 57.5 -21.5t17.5 -56.5q0 -52 -31.5 -74t-68.5 -22q-40 0 -57 21t-17 55zM488 838q0 52 30.5 75t68.5 23
q40 0 57.5 -21.5t17.5 -56.5q0 -52 -31.5 -74t-68.5 -22q-40 0 -57 21t-17 55z" />
    <glyph glyph-name="Igrave" unicode="&#xcc;" horiz-adv-x="422" 
d="M262 106q-14 -55 -3 -69.5t62 -16.5l-4 -20q-32 2 -83 2.5t-104 0.5q-54 0 -101 -0.5t-76 -2.5l5 20q33 2 51.5 8t29.5 24t20 54l132 496q14 55 2.5 69.5t-61.5 16.5l5 20q28 -1 75.5 -2t101.5 -1q53 0 102 1t86 2l-5 -20q-34 -1 -53 -7.5t-29.5 -24t-20.5 -54.5z
M396 772q-58 18 -97 24.5t-65.5 10.5t-49.5 16q-25 13 -35 37.5t2 48.5q14 28 43 34.5t51 -4.5q25 -11 42 -31.5t42.5 -51t73.5 -72.5z" />
    <glyph glyph-name="Iacute" unicode="&#xcd;" horiz-adv-x="422" 
d="M262 106q-14 -55 -3 -69.5t62 -16.5l-4 -20q-32 2 -83 2.5t-104 0.5q-54 0 -101 -0.5t-76 -2.5l5 20q33 2 51.5 8t29.5 24t20 54l132 496q14 55 2.5 69.5t-61.5 16.5l5 20q28 -1 75.5 -2t101.5 -1q53 0 102 1t86 2l-5 -20q-34 -1 -53 -7.5t-29.5 -24t-20.5 -54.5z
M322 784q48 42 78 75.5t54.5 58.5t53.5 40q25 14 58 11.5t50 -34.5q15 -28 0.5 -52t-45.5 -41q-39 -21 -96.5 -31t-145.5 -39z" />
    <glyph glyph-name="Icircumflex" unicode="&#xce;" horiz-adv-x="422" 
d="M262 106q-14 -55 -3 -69.5t62 -16.5l-4 -20q-32 2 -83 2.5t-104 0.5q-54 0 -101 -0.5t-76 -2.5l5 20q33 2 51.5 8t29.5 24t20 54l132 496q14 55 2.5 69.5t-61.5 16.5l5 20q28 -1 75.5 -2t101.5 -1q53 0 102 1t86 2l-5 -20q-34 -1 -53 -7.5t-29.5 -24t-20.5 -54.5z
M339 824q-46 -16 -103.5 -29.5t-121.5 -24.5l-5 14q91 29 169.5 75.5t125.5 96.5h18q19 -58 49.5 -99t89.5 -73l-4 -14q-75 12 -124.5 25t-93.5 29z" />
    <glyph glyph-name="Idieresis" unicode="&#xcf;" horiz-adv-x="422" 
d="M262 106q-14 -55 -3 -69.5t62 -16.5l-4 -20q-32 2 -83 2.5t-104 0.5q-54 0 -101 -0.5t-76 -2.5l5 20q33 2 51.5 8t29.5 24t20 54l132 496q14 55 2.5 69.5t-61.5 16.5l5 20q28 -1 75.5 -2t101.5 -1q53 0 102 1t86 2l-5 -20q-34 -1 -53 -7.5t-29.5 -24t-20.5 -54.5z
M136 838q0 52 30.5 75t68.5 23q40 0 57.5 -21.5t17.5 -56.5q0 -52 -31.5 -74t-68.5 -22q-40 0 -57 21t-17 55zM394 838q0 52 30.5 75t68.5 23q40 0 57.5 -21.5t17.5 -56.5q0 -52 -31.5 -74t-68.5 -22q-40 0 -57 21t-17 55z" />
    <glyph glyph-name="Eth" unicode="&#xd0;" horiz-adv-x="802" 
d="M791 457q0 -59 -17 -122.5t-54 -123t-96 -107.5t-143 -76t-196 -28q-25 0 -61 1.5t-97 1.5q-23 0 -55.5 -0.5t-63.5 -1t-51 -1.5l3 20q32 2 50.5 8t29.5 24t20 54l131 496q10 38 2 60.5t-60 25.5l3 20q21 -1 54 -2t70 -1h68q14 1 42 1.5t57.5 1t48.5 0.5q147 0 231 -62.5
t84 -188.5zM293 18q70 0 124 44.5t91.5 116t57 154.5t19.5 160q0 95 -30 146t-97 51q-22 0 -32 -6t-16 -24t-16 -56l-131 -500q-13 -51 -11 -68.5t41 -17.5zM457 366l-6 -25h-432l6 25h432z" />
    <glyph glyph-name="Ntilde" unicode="&#xd1;" horiz-adv-x="861" 
d="M543 -5l-268 488l2 18t4 41.5t4 41.5l2 18q8 37 5.5 54.5t-20 24t-56.5 7.5l5 20q16 -1 39.5 -2t49.5 -1q47 0 81 3l224 -436l-5 -28t-12.5 -69t-15 -82.5t-12.5 -69.5l-5 -28h-22zM851 737q-25 0 -47 -16t-38 -39q-46 -68 -94 -239t-107 -448l-14 28q18 84 40.5 182.5
t47.5 193.5t52.5 172t56.5 119q19 27 45 45.5t63 18.5q53 0 85 -31t32 -76q0 -48 -32.5 -76.5t-79.5 -28.5q-40 0 -64.5 19.5t-24.5 54.5q0 45 30 75.5t74 37.5q-4 4 -10.5 6t-14.5 2zM37 -57q28 0 49 15.5t37 40.5q29 46 58.5 144t60 237t61.5 305l17 -21
q-20 -102 -42 -208t-45.5 -201t-47 -165.5t-46.5 -100.5q-18 -24 -42.5 -43.5t-64.5 -19.5q-53 0 -85 31t-32 76q0 48 33 76.5t79 28.5q41 0 65 -19.5t24 -54.5q0 -45 -30 -75t-74 -38q4 -4 10.5 -6t14.5 -2zM509 948q39 0 65 -11t46 -25.5t40.5 -25.5t49.5 -11
q23 0 43 13.5t39 44.5l18 -5q-32 -87 -84.5 -125t-105.5 -38q-39 0 -65 11t-46 25.5t-40.5 25.5t-49.5 11q-23 0 -42.5 -13t-39.5 -45l-18 5q32 87 84.5 125t105.5 38z" />
    <glyph glyph-name="Ograve" unicode="&#xd2;" horiz-adv-x="809" 
d="M502 704q-49 0 -94 -42t-80.5 -113t-56.5 -158.5t-21 -177.5q0 -98 25 -153.5t63 -55.5q49 0 94 42t80.5 113t56.5 158.5t21 177.5q0 98 -25 153.5t-63 55.5zM34 226q0 66 22 136t63 134t99.5 115t132.5 81t160 30q138 0 217 -62.5t79 -178.5q0 -66 -22 -135.5
t-63.5 -133.5t-100.5 -115t-132.5 -81t-159.5 -30q-138 0 -216.5 62.5t-78.5 177.5zM568 772q-58 18 -97 24.5t-65.5 10.5t-49.5 16q-25 13 -35 37.5t2 48.5q14 28 43 34.5t51 -4.5q25 -11 42 -31.5t42.5 -51t73.5 -72.5z" />
    <glyph glyph-name="Oacute" unicode="&#xd3;" horiz-adv-x="809" 
d="M502 704q-49 0 -94 -42t-80.5 -113t-56.5 -158.5t-21 -177.5q0 -98 25 -153.5t63 -55.5q49 0 94 42t80.5 113t56.5 158.5t21 177.5q0 98 -25 153.5t-63 55.5zM34 226q0 66 22 136t63 134t99.5 115t132.5 81t160 30q138 0 217 -62.5t79 -178.5q0 -66 -22 -135.5
t-63.5 -133.5t-100.5 -115t-132.5 -81t-159.5 -30q-138 0 -216.5 62.5t-78.5 177.5zM494 784q48 42 78 75.5t54.5 58.5t53.5 40q25 14 58 11.5t50 -34.5q15 -28 0.5 -52t-45.5 -41q-39 -21 -96.5 -31t-145.5 -39z" />
    <glyph glyph-name="Ocircumflex" unicode="&#xd4;" horiz-adv-x="809" 
d="M502 704q-49 0 -94 -42t-80.5 -113t-56.5 -158.5t-21 -177.5q0 -98 25 -153.5t63 -55.5q49 0 94 42t80.5 113t56.5 158.5t21 177.5q0 98 -25 153.5t-63 55.5zM34 226q0 66 22 136t63 134t99.5 115t132.5 81t160 30q138 0 217 -62.5t79 -178.5q0 -66 -22 -135.5
t-63.5 -133.5t-100.5 -115t-132.5 -81t-159.5 -30q-138 0 -216.5 62.5t-78.5 177.5zM511 824q-46 -16 -103.5 -29.5t-121.5 -24.5l-5 14q91 29 169.5 75.5t125.5 96.5h18q19 -58 49.5 -99t89.5 -73l-4 -14q-75 12 -124.5 25t-93.5 29z" />
    <glyph glyph-name="Otilde" unicode="&#xd5;" horiz-adv-x="809" 
d="M502 704q-49 0 -94 -42t-80.5 -113t-56.5 -158.5t-21 -177.5q0 -98 25 -153.5t63 -55.5q49 0 94 42t80.5 113t56.5 158.5t21 177.5q0 98 -25 153.5t-63 55.5zM34 226q0 66 22 136t63 134t99.5 115t132.5 81t160 30q138 0 217 -62.5t79 -178.5q0 -66 -22 -135.5
t-63.5 -133.5t-100.5 -115t-132.5 -81t-159.5 -30q-138 0 -216.5 62.5t-78.5 177.5zM483 948q39 0 65 -11t46 -25.5t40.5 -25.5t49.5 -11q23 0 43 13.5t39 44.5l18 -5q-32 -87 -84.5 -125t-105.5 -38q-39 0 -65 11t-46 25.5t-40.5 25.5t-49.5 11q-23 0 -42.5 -13t-39.5 -45
l-18 5q32 87 84.5 125t105.5 38z" />
    <glyph glyph-name="Odieresis" unicode="&#xd6;" horiz-adv-x="809" 
d="M502 704q-49 0 -94 -42t-80.5 -113t-56.5 -158.5t-21 -177.5q0 -98 25 -153.5t63 -55.5q49 0 94 42t80.5 113t56.5 158.5t21 177.5q0 98 -25 153.5t-63 55.5zM34 226q0 66 22 136t63 134t99.5 115t132.5 81t160 30q138 0 217 -62.5t79 -178.5q0 -66 -22 -135.5
t-63.5 -133.5t-100.5 -115t-132.5 -81t-159.5 -30q-138 0 -216.5 62.5t-78.5 177.5zM308 838q0 52 30.5 75t68.5 23q40 0 57.5 -21.5t17.5 -56.5q0 -52 -31.5 -74t-68.5 -22q-40 0 -57 21t-17 55zM566 838q0 52 30.5 75t68.5 23q40 0 57.5 -21.5t17.5 -56.5q0 -52 -31.5 -74
t-68.5 -22q-40 0 -57 21t-17 55z" />
    <glyph glyph-name="multiply" unicode="&#xd7;" horiz-adv-x="485" 
d="M13 182l223 173l-125 175l26 18l123 -175l227 177l16 -22l-227 -176l125 -173l-25 -18l-124 173l-224 -174z" />
    <glyph glyph-name="Oslash" unicode="&#xd8;" horiz-adv-x="809" 
d="M502 704q-49 0 -94 -42t-80.5 -113t-56.5 -158.5t-21 -177.5q0 -98 25 -153.5t63 -55.5q49 0 94 42t80.5 113t56.5 158.5t21 177.5q0 98 -25 153.5t-63 55.5zM34 226q0 66 22 136t63 134t99.5 115t132.5 81t160 30q138 0 217 -62.5t79 -178.5q0 -66 -22 -135.5
t-63.5 -133.5t-100.5 -115t-132.5 -81t-159.5 -30q-138 0 -216.5 62.5t-78.5 177.5zM666 632l135 141l15 -13l-140 -148zM170 74l-144 -147l-17 14l148 151zM199 96l450 536l10 -20l-447 -534z" />
    <glyph glyph-name="Ugrave" unicode="&#xd9;" horiz-adv-x="702" 
d="M651 512q18 67 21.5 102.5t-14 51.5t-63.5 22l6 20q20 -1 51.5 -2t59.5 -1q23 0 45.5 1t38.5 2l-6 -20q-32 -6 -51 -21t-32.5 -46.5t-28.5 -88.5l-62 -241q-36 -138 -98 -212q-36 -42 -89.5 -67.5t-115.5 -25.5q-91 0 -145 27t-77 68q-20 38 -20.5 87.5t18.5 119.5
l83 314q14 55 2.5 69.5t-61.5 16.5l6 20q29 -1 80.5 -2t108.5 -1q50 0 95 1t80 2l-6 -20q-34 -1 -53 -7.5t-29.5 -24t-20.5 -54.5l-88 -331q-24 -91 -24.5 -146t18.5 -79.5t52 -24.5q75 0 125 33.5t82 92.5t51 133zM557 772q-58 18 -97 24.5t-65.5 10.5t-49.5 16
q-25 13 -35 37.5t2 48.5q14 28 43 34.5t51 -4.5q25 -11 42 -31.5t42.5 -51t73.5 -72.5z" />
    <glyph glyph-name="Uacute" unicode="&#xda;" horiz-adv-x="702" 
d="M651 512q18 67 21.5 102.5t-14 51.5t-63.5 22l6 20q20 -1 51.5 -2t59.5 -1q23 0 45.5 1t38.5 2l-6 -20q-32 -6 -51 -21t-32.5 -46.5t-28.5 -88.5l-62 -241q-36 -138 -98 -212q-36 -42 -89.5 -67.5t-115.5 -25.5q-91 0 -145 27t-77 68q-20 38 -20.5 87.5t18.5 119.5
l83 314q14 55 2.5 69.5t-61.5 16.5l6 20q29 -1 80.5 -2t108.5 -1q50 0 95 1t80 2l-6 -20q-34 -1 -53 -7.5t-29.5 -24t-20.5 -54.5l-88 -331q-24 -91 -24.5 -146t18.5 -79.5t52 -24.5q75 0 125 33.5t82 92.5t51 133zM483 784q48 42 78 75.5t54.5 58.5t53.5 40q25 14 58 11.5
t50 -34.5q15 -28 0.5 -52t-45.5 -41q-39 -21 -96.5 -31t-145.5 -39z" />
    <glyph glyph-name="Ucircumflex" unicode="&#xdb;" horiz-adv-x="702" 
d="M651 512q18 67 21.5 102.5t-14 51.5t-63.5 22l6 20q20 -1 51.5 -2t59.5 -1q23 0 45.5 1t38.5 2l-6 -20q-32 -6 -51 -21t-32.5 -46.5t-28.5 -88.5l-62 -241q-36 -138 -98 -212q-36 -42 -89.5 -67.5t-115.5 -25.5q-91 0 -145 27t-77 68q-20 38 -20.5 87.5t18.5 119.5
l83 314q14 55 2.5 69.5t-61.5 16.5l6 20q29 -1 80.5 -2t108.5 -1q50 0 95 1t80 2l-6 -20q-34 -1 -53 -7.5t-29.5 -24t-20.5 -54.5l-88 -331q-24 -91 -24.5 -146t18.5 -79.5t52 -24.5q75 0 125 33.5t82 92.5t51 133zM500 824q-46 -16 -103.5 -29.5t-121.5 -24.5l-5 14
q91 29 169.5 75.5t125.5 96.5h18q19 -58 49.5 -99t89.5 -73l-4 -14q-75 12 -124.5 25t-93.5 29z" />
    <glyph glyph-name="Udieresis" unicode="&#xdc;" horiz-adv-x="702" 
d="M651 512q18 67 21.5 102.5t-14 51.5t-63.5 22l6 20q20 -1 51.5 -2t59.5 -1q23 0 45.5 1t38.5 2l-6 -20q-32 -6 -51 -21t-32.5 -46.5t-28.5 -88.5l-62 -241q-36 -138 -98 -212q-36 -42 -89.5 -67.5t-115.5 -25.5q-91 0 -145 27t-77 68q-20 38 -20.5 87.5t18.5 119.5
l83 314q14 55 2.5 69.5t-61.5 16.5l6 20q29 -1 80.5 -2t108.5 -1q50 0 95 1t80 2l-6 -20q-34 -1 -53 -7.5t-29.5 -24t-20.5 -54.5l-88 -331q-24 -91 -24.5 -146t18.5 -79.5t52 -24.5q75 0 125 33.5t82 92.5t51 133zM297 838q0 52 30.5 75t68.5 23q40 0 57.5 -21.5
t17.5 -56.5q0 -52 -31.5 -74t-68.5 -22q-40 0 -57 21t-17 55zM555 838q0 52 30.5 75t68.5 23q40 0 57.5 -21.5t17.5 -56.5q0 -52 -31.5 -74t-68.5 -22q-40 0 -57 21t-17 55z" />
    <glyph glyph-name="Yacute" unicode="&#xdd;" horiz-adv-x="776" 
d="M422 106q-13 -55 7.5 -69.5t71.5 -16.5l-5 -20q-21 1 -55.5 1.5t-74 1t-74.5 0.5q-54 0 -103 -0.5t-78 -2.5l5 20q34 2 53 8t30 24t20 54l69 274l85 -63l93 19l34 80zM732 705q-16 0 -30.5 -5t-33.5 -19q-25 -18 -62.5 -72t-75.5 -140t-67 -199l-188 -5q-4 47 -11 98
t-17.5 99.5t-24 88t-29.5 62.5t-36 23q-19 0 -29.5 -15.5t-15.5 -31.5l-17 -51h-11h-11l21 64q23 69 70 94.5t99 25.5q77 0 117 -40.5t58.5 -119.5t31.5 -193q31 95 69 169.5t79 123.5q23 27 52.5 43.5t66.5 16.5q53 0 85 -31t32 -76q0 -48 -32.5 -76.5t-79.5 -28.5
q-40 0 -64.5 19.5t-24.5 54.5q0 45 30 75.5t74 37.5q-4 4 -10.5 6t-14.5 2zM473 784q48 42 78 75.5t54.5 58.5t53.5 40q25 14 58 11.5t50 -34.5q15 -28 0.5 -52t-45.5 -41q-39 -21 -96.5 -31t-145.5 -39z" />
    <glyph glyph-name="Thorn" unicode="&#xde;" horiz-adv-x="698" 
d="M297 553q36 0 72.5 1t73.5 1q132 0 195.5 -41.5t63.5 -109.5q0 -78 -55 -139.5t-153.5 -97t-228.5 -35.5h-40l2.5 10l2.5 10h45q73 0 120.5 39.5t71.5 101t24 127.5q0 50 -25 83t-72 33q-24 0 -38.5 -1t-26.5 -2t-31 -3zM262 106q-14 -55 -3 -69.5t62 -16.5l-4 -20
q-32 2 -83 2.5t-104 0.5q-54 0 -101 -0.5t-76 -2.5l5 20q33 2 51.5 8t29.5 24t20 54l132 496q14 55 2.5 69.5t-61.5 16.5l5 20q28 -1 75.5 -2t101.5 -1q53 0 102 1t86 2l-5 -20q-34 -1 -53 -7.5t-29.5 -24t-20.5 -54.5z" />
    <glyph glyph-name="germandbls" unicode="&#xdf;" horiz-adv-x="648" 
d="M420 767q-33 0 -54.5 -34.5t-38.5 -96.5l-213 -810q-51 -1 -95.5 -4t-84.5 -10l186 703q24 92 63 151t101.5 87.5t156.5 28.5q120 0 169.5 -31t49.5 -67q0 -37 -29 -63t-77 -54t-105 -73q-44 -34 -52 -48.5t-8 -23.5q0 -24 17.5 -46t43 -43t49.5 -42q44 -37 72 -65.5
t28 -75.5q0 -57 -33 -93t-86 -53.5t-112 -17.5q-48 0 -80.5 16t-49 43.5t-16.5 61.5q0 35 19 63t52 28q21 0 36.5 -12.5t24 -34t8.5 -49.5q0 -25 -9 -51.5t-26 -42.5q2 -1 5.5 -1.5t8.5 -0.5q23 0 38.5 26.5t15.5 66.5q0 35 -7 62t-17 60q-9 31 -21 70.5t-12 71.5
q0 30 11 50.5t31.5 40.5t46.5 47q37 38 48.5 86.5t11.5 90.5q0 50 -20.5 69.5t-46.5 19.5z" />
    <glyph glyph-name="agrave" unicode="&#xe0;" horiz-adv-x="582" 
d="M204 54q10 0 21 8t23 27.5t26 54.5t30 90l-26 -109q-25 -80 -66.5 -109.5t-94.5 -29.5q-63 0 -93.5 32.5t-30.5 92.5q0 58 19.5 118t53 114.5t75 97t86.5 67.5t87 25q32 0 49.5 -20t12.5 -71l-11 -6q5 25 0 36.5t-17 11.5q-21 0 -49.5 -33t-55 -87.5t-44.5 -121.5
t-18 -135q0 -28 5 -40.5t18 -12.5zM389 518q55 1 97.5 4.5t83.5 10.5l-135 -448q-5 -16 -4.5 -25.5t5 -13t11.5 -3.5q9 0 23 10.5t30 52.5l21 56h19l-25 -73q-22 -63 -62.5 -83t-80.5 -20q-61 0 -87 35q-15 21 -16.5 55t12.5 82zM387 599q-40 46 -70 72t-50.5 43.5
t-33.5 39.5q-14 23 -9.5 49.5t26.5 40.5q26 17 54.5 7t41.5 -30q15 -22 19 -49t9.5 -66t24.5 -100z" />
    <glyph glyph-name="aacute" unicode="&#xe1;" horiz-adv-x="582" 
d="M204 54q10 0 21 8t23 27.5t26 54.5t30 90l-26 -109q-25 -80 -66.5 -109.5t-94.5 -29.5q-63 0 -93.5 32.5t-30.5 92.5q0 58 19.5 118t53 114.5t75 97t86.5 67.5t87 25q32 0 49.5 -20t12.5 -71l-11 -6q5 25 0 36.5t-17 11.5q-21 0 -49.5 -33t-55 -87.5t-44.5 -121.5
t-18 -135q0 -28 5 -40.5t18 -12.5zM389 518q55 1 97.5 4.5t83.5 10.5l-135 -448q-5 -16 -4.5 -25.5t5 -13t11.5 -3.5q9 0 23 10.5t30 52.5l21 56h19l-25 -73q-22 -63 -62.5 -83t-80.5 -20q-61 0 -87 35q-15 21 -16.5 55t12.5 82zM328 609q34 54 53.5 94.5t35.5 71t39 53.5
q20 20 52.5 27.5t57.5 -18.5q23 -22 16 -49t-32 -52q-21 -21 -51 -39t-70 -40.5t-91 -57.5z" />
    <glyph glyph-name="acircumflex" unicode="&#xe2;" horiz-adv-x="582" 
d="M204 54q10 0 21 8t23 27.5t26 54.5t30 90l-26 -109q-25 -80 -66.5 -109.5t-94.5 -29.5q-63 0 -93.5 32.5t-30.5 92.5q0 58 19.5 118t53 114.5t75 97t86.5 67.5t87 25q32 0 49.5 -20t12.5 -71l-11 -6q5 25 0 36.5t-17 11.5q-21 0 -49.5 -33t-55 -87.5t-44.5 -121.5
t-18 -135q0 -28 5 -40.5t18 -12.5zM389 518q55 1 97.5 4.5t83.5 10.5l-135 -448q-5 -16 -4.5 -25.5t5 -13t11.5 -3.5q9 0 23 10.5t30 52.5l21 56h19l-25 -73q-22 -63 -62.5 -83t-80.5 -20q-61 0 -87 35q-15 21 -16.5 55t12.5 82zM370 660q-37 -16 -85 -29.5t-100 -24.5
l-5 14q79 35 146.5 92.5t108.5 119.5h18q16 -73 42.5 -123.5t76.5 -88.5l-4 -14q-67 12 -112.5 25t-85.5 29z" />
    <glyph glyph-name="atilde" unicode="&#xe3;" horiz-adv-x="582" 
d="M204 54q10 0 21 8t23 27.5t26 54.5t30 90l-26 -109q-25 -80 -66.5 -109.5t-94.5 -29.5q-63 0 -93.5 32.5t-30.5 92.5q0 58 19.5 118t53 114.5t75 97t86.5 67.5t87 25q32 0 49.5 -20t12.5 -71l-11 -6q5 25 0 36.5t-17 11.5q-21 0 -49.5 -33t-55 -87.5t-44.5 -121.5
t-18 -135q0 -28 5 -40.5t18 -12.5zM389 518q55 1 97.5 4.5t83.5 10.5l-135 -448q-5 -16 -4.5 -25.5t5 -13t11.5 -3.5q9 0 23 10.5t30 52.5l21 56h19l-25 -73q-22 -63 -62.5 -83t-80.5 -20q-61 0 -87 35q-15 21 -16.5 55t12.5 82zM373 798q30 0 49.5 -11t34.5 -25.5
t30.5 -25.5t36.5 -11q20 0 37.5 13.5t34.5 44.5l18 -5q-29 -87 -76 -125t-94 -38q-30 0 -49.5 11t-34.5 25.5t-30.5 25.5t-36.5 11q-20 0 -37.5 -13t-34.5 -45l-18 5q29 87 76 125t94 38z" />
    <glyph glyph-name="adieresis" unicode="&#xe4;" horiz-adv-x="582" 
d="M204 54q10 0 21 8t23 27.5t26 54.5t30 90l-26 -109q-25 -80 -66.5 -109.5t-94.5 -29.5q-63 0 -93.5 32.5t-30.5 92.5q0 58 19.5 118t53 114.5t75 97t86.5 67.5t87 25q32 0 49.5 -20t12.5 -71l-11 -6q5 25 0 36.5t-17 11.5q-21 0 -49.5 -33t-55 -87.5t-44.5 -121.5
t-18 -135q0 -28 5 -40.5t18 -12.5zM389 518q55 1 97.5 4.5t83.5 10.5l-135 -448q-5 -16 -4.5 -25.5t5 -13t11.5 -3.5q9 0 23 10.5t30 52.5l21 56h19l-25 -73q-22 -63 -62.5 -83t-80.5 -20q-61 0 -87 35q-15 21 -16.5 55t12.5 82zM202 674q0 52 30.5 75t68.5 23
q40 0 57.5 -21.5t17.5 -56.5q0 -52 -31.5 -74t-68.5 -22q-40 0 -57 21t-17 55zM440 674q0 52 30.5 75t68.5 23q40 0 57.5 -21.5t17.5 -56.5q0 -52 -31.5 -74t-68.5 -22q-40 0 -57 21t-17 55z" />
    <glyph glyph-name="aring" unicode="&#xe5;" horiz-adv-x="582" 
d="M204 54q10 0 21 8t23 27.5t26 54.5t30 90l-26 -109q-25 -80 -66.5 -109.5t-94.5 -29.5q-63 0 -93.5 32.5t-30.5 92.5q0 58 19.5 118t53 114.5t75 97t86.5 67.5t87 25q32 0 49.5 -20t12.5 -71l-11 -6q5 25 0 36.5t-17 11.5q-21 0 -49.5 -33t-55 -87.5t-44.5 -121.5
t-18 -135q0 -28 5 -40.5t18 -12.5zM389 518q55 1 97.5 4.5t83.5 10.5l-135 -448q-5 -16 -4.5 -25.5t5 -13t11.5 -3.5q9 0 23 10.5t30 52.5l21 56h19l-25 -73q-22 -63 -62.5 -83t-80.5 -20q-61 0 -87 35q-15 21 -16.5 55t12.5 82zM425 801q45 0 75.5 -24t30.5 -65
q0 -31 -18.5 -57t-49 -41.5t-65.5 -15.5q-43 0 -72.5 24t-29.5 66q0 48 37.5 80.5t91.5 32.5zM403 619q39 0 70.5 26.5t31.5 64.5q0 36 -27 53t-56 17q-40 0 -69.5 -28t-29.5 -64q0 -34 25 -51.5t55 -17.5z" />
    <glyph glyph-name="ae" unicode="&#xe6;" horiz-adv-x="785" 
d="M451 210q29 14 61 30.5t57 38.5q44 40 68.5 94t24.5 116q0 25 -16 25q-25 0 -55 -34t-57 -88t-44 -117t-17 -120q0 -58 23 -77.5t60 -19.5q20 0 60 15t80 55l16 -8q-22 -33 -58 -64t-85 -50.5t-110 -19.5q-70 0 -121.5 35.5t-51.5 105.5q0 59 18.5 117t52.5 110
t81.5 92.5t105.5 63.5t124 23q53 0 88.5 -21.5t35.5 -66.5q0 -38 -20 -71.5t-55 -61t-79 -49.5t-92.5 -38t-95.5 -25zM225 54q19 0 35.5 8.5t38.5 31.5l4 -16q-35 -46 -86.5 -69t-104.5 -23q-63 0 -93.5 32.5t-30.5 92.5q0 55 24 112t66 109t96 92.5t114.5 64.5t120.5 24
q24 0 50.5 -10t34.5 -48l-14 -9q-3 21 -17 29.5t-29 8.5q-40 0 -85 -30.5t-84.5 -82.5t-64 -117.5t-24.5 -136.5q0 -34 15.5 -48.5t33.5 -14.5z" />
    <glyph glyph-name="ccedilla" unicode="&#xe7;" horiz-adv-x="484" 
d="M382 513q-37 0 -72 -31.5t-62 -84t-43 -117t-16 -130.5q0 -54 22 -78t58 -24q29 0 59 17t61 63l20 -8q-21 -33 -52.5 -64t-75 -50.5t-101.5 -19.5q-76 0 -127 38t-51 120q0 65 25.5 133t73.5 126t116 94t152 36q62 0 96 -31t34 -73q0 -32 -16 -62t-42.5 -49.5
t-58.5 -19.5q-26 0 -47 18t-21 52q0 49 31 85t71 48q-7 6 -15 9t-19 3zM197 0l-50 -67q14 5 30.5 8.5t31.5 3.5q29 0 50.5 -10t21.5 -33q0 -33 -28.5 -52.5t-72.5 -28.5t-90 -9q-33 0 -58.5 6.5t-37.5 11.5l6 16l24 -6t37 -4q12 0 31.5 3t35 12t15.5 27q0 23 -28 23
q-5 0 -14 -1.5t-17 -5.5l84 106h29z" />
    <glyph glyph-name="egrave" unicode="&#xe8;" horiz-adv-x="496" 
d="M162 210q32 15 63 36t57 46q40 39 65.5 89t25.5 108q0 14 -4 19.5t-12 5.5q-25 0 -55 -34t-57 -88t-44 -117t-17 -120q0 -58 23 -77.5t60 -19.5q20 0 60 15t80 55l16 -8q-22 -33 -58 -64t-85 -50.5t-110 -19.5q-70 0 -121.5 35.5t-51.5 105.5q0 59 18.5 117t52.5 110
t81.5 92.5t105.5 63.5t124 23q53 0 88.5 -21.5t35.5 -66.5q0 -38 -20 -71.5t-55 -61t-79 -49.5t-92.5 -38t-95.5 -25zM366 599q-40 46 -70 72t-50.5 43.5t-33.5 39.5q-14 23 -9.5 49.5t26.5 40.5q26 17 54.5 7t41.5 -30q15 -22 19 -49t9.5 -66t24.5 -100z" />
    <glyph glyph-name="eacute" unicode="&#xe9;" horiz-adv-x="496" 
d="M162 210q32 15 63 36t57 46q40 39 65.5 89t25.5 108q0 14 -4 19.5t-12 5.5q-25 0 -55 -34t-57 -88t-44 -117t-17 -120q0 -58 23 -77.5t60 -19.5q20 0 60 15t80 55l16 -8q-22 -33 -58 -64t-85 -50.5t-110 -19.5q-70 0 -121.5 35.5t-51.5 105.5q0 59 18.5 117t52.5 110
t81.5 92.5t105.5 63.5t124 23q53 0 88.5 -21.5t35.5 -66.5q0 -38 -20 -71.5t-55 -61t-79 -49.5t-92.5 -38t-95.5 -25zM307 609q34 54 53.5 94.5t35.5 71t39 53.5q20 20 52.5 27.5t57.5 -18.5q23 -22 16 -49t-32 -52q-21 -21 -51 -39t-70 -40.5t-91 -57.5z" />
    <glyph glyph-name="ecircumflex" unicode="&#xea;" horiz-adv-x="496" 
d="M162 210q32 15 63 36t57 46q40 39 65.5 89t25.5 108q0 14 -4 19.5t-12 5.5q-25 0 -55 -34t-57 -88t-44 -117t-17 -120q0 -58 23 -77.5t60 -19.5q20 0 60 15t80 55l16 -8q-22 -33 -58 -64t-85 -50.5t-110 -19.5q-70 0 -121.5 35.5t-51.5 105.5q0 59 18.5 117t52.5 110
t81.5 92.5t105.5 63.5t124 23q53 0 88.5 -21.5t35.5 -66.5q0 -38 -20 -71.5t-55 -61t-79 -49.5t-92.5 -38t-95.5 -25zM349 660q-37 -16 -85 -29.5t-100 -24.5l-5 14q79 35 146.5 92.5t108.5 119.5h18q16 -73 42.5 -123.5t76.5 -88.5l-4 -14q-67 12 -112.5 25t-85.5 29z" />
    <glyph glyph-name="edieresis" unicode="&#xeb;" horiz-adv-x="496" 
d="M162 210q32 15 63 36t57 46q40 39 65.5 89t25.5 108q0 14 -4 19.5t-12 5.5q-25 0 -55 -34t-57 -88t-44 -117t-17 -120q0 -58 23 -77.5t60 -19.5q20 0 60 15t80 55l16 -8q-22 -33 -58 -64t-85 -50.5t-110 -19.5q-70 0 -121.5 35.5t-51.5 105.5q0 59 18.5 117t52.5 110
t81.5 92.5t105.5 63.5t124 23q53 0 88.5 -21.5t35.5 -66.5q0 -38 -20 -71.5t-55 -61t-79 -49.5t-92.5 -38t-95.5 -25zM181 674q0 52 30.5 75t68.5 23q40 0 57.5 -21.5t17.5 -56.5q0 -52 -31.5 -74t-68.5 -22q-40 0 -57 21t-17 55zM419 674q0 52 30.5 75t68.5 23
q40 0 57.5 -21.5t17.5 -56.5q0 -52 -31.5 -74t-68.5 -22q-40 0 -57 21t-17 55z" />
    <glyph glyph-name="igrave" unicode="&#xec;" horiz-adv-x="335" 
d="M126 434q14 42 -9 42q-15 0 -28 -13.5t-27 -49.5l-23 -61h-19l28 78q20 56 58.5 79.5t90.5 23.5q51 0 75 -22t28 -54t-7 -64l-104 -308q-8 -25 -3 -33.5t15 -8.5q9 0 23 10.5t30 52.5l21 56h19l-25 -73q-22 -63 -62.5 -83t-80.5 -20q-44 0 -71.5 18.5t-33.5 57t13 96.5z
M228 599q-40 46 -70 72t-50.5 43.5t-33.5 39.5q-14 23 -9.5 49.5t26.5 40.5q26 17 54.5 7t41.5 -30q15 -22 19 -49t9.5 -66t24.5 -100z" />
    <glyph glyph-name="iacute" unicode="&#xed;" horiz-adv-x="335" 
d="M126 434q14 42 -9 42q-15 0 -28 -13.5t-27 -49.5l-23 -61h-19l28 78q20 56 58.5 79.5t90.5 23.5q51 0 75 -22t28 -54t-7 -64l-104 -308q-8 -25 -3 -33.5t15 -8.5q9 0 23 10.5t30 52.5l21 56h19l-25 -73q-22 -63 -62.5 -83t-80.5 -20q-44 0 -71.5 18.5t-33.5 57t13 96.5z
M169 609q34 54 53.5 94.5t35.5 71t39 53.5q20 20 52.5 27.5t57.5 -18.5q23 -22 16 -49t-32 -52q-21 -21 -51 -39t-70 -40.5t-91 -57.5z" />
    <glyph glyph-name="icircumflex" unicode="&#xee;" horiz-adv-x="335" 
d="M126 434q14 42 -9 42q-15 0 -28 -13.5t-27 -49.5l-23 -61h-19l28 78q20 56 58.5 79.5t90.5 23.5q51 0 75 -22t28 -54t-7 -64l-104 -308q-8 -25 -3 -33.5t15 -8.5q9 0 23 10.5t30 52.5l21 56h19l-25 -73q-22 -63 -62.5 -83t-80.5 -20q-44 0 -71.5 18.5t-33.5 57t13 96.5z
M211 660q-37 -16 -85 -29.5t-100 -24.5l-5 14q79 35 146.5 92.5t108.5 119.5h18q16 -73 42.5 -123.5t76.5 -88.5l-4 -14q-67 12 -112.5 25t-85.5 29z" />
    <glyph glyph-name="idieresis" unicode="&#xef;" horiz-adv-x="335" 
d="M126 434q14 42 -9 42q-15 0 -28 -13.5t-27 -49.5l-23 -61h-19l28 78q20 56 58.5 79.5t90.5 23.5q51 0 75 -22t28 -54t-7 -64l-104 -308q-8 -25 -3 -33.5t15 -8.5q9 0 23 10.5t30 52.5l21 56h19l-25 -73q-22 -63 -62.5 -83t-80.5 -20q-44 0 -71.5 18.5t-33.5 57t13 96.5z
M43 674q0 52 30.5 75t68.5 23q40 0 57.5 -21.5t17.5 -56.5q0 -52 -31.5 -74t-68.5 -22q-40 0 -57 21t-17 55zM281 674q0 52 30.5 75t68.5 23q40 0 57.5 -21.5t17.5 -56.5q0 -52 -31.5 -74t-68.5 -22q-40 0 -57 21t-17 55z" />
    <glyph glyph-name="eth" unicode="&#xf0;" horiz-adv-x="556" 
d="M344 684l172 76l6 -18l-164 -72zM358 669l-219 -97l-6 18l211 93zM346 421q0 81 -16.5 145.5t-50.5 113.5t-89 85l12 17q96 -30 170.5 -88.5t117 -137t42.5 -168.5q0 -72 -22 -143.5t-66 -130t-109 -93.5t-151 -35q-49 0 -89.5 16t-64.5 53.5t-24 101.5q0 57 20.5 121.5
t60 121.5t96 92.5t128.5 35.5q27 0 43.5 -7t35.5 -27l-7 -12q-9 13 -26.5 19.5t-30.5 6.5q-27 0 -48.5 -28.5t-37.5 -76.5t-27 -106t-16 -118t-5 -112q0 -40 4 -50.5t15 -10.5q27 0 51.5 39.5t43 102.5t29.5 135.5t11 137.5z" />
    <glyph glyph-name="ntilde" unicode="&#xf1;" horiz-adv-x="619" 
d="M180 0h-177l122 434q5 16 6 25t-2.5 13t-12.5 4q-15 0 -28 -13.5t-27 -49.5l-23 -61h-19l28 78q19 53 52 78t85 25q53 0 76.5 -21.5t27.5 -54t-5 -64.5zM203 143q41 122 75.5 198.5t67 118.5t67 57.5t74.5 15.5q50 0 73 -20t24.5 -54.5t-12.5 -76.5l-99 -297
q-10 -28 -2.5 -35t14.5 -7q9 0 23 10.5t30 52.5l21 56h19l-25 -73q-22 -63 -62.5 -83t-80.5 -20q-64 0 -90 36q-15 21 -16.5 52.5t15.5 83.5l86 259q6 18 7.5 30t-0.5 18t-9 6q-20 0 -49 -41.5t-60.5 -110t-61 -151t-51.5 -165.5zM359 798q30 0 49.5 -11t34.5 -25.5
t30.5 -25.5t36.5 -11q20 0 37.5 13.5t34.5 44.5l18 -5q-29 -87 -76 -125t-94 -38q-30 0 -49.5 11t-34.5 25.5t-30.5 25.5t-36.5 11q-20 0 -37.5 -13t-34.5 -45l-18 5q29 87 76 125t94 38z" />
    <glyph glyph-name="ograve" unicode="&#xf2;" horiz-adv-x="557" 
d="M349 513q-17 0 -40 -28.5t-47 -76.5t-44.5 -107t-33 -121t-12.5 -118q0 -31 4.5 -43.5t14.5 -12.5q16 0 38.5 27t46 73t44 104t33.5 121.5t13 123.5q0 38 -5 48t-12 10zM6 156q0 59 20.5 124.5t63.5 123t108.5 93.5t155.5 36q87 0 132.5 -44t45.5 -126
q0 -59 -20.5 -124.5t-63.5 -123t-108.5 -93.5t-155.5 -36q-87 0 -132.5 44t-45.5 126zM373 599q-40 46 -70 72t-50.5 43.5t-33.5 39.5q-14 23 -9.5 49.5t26.5 40.5q26 17 54.5 7t41.5 -30q15 -22 19 -49t9.5 -66t24.5 -100z" />
    <glyph glyph-name="oacute" unicode="&#xf3;" horiz-adv-x="557" 
d="M349 513q-17 0 -40 -28.5t-47 -76.5t-44.5 -107t-33 -121t-12.5 -118q0 -31 4.5 -43.5t14.5 -12.5q16 0 38.5 27t46 73t44 104t33.5 121.5t13 123.5q0 38 -5 48t-12 10zM6 156q0 59 20.5 124.5t63.5 123t108.5 93.5t155.5 36q87 0 132.5 -44t45.5 -126
q0 -59 -20.5 -124.5t-63.5 -123t-108.5 -93.5t-155.5 -36q-87 0 -132.5 44t-45.5 126zM314 609q34 54 53.5 94.5t35.5 71t39 53.5q20 20 52.5 27.5t57.5 -18.5q23 -22 16 -49t-32 -52q-21 -21 -51 -39t-70 -40.5t-91 -57.5z" />
    <glyph glyph-name="ocircumflex" unicode="&#xf4;" horiz-adv-x="557" 
d="M349 513q-17 0 -40 -28.5t-47 -76.5t-44.5 -107t-33 -121t-12.5 -118q0 -31 4.5 -43.5t14.5 -12.5q16 0 38.5 27t46 73t44 104t33.5 121.5t13 123.5q0 38 -5 48t-12 10zM6 156q0 59 20.5 124.5t63.5 123t108.5 93.5t155.5 36q87 0 132.5 -44t45.5 -126
q0 -59 -20.5 -124.5t-63.5 -123t-108.5 -93.5t-155.5 -36q-87 0 -132.5 44t-45.5 126zM356 660q-37 -16 -85 -29.5t-100 -24.5l-5 14q79 35 146.5 92.5t108.5 119.5h18q16 -73 42.5 -123.5t76.5 -88.5l-4 -14q-67 12 -112.5 25t-85.5 29z" />
    <glyph glyph-name="otilde" unicode="&#xf5;" horiz-adv-x="557" 
d="M349 513q-17 0 -40 -28.5t-47 -76.5t-44.5 -107t-33 -121t-12.5 -118q0 -31 4.5 -43.5t14.5 -12.5q16 0 38.5 27t46 73t44 104t33.5 121.5t13 123.5q0 38 -5 48t-12 10zM6 156q0 59 20.5 124.5t63.5 123t108.5 93.5t155.5 36q87 0 132.5 -44t45.5 -126
q0 -59 -20.5 -124.5t-63.5 -123t-108.5 -93.5t-155.5 -36q-87 0 -132.5 44t-45.5 126zM359 798q30 0 49.5 -11t34.5 -25.5t30.5 -25.5t36.5 -11q20 0 37.5 13.5t34.5 44.5l18 -5q-29 -87 -76 -125t-94 -38q-30 0 -49.5 11t-34.5 25.5t-30.5 25.5t-36.5 11q-20 0 -37.5 -13
t-34.5 -45l-18 5q29 87 76 125t94 38z" />
    <glyph glyph-name="odieresis" unicode="&#xf6;" horiz-adv-x="557" 
d="M349 513q-17 0 -40 -28.5t-47 -76.5t-44.5 -107t-33 -121t-12.5 -118q0 -31 4.5 -43.5t14.5 -12.5q16 0 38.5 27t46 73t44 104t33.5 121.5t13 123.5q0 38 -5 48t-12 10zM6 156q0 59 20.5 124.5t63.5 123t108.5 93.5t155.5 36q87 0 132.5 -44t45.5 -126
q0 -59 -20.5 -124.5t-63.5 -123t-108.5 -93.5t-155.5 -36q-87 0 -132.5 44t-45.5 126zM188 674q0 52 30.5 75t68.5 23q40 0 57.5 -21.5t17.5 -56.5q0 -52 -31.5 -74t-68.5 -22q-40 0 -57 21t-17 55zM426 674q0 52 30.5 75t68.5 23q40 0 57.5 -21.5t17.5 -56.5
q0 -52 -31.5 -74t-68.5 -22q-40 0 -57 21t-17 55z" />
    <glyph glyph-name="divide" unicode="&#xf7;" horiz-adv-x="622" 
d="M337 499q7 23 28 39t43 16q23 0 35 -16t5 -39t-28 -39t-44 -16q-22 0 -34 16t-5 39zM254 211q7 23 28 39t43 16q23 0 35 -16t5 -39t-28 -39.5t-44 -16.5q-22 0 -34 16.5t-5 39.5zM72 340l9 30h501l-9 -30h-501z" />
    <glyph glyph-name="oslash" unicode="&#xf8;" horiz-adv-x="557" 
d="M349 513q-17 0 -40 -28.5t-47 -76.5t-44.5 -107t-33 -121t-12.5 -118q0 -31 4.5 -43.5t14.5 -12.5q16 0 38.5 27t46 73t44 104t33.5 121.5t13 123.5q0 38 -5 48t-12 10zM6 156q0 59 20.5 124.5t63.5 123t108.5 93.5t155.5 36q87 0 132.5 -44t45.5 -126
q0 -59 -20.5 -124.5t-63.5 -123t-108.5 -93.5t-155.5 -36q-87 0 -132.5 44t-45.5 126zM381 468l89 141l17 -8l-96 -150zM386 459l-224 -435l-10 18l225 434zM150 24l-72 -113l-16 9l78 122z" />
    <glyph glyph-name="ugrave" unicode="&#xf9;" horiz-adv-x="617" 
d="M391 354q-39 -117 -73 -189.5t-66.5 -111t-67 -53t-74.5 -14.5q-61 0 -83.5 38t2.5 113l97 297q10 29 2.5 35.5t-14.5 6.5q-9 0 -23 -10.5t-30 -52.5l-21 -56h-19l25 73q22 63 62.5 83t80.5 20q45 0 72 -18.5t33 -56.5t-14 -97l-86 -259q-18 -54 2 -54t49 41.5t61 110
t61.5 151.5t51.5 165zM474 85q-7 -23 -5.5 -32.5t14.5 -9.5q15 0 28.5 13.5t26.5 49.5l23 61h19l-28 -78q-20 -56 -59 -79.5t-84 -23.5q-35 0 -56.5 10.5t-32.5 28.5q-12 20 -11.5 46.5t7.5 54.5l103 393q52 1 97 4t84 10zM366 599q-40 46 -70 72t-50.5 43.5t-33.5 39.5
q-14 23 -9.5 49.5t26.5 40.5q26 17 54.5 7t41.5 -30q15 -22 19 -49t9.5 -66t24.5 -100z" />
    <glyph glyph-name="uacute" unicode="&#xfa;" horiz-adv-x="617" 
d="M391 354q-39 -117 -73 -189.5t-66.5 -111t-67 -53t-74.5 -14.5q-61 0 -83.5 38t2.5 113l97 297q10 29 2.5 35.5t-14.5 6.5q-9 0 -23 -10.5t-30 -52.5l-21 -56h-19l25 73q22 63 62.5 83t80.5 20q45 0 72 -18.5t33 -56.5t-14 -97l-86 -259q-18 -54 2 -54t49 41.5t61 110
t61.5 151.5t51.5 165zM474 85q-7 -23 -5.5 -32.5t14.5 -9.5q15 0 28.5 13.5t26.5 49.5l23 61h19l-28 -78q-20 -56 -59 -79.5t-84 -23.5q-35 0 -56.5 10.5t-32.5 28.5q-12 20 -11.5 46.5t7.5 54.5l103 393q52 1 97 4t84 10zM307 609q34 54 53.5 94.5t35.5 71t39 53.5
q20 20 52.5 27.5t57.5 -18.5q23 -22 16 -49t-32 -52q-21 -21 -51 -39t-70 -40.5t-91 -57.5z" />
    <glyph glyph-name="ucircumflex" unicode="&#xfb;" horiz-adv-x="617" 
d="M391 354q-39 -117 -73 -189.5t-66.5 -111t-67 -53t-74.5 -14.5q-61 0 -83.5 38t2.5 113l97 297q10 29 2.5 35.5t-14.5 6.5q-9 0 -23 -10.5t-30 -52.5l-21 -56h-19l25 73q22 63 62.5 83t80.5 20q45 0 72 -18.5t33 -56.5t-14 -97l-86 -259q-18 -54 2 -54t49 41.5t61 110
t61.5 151.5t51.5 165zM474 85q-7 -23 -5.5 -32.5t14.5 -9.5q15 0 28.5 13.5t26.5 49.5l23 61h19l-28 -78q-20 -56 -59 -79.5t-84 -23.5q-35 0 -56.5 10.5t-32.5 28.5q-12 20 -11.5 46.5t7.5 54.5l103 393q52 1 97 4t84 10zM349 660q-37 -16 -85 -29.5t-100 -24.5l-5 14
q79 35 146.5 92.5t108.5 119.5h18q16 -73 42.5 -123.5t76.5 -88.5l-4 -14q-67 12 -112.5 25t-85.5 29z" />
    <glyph glyph-name="udieresis" unicode="&#xfc;" horiz-adv-x="617" 
d="M391 354q-39 -117 -73 -189.5t-66.5 -111t-67 -53t-74.5 -14.5q-61 0 -83.5 38t2.5 113l97 297q10 29 2.5 35.5t-14.5 6.5q-9 0 -23 -10.5t-30 -52.5l-21 -56h-19l25 73q22 63 62.5 83t80.5 20q45 0 72 -18.5t33 -56.5t-14 -97l-86 -259q-18 -54 2 -54t49 41.5t61 110
t61.5 151.5t51.5 165zM474 85q-7 -23 -5.5 -32.5t14.5 -9.5q15 0 28.5 13.5t26.5 49.5l23 61h19l-28 -78q-20 -56 -59 -79.5t-84 -23.5q-35 0 -56.5 10.5t-32.5 28.5q-12 20 -11.5 46.5t7.5 54.5l103 393q52 1 97 4t84 10zM181 674q0 52 30.5 75t68.5 23q40 0 57.5 -21.5
t17.5 -56.5q0 -52 -31.5 -74t-68.5 -22q-40 0 -57 21t-17 55zM419 674q0 52 30.5 75t68.5 23q40 0 57.5 -21.5t17.5 -56.5q0 -52 -31.5 -74t-68.5 -22q-40 0 -57 21t-17 55z" />
    <glyph glyph-name="yacute" unicode="&#xfd;" horiz-adv-x="483" 
d="M323 75l-133 -153l-84 511q-4 25 -8 34t-13 9q-10 0 -17.5 -11.5t-22.5 -51.5l-21 -56h-19l25 73q21 61 53.5 82t75.5 21q47 0 77.5 -24.5t40.5 -94.5zM71 -137q49 22 100 61.5t104 106.5q53 66 91 137.5t59 131.5q-46 26 -75 65.5t-29 85.5q0 38 20.5 60t57.5 22
q40 0 58 -26t18 -71t-15.5 -99.5t-43 -113.5t-63 -115t-75.5 -104q-42 -51 -87 -88t-90.5 -61t-90.5 -35q-16 -4 -31.5 -6t-27.5 -2q-40 0 -61.5 17.5t-21.5 48.5q0 29 21.5 51t58.5 22t67.5 -22.5t55.5 -65.5zM267 609q34 54 53.5 94.5t35.5 71t39 53.5q20 20 52.5 27.5
t57.5 -18.5q23 -22 16 -49t-32 -52q-21 -21 -51 -39t-70 -40.5t-91 -57.5z" />
    <glyph glyph-name="thorn" unicode="&#xfe;" horiz-adv-x="606" 
d="M371 466q-16 0 -33.5 -18t-34.5 -50t-32 -73t-26 -87l19 98q36 104 79.5 150.5t100.5 46.5q70 0 103.5 -42.5t33.5 -120.5q0 -47 -13 -99.5t-38 -103t-62 -91.5t-84.5 -65.5t-105.5 -24.5q-34 0 -62 8t-44 19l7 13q8 -3 16 -5t18 -2q27 0 53.5 22t49.5 59.5t41 84.5
t28 99t10 101q0 53 -6.5 67t-17.5 14zM218 757q53 5 98.5 14.5t88.5 23.5l-243 -862q-16 -58 3 -75t72 -18l-6 -21q-26 1 -73.5 2.5t-100.5 1.5q-46 0 -92 -1.5t-69 -2.5l6 21q36 0 52 13.5t26 48.5zM4 346q35 39 65.5 78.5t60 93t59.5 134.5l3 -16q-31 -106 -76 -174
t-101 -129z" />
    <glyph glyph-name="ydieresis" unicode="&#xff;" horiz-adv-x="483" 
d="M323 75l-133 -153l-84 511q-4 25 -8 34t-13 9q-10 0 -17.5 -11.5t-22.5 -51.5l-21 -56h-19l25 73q21 61 53.5 82t75.5 21q47 0 77.5 -24.5t40.5 -94.5zM71 -137q49 22 100 61.5t104 106.5q53 66 91 137.5t59 131.5q-46 26 -75 65.5t-29 85.5q0 38 20.5 60t57.5 22
q40 0 58 -26t18 -71t-15.5 -99.5t-43 -113.5t-63 -115t-75.5 -104q-42 -51 -87 -88t-90.5 -61t-90.5 -35q-16 -4 -31.5 -6t-27.5 -2q-40 0 -61.5 17.5t-21.5 48.5q0 29 21.5 51t58.5 22t67.5 -22.5t55.5 -65.5zM141 674q0 52 30.5 75t68.5 23q40 0 57.5 -21.5t17.5 -56.5
q0 -52 -31.5 -74t-68.5 -22q-40 0 -57 21t-17 55zM379 674q0 52 30.5 75t68.5 23q40 0 57.5 -21.5t17.5 -56.5q0 -52 -31.5 -74t-68.5 -22q-40 0 -57 21t-17 55z" />
    <glyph glyph-name="Amacron" unicode="&#x100;" horiz-adv-x="669" 
d="M47 131q-27 -38 -24 -61.5t28.5 -35t63.5 -14.5l-4 -20q-52 2 -83 2.5t-59 0.5q-21 0 -35 -0.5t-30 -2.5l4 20q29 8 54 33t68 86l408 574q18 -2 38.5 -2t36.5 2l40 -629q3 -36 18.5 -49.5t30.5 -14.5l-4 -20q-29 2 -78 2.5t-91 0.5q-51 0 -97 -0.5t-73 -2.5l4 20
q48 2 68.5 17.5t17.5 66.5l-23 438l53 58zM149 288h292l-8 -20h-302zM698 844l-6 -25h-432l6 25h432z" />
    <glyph glyph-name="amacron" unicode="&#x101;" horiz-adv-x="582" 
d="M204 54q10 0 21 8t23 27.5t26 54.5t30 90l-26 -109q-25 -80 -66.5 -109.5t-94.5 -29.5q-63 0 -93.5 32.5t-30.5 92.5q0 58 19.5 118t53 114.5t75 97t86.5 67.5t87 25q32 0 49.5 -20t12.5 -71l-11 -6q5 25 0 36.5t-17 11.5q-21 0 -49.5 -33t-55 -87.5t-44.5 -121.5
t-18 -135q0 -28 5 -40.5t18 -12.5zM389 518q55 1 97.5 4.5t83.5 10.5l-135 -448q-5 -16 -4.5 -25.5t5 -13t11.5 -3.5q9 0 23 10.5t30 52.5l21 56h19l-25 -73q-22 -63 -62.5 -83t-80.5 -20q-61 0 -87 35q-15 21 -16.5 55t12.5 82zM585 712l-6 -25h-352l6 25h352z" />
    <glyph glyph-name="Abreve" unicode="&#x102;" horiz-adv-x="669" 
d="M47 131q-27 -38 -24 -61.5t28.5 -35t63.5 -14.5l-4 -20q-52 2 -83 2.5t-59 0.5q-21 0 -35 -0.5t-30 -2.5l4 20q29 8 54 33t68 86l408 574q18 -2 38.5 -2t36.5 2l40 -629q3 -36 18.5 -49.5t30.5 -14.5l-4 -20q-29 2 -78 2.5t-91 0.5q-51 0 -97 -0.5t-73 -2.5l4 20
q48 2 68.5 17.5t17.5 66.5l-23 438l53 58zM149 288h292l-8 -20h-302zM495 882q73 0 129 14t104 42l12 -9q-26 -43 -67.5 -81t-92.5 -61.5t-106 -23.5q-73 0 -112.5 48t-51.5 115l15 8q31 -26 70 -39t100 -13z" />
    <glyph glyph-name="abreve" unicode="&#x103;" horiz-adv-x="582" 
d="M204 54q10 0 21 8t23 27.5t26 54.5t30 90l-26 -109q-25 -80 -66.5 -109.5t-94.5 -29.5q-63 0 -93.5 32.5t-30.5 92.5q0 58 19.5 118t53 114.5t75 97t86.5 67.5t87 25q32 0 49.5 -20t12.5 -71l-11 -6q5 25 0 36.5t-17 11.5q-21 0 -49.5 -33t-55 -87.5t-44.5 -121.5
t-18 -135q0 -28 5 -40.5t18 -12.5zM389 518q55 1 97.5 4.5t83.5 10.5l-135 -448q-5 -16 -4.5 -25.5t5 -13t11.5 -3.5q9 0 23 10.5t30 52.5l21 56h19l-25 -73q-22 -63 -62.5 -83t-80.5 -20q-61 0 -87 35q-15 21 -16.5 55t12.5 82zM408 732q57 0 107 14t93 42l12 -9
q-23 -43 -59.5 -81t-82 -61.5t-94.5 -23.5q-55 0 -85 48t-39 115l15 8q23 -26 52 -39t81 -13z" />
    <glyph glyph-name="Aogonek" unicode="&#x104;" horiz-adv-x="669" 
d="M47 131q-27 -38 -24 -61.5t28.5 -35t63.5 -14.5l-4 -20q-52 2 -83 2.5t-59 0.5q-21 0 -35 -0.5t-30 -2.5l4 20q29 8 54 33t68 86l408 574q18 -2 38.5 -2t36.5 2l40 -629q3 -36 18.5 -49.5t30.5 -14.5l-4 -20q-29 2 -78 2.5t-91 0.5q-51 0 -97 -0.5t-73 -2.5l4 20
q48 2 68.5 17.5t17.5 66.5l-23 438l53 58zM149 288h292l-8 -20h-302zM549 3q-33 -13 -54.5 -33t-32 -41t-10.5 -40q0 -26 29 -26q14 0 32.5 4.5t38.5 14.5l11 -17q-40 -28 -78 -40.5t-79 -12.5t-66 16t-25 45q0 31 30.5 56t80 43.5t105.5 30.5h18z" />
    <glyph glyph-name="aogonek" unicode="&#x105;" horiz-adv-x="582" 
d="M204 54q10 0 21 8t23 27.5t26 54.5t30 90l-26 -109q-25 -80 -66.5 -109.5t-94.5 -29.5q-63 0 -93.5 32.5t-30.5 92.5q0 58 19.5 118t53 114.5t75 97t86.5 67.5t87 25q32 0 49.5 -20t12.5 -71l-11 -6q5 25 0 36.5t-17 11.5q-21 0 -49.5 -33t-55 -87.5t-44.5 -121.5
t-18 -135q0 -28 5 -40.5t18 -12.5zM389 518q55 1 97.5 4.5t83.5 10.5l-135 -448q-5 -16 -4.5 -25.5t5 -13t11.5 -3.5q9 0 23 10.5t30 52.5l21 56h19l-25 -73q-22 -63 -62.5 -83t-80.5 -20q-61 0 -87 35q-15 21 -16.5 55t12.5 82zM446 3q-33 -13 -54.5 -33t-32 -41.5
t-10.5 -41.5q0 -24 23 -24q14 0 30 9t29 21l15 -13q-29 -35 -66 -51.5t-77 -16.5q-41 0 -66 16t-25 45q0 31 30.5 56t80 43.5t105.5 30.5h18z" />
    <glyph glyph-name="Cacute" unicode="&#x106;" horiz-adv-x="708" 
d="M768 708q-15 -39 -31 -94.5t-33 -135.5h-22q9 50 9.5 90t-16.5 69q-19 33 -46 45t-64 12q-48 0 -92.5 -24.5t-81.5 -69t-65 -103.5t-43.5 -129t-15.5 -145q0 -104 35.5 -151.5t95.5 -47.5q33 0 68.5 15t61.5 43q27 29 46.5 64.5t43.5 93.5h22q-25 -91 -38.5 -146.5
t-20.5 -93.5h-22q3 21 3 34q0 20 -8 24.5t-25 -7.5q-40 -28 -90 -46.5t-110 -18.5q-153 0 -222.5 68t-69.5 188q0 72 24 141.5t69 130.5t108 108t140.5 73.5t165.5 26.5q60 0 93 -19.5t55 -45.5q13 -16 26.5 -3t28.5 54h21zM495 784q48 42 78 75.5t54.5 58.5t53.5 40
q25 14 58 11.5t50 -34.5q15 -28 0.5 -52t-45.5 -41q-39 -21 -96.5 -31t-145.5 -39z" />
    <glyph glyph-name="cacute" unicode="&#x107;" horiz-adv-x="484" 
d="M382 513q-37 0 -72 -31.5t-62 -84t-43 -117t-16 -130.5q0 -54 22 -78t58 -24q29 0 59 17t61 63l20 -8q-21 -33 -52.5 -64t-75 -50.5t-101.5 -19.5q-76 0 -127 38t-51 120q0 65 25.5 133t73.5 126t116 94t152 36q62 0 96 -31t34 -73q0 -32 -16 -62t-42.5 -49.5
t-58.5 -19.5q-26 0 -47 18t-21 52q0 49 31 85t71 48q-7 6 -15 9t-19 3zM292 608q34 54 53.5 94.5t35.5 71t39 53.5q20 20 52.5 27.5t57.5 -18.5q23 -22 16 -49t-32 -52q-21 -21 -51 -39t-70 -40.5t-91 -57.5z" />
    <glyph glyph-name="Ccircumflex" unicode="&#x108;" horiz-adv-x="708" 
d="M768 708q-15 -39 -31 -94.5t-33 -135.5h-22q9 50 9.5 90t-16.5 69q-19 33 -46 45t-64 12q-48 0 -92.5 -24.5t-81.5 -69t-65 -103.5t-43.5 -129t-15.5 -145q0 -104 35.5 -151.5t95.5 -47.5q33 0 68.5 15t61.5 43q27 29 46.5 64.5t43.5 93.5h22q-25 -91 -38.5 -146.5
t-20.5 -93.5h-22q3 21 3 34q0 20 -8 24.5t-25 -7.5q-40 -28 -90 -46.5t-110 -18.5q-153 0 -222.5 68t-69.5 188q0 72 24 141.5t69 130.5t108 108t140.5 73.5t165.5 26.5q60 0 93 -19.5t55 -45.5q13 -16 26.5 -3t28.5 54h21zM512 824q-46 -16 -103.5 -29.5t-121.5 -24.5
l-5 14q91 29 169.5 75.5t125.5 96.5h18q19 -58 49.5 -99t89.5 -73l-4 -14q-75 12 -124.5 25t-93.5 29z" />
    <glyph glyph-name="ccircumflex" unicode="&#x109;" horiz-adv-x="484" 
d="M382 513q-37 0 -72 -31.5t-62 -84t-43 -117t-16 -130.5q0 -54 22 -78t58 -24q29 0 59 17t61 63l20 -8q-21 -33 -52.5 -64t-75 -50.5t-101.5 -19.5q-76 0 -127 38t-51 120q0 65 25.5 133t73.5 126t116 94t152 36q62 0 96 -31t34 -73q0 -32 -16 -62t-42.5 -49.5
t-58.5 -19.5q-26 0 -47 18t-21 52q0 49 31 85t71 48q-7 6 -15 9t-19 3zM334 659q-37 -16 -85 -29.5t-100 -24.5l-5 14q79 35 146.5 92.5t108.5 119.5h18q16 -73 42.5 -123.5t76.5 -88.5l-4 -14q-67 12 -112.5 25t-85.5 29z" />
    <glyph glyph-name="Cdotaccent" unicode="&#x10a;" horiz-adv-x="708" 
d="M768 708q-15 -39 -31 -94.5t-33 -135.5h-22q9 50 9.5 90t-16.5 69q-19 33 -46 45t-64 12q-48 0 -92.5 -24.5t-81.5 -69t-65 -103.5t-43.5 -129t-15.5 -145q0 -104 35.5 -151.5t95.5 -47.5q33 0 68.5 15t61.5 43q27 29 46.5 64.5t43.5 93.5h22q-25 -91 -38.5 -146.5
t-20.5 -93.5h-22q3 21 3 34q0 20 -8 24.5t-25 -7.5q-40 -28 -90 -46.5t-110 -18.5q-153 0 -222.5 68t-69.5 188q0 72 24 141.5t69 130.5t108 108t140.5 73.5t165.5 26.5q60 0 93 -19.5t55 -45.5q13 -16 26.5 -3t28.5 54h21zM420 826q0 54 35 80t87 26q44 0 66.5 -17
t22.5 -51q0 -47 -35.5 -75.5t-87.5 -28.5q-43 0 -65.5 17t-22.5 49z" />
    <glyph glyph-name="cdotaccent" unicode="&#x10b;" horiz-adv-x="484" 
d="M382 513q-37 0 -72 -31.5t-62 -84t-43 -117t-16 -130.5q0 -54 22 -78t58 -24q29 0 59 17t61 63l20 -8q-21 -33 -52.5 -64t-75 -50.5t-101.5 -19.5q-76 0 -127 38t-51 120q0 65 25.5 133t73.5 126t116 94t152 36q62 0 96 -31t34 -73q0 -32 -16 -62t-42.5 -49.5
t-58.5 -19.5q-26 0 -47 18t-21 52q0 49 31 85t71 48q-7 6 -15 9t-19 3zM266 675q0 54 35 80t87 26q44 0 66.5 -17t22.5 -51q0 -47 -35.5 -75.5t-87.5 -28.5q-43 0 -65.5 17t-22.5 49z" />
    <glyph glyph-name="Ccaron" unicode="&#x10c;" horiz-adv-x="708" 
d="M768 708q-15 -39 -31 -94.5t-33 -135.5h-22q9 50 9.5 90t-16.5 69q-19 33 -46 45t-64 12q-48 0 -92.5 -24.5t-81.5 -69t-65 -103.5t-43.5 -129t-15.5 -145q0 -104 35.5 -151.5t95.5 -47.5q33 0 68.5 15t61.5 43q27 29 46.5 64.5t43.5 93.5h22q-25 -91 -38.5 -146.5
t-20.5 -93.5h-22q3 21 3 34q0 20 -8 24.5t-25 -7.5q-40 -28 -90 -46.5t-110 -18.5q-153 0 -222.5 68t-69.5 188q0 72 24 141.5t69 130.5t108 108t140.5 73.5t165.5 26.5q60 0 93 -19.5t55 -45.5q13 -16 26.5 -3t28.5 54h21zM594 892q47 16 104 30t121 24l5 -14
q-91 -28 -169.5 -75t-125.5 -97h-18q-19 59 -49.5 99.5t-89.5 72.5l4 14q75 -12 124.5 -24.5t93.5 -29.5z" />
    <glyph glyph-name="ccaron" unicode="&#x10d;" horiz-adv-x="484" 
d="M382 513q-37 0 -72 -31.5t-62 -84t-43 -117t-16 -130.5q0 -54 22 -78t58 -24q29 0 59 17t61 63l20 -8q-21 -33 -52.5 -64t-75 -50.5t-101.5 -19.5q-76 0 -127 38t-51 120q0 65 25.5 133t73.5 126t116 94t152 36q62 0 96 -31t34 -73q0 -32 -16 -62t-42.5 -49.5
t-58.5 -19.5q-26 0 -47 18t-21 52q0 49 31 85t71 48q-7 6 -15 9t-19 3zM417 777q38 16 85.5 30t99.5 24l5 -14q-79 -34 -146.5 -92t-108.5 -120h-18q-16 74 -42.5 124t-76.5 88l4 14q68 -12 113 -24.5t85 -29.5z" />
    <glyph glyph-name="Dcaron" unicode="&#x10e;" horiz-adv-x="802" 
d="M791 457q0 -59 -17 -122.5t-54 -123t-96 -107.5t-143 -76t-196 -28q-25 0 -61 1.5t-97 1.5q-23 0 -55.5 -0.5t-63.5 -1t-51 -1.5l3 20q32 2 50.5 8t29.5 24t20 54l131 496q10 38 2 60.5t-60 25.5l3 20q21 -1 54 -2t70 -1h68q14 1 42 1.5t57.5 1t48.5 0.5q147 0 231 -62.5
t84 -188.5zM293 18q70 0 124 44.5t91.5 116t57 154.5t19.5 160q0 95 -30 146t-97 51q-22 0 -32 -6t-16 -24t-16 -56l-131 -500q-13 -51 -11 -68.5t41 -17.5zM554 892q47 16 104 30t121 24l5 -14q-91 -28 -169.5 -75t-125.5 -97h-18q-19 59 -49.5 99.5t-89.5 72.5l4 14
q75 -12 124.5 -24.5t93.5 -29.5z" />
    <glyph glyph-name="dcaron" unicode="&#x10f;" horiz-adv-x="603" 
d="M460 85q-9 -25 -3 -33.5t15 -8.5t23 10.5t30 52.5l21 56h19l-25 -73q-22 -63 -62.5 -83t-80.5 -20q-64 0 -90 38q-14 21 -14.5 54.5t13.5 79.5l135 509q10 34 -2 50t-61 16l7 21q82 1 147 11.5t124 29.5zM210 48q12 0 29.5 17t38.5 55.5t43 101.5t43 154l-15 -108
q-29 -92 -57.5 -155t-66.5 -95t-97 -32q-52 0 -90.5 34t-38.5 112q0 44 14 97.5t41.5 106.5t68.5 98t94.5 72t120.5 27q39 0 51.5 -12.5t15.5 -32.5l-8 -20q-4 20 -10 31t-26 11q-22 0 -52 -33.5t-58 -90.5t-46.5 -129.5t-18.5 -151.5q0 -28 5 -42.5t19 -14.5zM656 540
q34 74 47.5 124t13.5 69t-13 19l3 21q9 0 17 -0.5t15 -0.5q39 0 65 4t47 8q1 -2 1 -12q0 -37 -49 -100.5t-133 -135.5z" />
    <glyph glyph-name="Dcroat" unicode="&#x110;" horiz-adv-x="802" 
d="M791 457q0 -59 -17 -122.5t-54 -123t-96 -107.5t-143 -76t-196 -28q-25 0 -61 1.5t-97 1.5q-23 0 -55.5 -0.5t-63.5 -1t-51 -1.5l3 20q32 2 50.5 8t29.5 24t20 54l131 496q10 38 2 60.5t-60 25.5l3 20q21 -1 54 -2t70 -1h68q14 1 42 1.5t57.5 1t48.5 0.5q147 0 231 -62.5
t84 -188.5zM293 18q70 0 124 44.5t91.5 116t57 154.5t19.5 160q0 95 -30 146t-97 51q-22 0 -32 -6t-16 -24t-16 -56l-131 -500q-13 -51 -11 -68.5t41 -17.5zM457 366l-6 -25h-432l6 25h432z" />
    <glyph glyph-name="dcroat" unicode="&#x111;" horiz-adv-x="603" 
d="M460 85q-9 -25 -3 -33.5t15 -8.5t23 10.5t30 52.5l21 56h19l-25 -73q-22 -63 -62.5 -83t-80.5 -20q-64 0 -90 38q-14 21 -14.5 54.5t13.5 79.5l135 509q10 34 -2 50t-61 16l7 21q82 1 147 11.5t124 29.5zM210 48q12 0 29.5 17t38.5 55.5t43 101.5t43 154l-15 -108
q-29 -92 -57.5 -155t-66.5 -95t-97 -32q-52 0 -90.5 34t-38.5 112q0 44 14 97.5t41.5 106.5t68.5 98t94.5 72t120.5 27q39 0 51.5 -12.5t15.5 -32.5l-8 -20q-4 20 -10 31t-26 11q-22 0 -52 -33.5t-58 -90.5t-46.5 -129.5t-18.5 -151.5q0 -28 5 -42.5t19 -14.5zM681 628
l-6 -20h-414l6 20h414z" />
    <glyph glyph-name="Emacron" unicode="&#x112;" horiz-adv-x="637" 
d="M242 346l4 20h214l-4 -20h-214zM349 366q33 0 61 16t49.5 41.5t32.5 54.5h22q-13 -39 -19.5 -64.5t-14.5 -57.5q-5 -20 -9 -35.5t-7.5 -34.5t-9.5 -52h-22q0 23 -8.5 49t-29.5 44.5t-59 18.5zM618 528q1 59 -13 93.5t-41 49t-67 14.5h-3q-33 0 -51.5 -5.5t-28.5 -23
t-20 -54.5l-132 -496q-14 -55 -3 -69t60 -14h13q48 0 85 17t69.5 55.5t64.5 104.5h22q-5 -13 -10.5 -32t-10.5 -40q-5 -19 -13 -54.5t-13 -73.5q-51 2 -113.5 2.5t-112.5 0.5h-96t-127 -0.5t-125 -2.5l4 20q34 2 53 8t30 24t20 54l132 496q14 55 2.5 69.5t-61.5 16.5l5 20
q58 -1 124.5 -2t126.5 -1h96q46 0 103 0.5t104 2.5q-13 -35 -21.5 -59.5t-16.5 -58.5q-4 -18 -7.5 -34t-5.5 -28h-22zM654 844l-6 -25h-432l6 25h432z" />
    <glyph glyph-name="emacron" unicode="&#x113;" horiz-adv-x="496" 
d="M162 210q32 15 63 36t57 46q40 39 65.5 89t25.5 108q0 14 -4 19.5t-12 5.5q-25 0 -55 -34t-57 -88t-44 -117t-17 -120q0 -58 23 -77.5t60 -19.5q20 0 60 15t80 55l16 -8q-22 -33 -58 -64t-85 -50.5t-110 -19.5q-70 0 -121.5 35.5t-51.5 105.5q0 59 18.5 117t52.5 110
t81.5 92.5t105.5 63.5t124 23q53 0 88.5 -21.5t35.5 -66.5q0 -38 -20 -71.5t-55 -61t-79 -49.5t-92.5 -38t-95.5 -25zM564 712l-6 -25h-352l6 25h352z" />
    <glyph glyph-name="Ebreve" unicode="&#x114;" horiz-adv-x="637" 
d="M242 346l4 20h214l-4 -20h-214zM349 366q33 0 61 16t49.5 41.5t32.5 54.5h22q-13 -39 -19.5 -64.5t-14.5 -57.5q-5 -20 -9 -35.5t-7.5 -34.5t-9.5 -52h-22q0 23 -8.5 49t-29.5 44.5t-59 18.5zM618 528q1 59 -13 93.5t-41 49t-67 14.5h-3q-33 0 -51.5 -5.5t-28.5 -23
t-20 -54.5l-132 -496q-14 -55 -3 -69t60 -14h13q48 0 85 17t69.5 55.5t64.5 104.5h22q-5 -13 -10.5 -32t-10.5 -40q-5 -19 -13 -54.5t-13 -73.5q-51 2 -113.5 2.5t-112.5 0.5h-96t-127 -0.5t-125 -2.5l4 20q34 2 53 8t30 24t20 54l132 496q14 55 2.5 69.5t-61.5 16.5l5 20
q58 -1 124.5 -2t126.5 -1h96q46 0 103 0.5t104 2.5q-13 -35 -21.5 -59.5t-16.5 -58.5q-4 -18 -7.5 -34t-5.5 -28h-22zM451 882q73 0 129 14t104 42l12 -9q-26 -43 -67.5 -81t-92.5 -61.5t-106 -23.5q-73 0 -112.5 48t-51.5 115l15 8q31 -26 70 -39t100 -13z" />
    <glyph glyph-name="ebreve" unicode="&#x115;" horiz-adv-x="496" 
d="M162 210q32 15 63 36t57 46q40 39 65.5 89t25.5 108q0 14 -4 19.5t-12 5.5q-25 0 -55 -34t-57 -88t-44 -117t-17 -120q0 -58 23 -77.5t60 -19.5q20 0 60 15t80 55l16 -8q-22 -33 -58 -64t-85 -50.5t-110 -19.5q-70 0 -121.5 35.5t-51.5 105.5q0 59 18.5 117t52.5 110
t81.5 92.5t105.5 63.5t124 23q53 0 88.5 -21.5t35.5 -66.5q0 -38 -20 -71.5t-55 -61t-79 -49.5t-92.5 -38t-95.5 -25zM387 732q57 0 107 14t93 42l12 -9q-23 -43 -59.5 -81t-82 -61.5t-94.5 -23.5q-55 0 -85 48t-39 115l15 8q23 -26 52 -39t81 -13z" />
    <glyph glyph-name="Edotaccent" unicode="&#x116;" horiz-adv-x="637" 
d="M242 346l4 20h214l-4 -20h-214zM349 366q33 0 61 16t49.5 41.5t32.5 54.5h22q-13 -39 -19.5 -64.5t-14.5 -57.5q-5 -20 -9 -35.5t-7.5 -34.5t-9.5 -52h-22q0 23 -8.5 49t-29.5 44.5t-59 18.5zM618 528q1 59 -13 93.5t-41 49t-67 14.5h-3q-33 0 -51.5 -5.5t-28.5 -23
t-20 -54.5l-132 -496q-14 -55 -3 -69t60 -14h13q48 0 85 17t69.5 55.5t64.5 104.5h22q-5 -13 -10.5 -32t-10.5 -40q-5 -19 -13 -54.5t-13 -73.5q-51 2 -113.5 2.5t-112.5 0.5h-96t-127 -0.5t-125 -2.5l4 20q34 2 53 8t30 24t20 54l132 496q14 55 2.5 69.5t-61.5 16.5l5 20
q58 -1 124.5 -2t126.5 -1h96q46 0 103 0.5t104 2.5q-13 -35 -21.5 -59.5t-16.5 -58.5q-4 -18 -7.5 -34t-5.5 -28h-22zM341 826q0 54 35 80t87 26q44 0 66.5 -17t22.5 -51q0 -47 -35.5 -75.5t-87.5 -28.5q-43 0 -65.5 17t-22.5 49z" />
    <glyph glyph-name="edotaccent" unicode="&#x117;" horiz-adv-x="496" 
d="M162 210q32 15 63 36t57 46q40 39 65.5 89t25.5 108q0 14 -4 19.5t-12 5.5q-25 0 -55 -34t-57 -88t-44 -117t-17 -120q0 -58 23 -77.5t60 -19.5q20 0 60 15t80 55l16 -8q-22 -33 -58 -64t-85 -50.5t-110 -19.5q-70 0 -121.5 35.5t-51.5 105.5q0 59 18.5 117t52.5 110
t81.5 92.5t105.5 63.5t124 23q53 0 88.5 -21.5t35.5 -66.5q0 -38 -20 -71.5t-55 -61t-79 -49.5t-92.5 -38t-95.5 -25zM281 676q0 54 35 80t87 26q44 0 66.5 -17t22.5 -51q0 -47 -35.5 -75.5t-87.5 -28.5q-43 0 -65.5 17t-22.5 49z" />
    <glyph glyph-name="Eogonek" unicode="&#x118;" horiz-adv-x="637" 
d="M242 346l4 20h214l-4 -20h-214zM349 366q33 0 61 16t49.5 41.5t32.5 54.5h22q-13 -39 -19.5 -64.5t-14.5 -57.5q-5 -20 -9 -35.5t-7.5 -34.5t-9.5 -52h-22q0 23 -8.5 49t-29.5 44.5t-59 18.5zM618 528q1 59 -13 93.5t-41 49t-67 14.5h-3q-33 0 -51.5 -5.5t-28.5 -23
t-20 -54.5l-132 -496q-14 -55 -3 -69t60 -14h13q48 0 85 17t69.5 55.5t64.5 104.5h22q-5 -13 -10.5 -32t-10.5 -40q-5 -19 -13 -54.5t-13 -73.5q-51 2 -113.5 2.5t-112.5 0.5h-96t-127 -0.5t-125 -2.5l4 20q34 2 53 8t30 24t20 54l132 496q14 55 2.5 69.5t-61.5 16.5l5 20
q58 -1 124.5 -2t126.5 -1h96q46 0 103 0.5t104 2.5q-13 -35 -21.5 -59.5t-16.5 -58.5q-4 -18 -7.5 -34t-5.5 -28h-22zM524 3q-33 -13 -54.5 -33t-32 -41t-10.5 -40q0 -26 29 -26q14 0 32.5 4.5t38.5 14.5l11 -17q-40 -28 -78 -40.5t-79 -12.5t-66 16t-25 45q0 31 30.5 56
t80 43.5t105.5 30.5h18z" />
    <glyph glyph-name="eogonek" unicode="&#x119;" horiz-adv-x="496" 
d="M162 210q32 15 63 36t57 46q40 39 65.5 89t25.5 108q0 14 -4 19.5t-12 5.5q-25 0 -55 -34t-57 -88t-44 -117t-17 -120q0 -58 23 -77.5t60 -19.5q20 0 60 15t80 55l16 -8q-22 -33 -58 -64t-85 -50.5t-110 -19.5q-70 0 -121.5 35.5t-51.5 105.5q0 59 18.5 117t52.5 110
t81.5 92.5t105.5 63.5t124 23q53 0 88.5 -21.5t35.5 -66.5q0 -38 -20 -71.5t-55 -61t-79 -49.5t-92.5 -38t-95.5 -25zM271 3q-33 -13 -54.5 -33t-32 -41.5t-10.5 -41.5q0 -24 23 -24q14 0 30 9t29 21l15 -13q-29 -35 -66 -51.5t-77 -16.5q-41 0 -66 16t-25 45q0 31 30.5 56
t80 43.5t105.5 30.5h18z" />
    <glyph glyph-name="Ecaron" unicode="&#x11a;" horiz-adv-x="637" 
d="M242 346l4 20h214l-4 -20h-214zM349 366q33 0 61 16t49.5 41.5t32.5 54.5h22q-13 -39 -19.5 -64.5t-14.5 -57.5q-5 -20 -9 -35.5t-7.5 -34.5t-9.5 -52h-22q0 23 -8.5 49t-29.5 44.5t-59 18.5zM618 528q1 59 -13 93.5t-41 49t-67 14.5h-3q-33 0 -51.5 -5.5t-28.5 -23
t-20 -54.5l-132 -496q-14 -55 -3 -69t60 -14h13q48 0 85 17t69.5 55.5t64.5 104.5h22q-5 -13 -10.5 -32t-10.5 -40q-5 -19 -13 -54.5t-13 -73.5q-51 2 -113.5 2.5t-112.5 0.5h-96t-127 -0.5t-125 -2.5l4 20q34 2 53 8t30 24t20 54l132 496q14 55 2.5 69.5t-61.5 16.5l5 20
q58 -1 124.5 -2t126.5 -1h96q46 0 103 0.5t104 2.5q-13 -35 -21.5 -59.5t-16.5 -58.5q-4 -18 -7.5 -34t-5.5 -28h-22zM515 892q47 16 104 30t121 24l5 -14q-91 -28 -169.5 -75t-125.5 -97h-18q-19 59 -49.5 99.5t-89.5 72.5l4 14q75 -12 124.5 -24.5t93.5 -29.5z" />
    <glyph glyph-name="ecaron" unicode="&#x11b;" horiz-adv-x="496" 
d="M162 210q32 15 63 36t57 46q40 39 65.5 89t25.5 108q0 14 -4 19.5t-12 5.5q-25 0 -55 -34t-57 -88t-44 -117t-17 -120q0 -58 23 -77.5t60 -19.5q20 0 60 15t80 55l16 -8q-22 -33 -58 -64t-85 -50.5t-110 -19.5q-70 0 -121.5 35.5t-51.5 105.5q0 59 18.5 117t52.5 110
t81.5 92.5t105.5 63.5t124 23q53 0 88.5 -21.5t35.5 -66.5q0 -38 -20 -71.5t-55 -61t-79 -49.5t-92.5 -38t-95.5 -25zM432 778q38 16 85.5 30t99.5 24l5 -14q-79 -34 -146.5 -92t-108.5 -120h-18q-16 74 -42.5 124t-76.5 88l4 14q68 -12 113 -24.5t85 -29.5z" />
    <glyph glyph-name="Gcircumflex" unicode="&#x11c;" horiz-adv-x="761" 
d="M356 6q13 0 27 3t25 11q15 11 22 28.5t16 51.5l23 88q11 41 8.5 61t-22 27t-61.5 8l5 20q34 -1 89.5 -2t100.5 -1q51 0 94.5 1t70.5 2l-5 -20q-22 -1 -34.5 -7t-21 -24t-18.5 -55l-53 -198h-20q1 32 -9 44.5t-30 12.5q-28 0 -58.5 -15.5t-56.5 -26.5q-37 -17 -67.5 -23
t-60.5 -6q-135 0 -212.5 60t-77.5 169q0 68 23.5 139t68 137t107 118t140.5 82.5t169 30.5q65 0 100.5 -19t63.5 -46q15 -15 28 -5t29 56h22q-15 -39 -31 -94.5t-33 -135.5h-22q2 20 3.5 38.5t1.5 36.5q0 21 -2.5 38t-11.5 35q-19 38 -57.5 58t-96.5 20t-105.5 -35.5
t-84 -94t-60.5 -128t-36.5 -139t-12.5 -125.5q0 -90 31 -133t92 -43zM533 824q-46 -16 -103.5 -29.5t-121.5 -24.5l-5 14q91 29 169.5 75.5t125.5 96.5h18q19 -58 49.5 -99t89.5 -73l-4 -14q-75 12 -124.5 25t-93.5 29z" />
    <glyph glyph-name="gcircumflex" unicode="&#x11d;" horiz-adv-x="487" 
d="M228 227l60 8q-63 -22 -94 -39t-31 -31q0 -8 9.5 -13.5t25.5 -11.5l91 -34q27 -10 53 -25t43.5 -38.5t17.5 -58.5q0 -45 -29 -77.5t-76.5 -53.5t-102 -31t-105.5 -10q-50 0 -95 9.5t-73.5 26.5t-28.5 41q0 21 22 35.5t55.5 22.5t69 11t63.5 1l1 -15q-32 -18 -45.5 -35.5
t-13.5 -34.5q0 -21 17 -33t49 -12q33 0 68.5 11.5t60.5 32.5t25 47q0 21 -16.5 29.5t-41.5 15.5l-136 43q-25 8 -44.5 25.5t-19.5 43.5q0 32 30 56.5t80.5 47t110.5 46.5zM266 514q-13 0 -26 -17.5t-23.5 -48.5t-16.5 -71t-6 -85q0 -33 4.5 -45t14.5 -12q15 0 28.5 18.5
t24 50t16 71.5t5.5 83q0 21 -3.5 38.5t-17.5 17.5zM292 532q70 0 117 -26.5t47 -87.5q0 -48 -32.5 -94.5t-92 -76.5t-140.5 -30q-70 0 -117 27t-47 87q0 36 18 71.5t52.5 65t83.5 47t111 17.5zM376 479l-21 7q16 42 49.5 67.5t73.5 25.5q35 0 52 -19t17 -47q0 -29 -15 -45
t-34 -16q-16 0 -30.5 13t-18.5 39t12 66l4 -7q-35 -13 -55 -32t-34 -52zM309 660q-37 -16 -85 -29.5t-100 -24.5l-5 14q79 35 146.5 92.5t108.5 119.5h18q16 -73 42.5 -123.5t76.5 -88.5l-4 -14q-67 12 -112.5 25t-85.5 29z" />
    <glyph glyph-name="Gbreve" unicode="&#x11e;" horiz-adv-x="761" 
d="M356 6q13 0 27 3t25 11q15 11 22 28.5t16 51.5l23 88q11 41 8.5 61t-22 27t-61.5 8l5 20q34 -1 89.5 -2t100.5 -1q51 0 94.5 1t70.5 2l-5 -20q-22 -1 -34.5 -7t-21 -24t-18.5 -55l-53 -198h-20q1 32 -9 44.5t-30 12.5q-28 0 -58.5 -15.5t-56.5 -26.5q-37 -17 -67.5 -23
t-60.5 -6q-135 0 -212.5 60t-77.5 169q0 68 23.5 139t68 137t107 118t140.5 82.5t169 30.5q65 0 100.5 -19t63.5 -46q15 -15 28 -5t29 56h22q-15 -39 -31 -94.5t-33 -135.5h-22q2 20 3.5 38.5t1.5 36.5q0 21 -2.5 38t-11.5 35q-19 38 -57.5 58t-96.5 20t-105.5 -35.5
t-84 -94t-60.5 -128t-36.5 -139t-12.5 -125.5q0 -90 31 -133t92 -43zM551 882q73 0 129 14t104 42l12 -9q-26 -43 -67.5 -81t-92.5 -61.5t-106 -23.5q-73 0 -112.5 48t-51.5 115l15 8q31 -26 70 -39t100 -13z" />
    <glyph glyph-name="gbreve" unicode="&#x11f;" horiz-adv-x="487" 
d="M228 227l60 8q-63 -22 -94 -39t-31 -31q0 -8 9.5 -13.5t25.5 -11.5l91 -34q27 -10 53 -25t43.5 -38.5t17.5 -58.5q0 -45 -29 -77.5t-76.5 -53.5t-102 -31t-105.5 -10q-50 0 -95 9.5t-73.5 26.5t-28.5 41q0 21 22 35.5t55.5 22.5t69 11t63.5 1l1 -15q-32 -18 -45.5 -35.5
t-13.5 -34.5q0 -21 17 -33t49 -12q33 0 68.5 11.5t60.5 32.5t25 47q0 21 -16.5 29.5t-41.5 15.5l-136 43q-25 8 -44.5 25.5t-19.5 43.5q0 32 30 56.5t80.5 47t110.5 46.5zM266 514q-13 0 -26 -17.5t-23.5 -48.5t-16.5 -71t-6 -85q0 -33 4.5 -45t14.5 -12q15 0 28.5 18.5
t24 50t16 71.5t5.5 83q0 21 -3.5 38.5t-17.5 17.5zM292 532q70 0 117 -26.5t47 -87.5q0 -48 -32.5 -94.5t-92 -76.5t-140.5 -30q-70 0 -117 27t-47 87q0 36 18 71.5t52.5 65t83.5 47t111 17.5zM376 479l-21 7q16 42 49.5 67.5t73.5 25.5q35 0 52 -19t17 -47q0 -29 -15 -45
t-34 -16q-16 0 -30.5 13t-18.5 39t12 66l4 -7q-35 -13 -55 -32t-34 -52zM347 732q57 0 107 14t93 42l12 -9q-23 -43 -59.5 -81t-82 -61.5t-94.5 -23.5q-55 0 -85 48t-39 115l15 8q23 -26 52 -39t81 -13z" />
    <glyph glyph-name="Gdotaccent" unicode="&#x120;" horiz-adv-x="761" 
d="M356 6q13 0 27 3t25 11q15 11 22 28.5t16 51.5l23 88q11 41 8.5 61t-22 27t-61.5 8l5 20q34 -1 89.5 -2t100.5 -1q51 0 94.5 1t70.5 2l-5 -20q-22 -1 -34.5 -7t-21 -24t-18.5 -55l-53 -198h-20q1 32 -9 44.5t-30 12.5q-28 0 -58.5 -15.5t-56.5 -26.5q-37 -17 -67.5 -23
t-60.5 -6q-135 0 -212.5 60t-77.5 169q0 68 23.5 139t68 137t107 118t140.5 82.5t169 30.5q65 0 100.5 -19t63.5 -46q15 -15 28 -5t29 56h22q-15 -39 -31 -94.5t-33 -135.5h-22q2 20 3.5 38.5t1.5 36.5q0 21 -2.5 38t-11.5 35q-19 38 -57.5 58t-96.5 20t-105.5 -35.5
t-84 -94t-60.5 -128t-36.5 -139t-12.5 -125.5q0 -90 31 -133t92 -43zM441 826q0 54 35 80t87 26q44 0 66.5 -17t22.5 -51q0 -47 -35.5 -75.5t-87.5 -28.5q-43 0 -65.5 17t-22.5 49z" />
    <glyph glyph-name="gdotaccent" unicode="&#x121;" horiz-adv-x="487" 
d="M228 227l60 8q-63 -22 -94 -39t-31 -31q0 -8 9.5 -13.5t25.5 -11.5l91 -34q27 -10 53 -25t43.5 -38.5t17.5 -58.5q0 -45 -29 -77.5t-76.5 -53.5t-102 -31t-105.5 -10q-50 0 -95 9.5t-73.5 26.5t-28.5 41q0 21 22 35.5t55.5 22.5t69 11t63.5 1l1 -15q-32 -18 -45.5 -35.5
t-13.5 -34.5q0 -21 17 -33t49 -12q33 0 68.5 11.5t60.5 32.5t25 47q0 21 -16.5 29.5t-41.5 15.5l-136 43q-25 8 -44.5 25.5t-19.5 43.5q0 32 30 56.5t80.5 47t110.5 46.5zM266 514q-13 0 -26 -17.5t-23.5 -48.5t-16.5 -71t-6 -85q0 -33 4.5 -45t14.5 -12q15 0 28.5 18.5
t24 50t16 71.5t5.5 83q0 21 -3.5 38.5t-17.5 17.5zM292 532q70 0 117 -26.5t47 -87.5q0 -48 -32.5 -94.5t-92 -76.5t-140.5 -30q-70 0 -117 27t-47 87q0 36 18 71.5t52.5 65t83.5 47t111 17.5zM376 479l-21 7q16 42 49.5 67.5t73.5 25.5q35 0 52 -19t17 -47q0 -29 -15 -45
t-34 -16q-16 0 -30.5 13t-18.5 39t12 66l4 -7q-35 -13 -55 -32t-34 -52zM241 676q0 54 35 80t87 26q44 0 66.5 -17t22.5 -51q0 -47 -35.5 -75.5t-87.5 -28.5q-43 0 -65.5 17t-22.5 49z" />
    <glyph glyph-name="uni0122" unicode="&#x122;" horiz-adv-x="761" 
d="M356 6q13 0 27 3t25 11q15 11 22 28.5t16 51.5l23 88q11 41 8.5 61t-22 27t-61.5 8l5 20q34 -1 89.5 -2t100.5 -1q51 0 94.5 1t70.5 2l-5 -20q-22 -1 -34.5 -7t-21 -24t-18.5 -55l-53 -198h-20q1 32 -9 44.5t-30 12.5q-28 0 -58.5 -15.5t-56.5 -26.5q-37 -17 -67.5 -23
t-60.5 -6q-135 0 -212.5 60t-77.5 169q0 68 23.5 139t68 137t107 118t140.5 82.5t169 30.5q65 0 100.5 -19t63.5 -46q15 -15 28 -5t29 56h22q-15 -39 -31 -94.5t-33 -135.5h-22q2 20 3.5 38.5t1.5 36.5q0 21 -2.5 38t-11.5 35q-19 38 -57.5 58t-96.5 20t-105.5 -35.5
t-84 -94t-60.5 -128t-36.5 -139t-12.5 -125.5q0 -90 31 -133t92 -43zM337 -42q27 0 52 -14.5t25 -49.5q0 -61 -46.5 -97t-117.5 -38v21q47 1 78.5 15.5t38.5 38.5q-13 -8 -29.5 -13t-37.5 -5q-34 0 -52 13t-18 40q0 41 32 65t75 24z" />
    <glyph glyph-name="uni0123" unicode="&#x123;" horiz-adv-x="487" 
d="M228 227l60 8q-63 -22 -94 -39t-31 -31q0 -8 9.5 -13.5t25.5 -11.5l91 -34q27 -10 53 -25t43.5 -38.5t17.5 -58.5q0 -45 -29 -77.5t-76.5 -53.5t-102 -31t-105.5 -10q-50 0 -95 9.5t-73.5 26.5t-28.5 41q0 21 22 35.5t55.5 22.5t69 11t63.5 1l1 -15q-32 -18 -45.5 -35.5
t-13.5 -34.5q0 -21 17 -33t49 -12q33 0 68.5 11.5t60.5 32.5t25 47q0 21 -16.5 29.5t-41.5 15.5l-136 43q-25 8 -44.5 25.5t-19.5 43.5q0 32 30 56.5t80.5 47t110.5 46.5zM266 514q-13 0 -26 -17.5t-23.5 -48.5t-16.5 -71t-6 -85q0 -33 4.5 -45t14.5 -12q15 0 28.5 18.5
t24 50t16 71.5t5.5 83q0 21 -3.5 38.5t-17.5 17.5zM292 532q70 0 117 -26.5t47 -87.5q0 -48 -32.5 -94.5t-92 -76.5t-140.5 -30q-70 0 -117 27t-47 87q0 36 18 71.5t52.5 65t83.5 47t111 17.5zM376 479l-21 7q16 42 49.5 67.5t73.5 25.5q35 0 52 -19t17 -47q0 -29 -15 -45
t-34 -16q-16 0 -30.5 13t-18.5 39t12 66l4 -7q-35 -13 -55 -32t-34 -52zM310 608q-27 0 -52 14.5t-25 49.5q0 61 46.5 97t117.5 38v-21q-47 -1 -78.5 -15.5t-38.5 -38.5q13 8 29.5 13t37.5 5q34 0 52 -13t18 -40q0 -41 -32 -65t-75 -24z" />
    <glyph glyph-name="Hcircumflex" unicode="&#x124;" horiz-adv-x="846" 
d="M257 346l7 20h353l-8 -20h-352zM615 602q15 55 3 69.5t-62 16.5l5 20q30 -1 78.5 -2t97.5 -1q57 0 107.5 1t81.5 2l-5 -20q-34 -1 -53 -7.5t-29.5 -24t-20.5 -54.5l-132 -496q-14 -55 -3 -69.5t62 -16.5l-4 -20q-30 2 -80.5 2.5t-107.5 0.5q-49 0 -97.5 -0.5t-79.5 -2.5
l4 20q34 2 53 8t30 24t20 54zM262 106q-14 -55 -3 -69.5t62 -16.5l-4 -20q-31 2 -79 2.5t-98 0.5q-57 0 -106.5 -0.5t-80.5 -2.5l5 20q33 2 51.5 8t29.5 24t20 54l132 496q14 55 2.5 69.5t-61.5 16.5l5 20q29 -1 79.5 -2t107.5 -1q50 0 96.5 1t81.5 2l-5 -20
q-34 -1 -53 -7.5t-29.5 -24t-20.5 -54.5zM538 824q-46 -16 -103.5 -29.5t-121.5 -24.5l-5 14q91 29 169.5 75.5t125.5 96.5h18q19 -58 49.5 -99t89.5 -73l-4 -14q-75 12 -124.5 25t-93.5 29z" />
    <glyph glyph-name="hcircumflex" unicode="&#x125;" horiz-adv-x="592" 
d="M153 0h-177l198 667q10 34 -2 50t-61 16l7 21q82 1 145.5 11.5t122.5 29.5zM176 143q41 122 75.5 198.5t67 118.5t67 57.5t74.5 15.5q50 0 73 -20t24.5 -54.5t-12.5 -76.5l-99 -297q-10 -28 -2.5 -35t14.5 -7q9 0 23 10.5t30 52.5l21 56h19l-25 -73q-22 -63 -62.5 -83
t-80.5 -20q-53 0 -78 23.5t-26.5 63t13.5 85.5l86 259q6 18 7.5 30t-0.5 18t-9 6q-20 0 -49 -41.5t-60.5 -110t-61 -151t-51.5 -165.5zM505 900q-37 -16 -85 -29.5t-100 -24.5l-5 14q79 35 146.5 92.5t108.5 119.5h18q16 -73 42.5 -123.5t76.5 -88.5l-4 -14
q-67 12 -112.5 25t-85.5 29z" />
    <glyph glyph-name="Hbar" unicode="&#x126;" horiz-adv-x="846" 
d="M257 346l7 20h353l-8 -20h-352zM615 602q15 55 3 69.5t-62 16.5l5 20q30 -1 78.5 -2t97.5 -1q57 0 107.5 1t81.5 2l-5 -20q-34 -1 -53 -7.5t-29.5 -24t-20.5 -54.5l-132 -496q-14 -55 -3 -69.5t62 -16.5l-4 -20q-30 2 -80.5 2.5t-107.5 0.5q-49 0 -97.5 -0.5t-79.5 -2.5
l4 20q34 2 53 8t30 24t20 54zM262 106q-14 -55 -3 -69.5t62 -16.5l-4 -20q-31 2 -79 2.5t-98 0.5q-57 0 -106.5 -0.5t-80.5 -2.5l5 20q33 2 51.5 8t29.5 24t20 54l132 496q14 55 2.5 69.5t-61.5 16.5l5 20q29 -1 79.5 -2t107.5 -1q50 0 96.5 1t81.5 2l-5 -20
q-34 -1 -53 -7.5t-29.5 -24t-20.5 -54.5zM910 533l-5 -20h-843l5 20h843z" />
    <glyph glyph-name="hbar" unicode="&#x127;" horiz-adv-x="592" 
d="M153 0h-177l198 667q10 34 -2 50t-61 16l7 21q82 1 145.5 11.5t122.5 29.5zM176 143q41 122 75.5 198.5t67 118.5t67 57.5t74.5 15.5q50 0 73 -20t24.5 -54.5t-12.5 -76.5l-99 -297q-10 -28 -2.5 -35t14.5 -7q9 0 23 10.5t30 52.5l21 56h19l-25 -73q-22 -63 -62.5 -83
t-80.5 -20q-53 0 -78 23.5t-26.5 63t13.5 85.5l86 259q6 18 7.5 30t-0.5 18t-9 6q-20 0 -49 -41.5t-60.5 -110t-61 -151t-51.5 -165.5zM497 628l-6 -20h-414l6 20h414z" />
    <glyph glyph-name="Itilde" unicode="&#x128;" horiz-adv-x="422" 
d="M262 106q-14 -55 -3 -69.5t62 -16.5l-4 -20q-32 2 -83 2.5t-104 0.5q-54 0 -101 -0.5t-76 -2.5l5 20q33 2 51.5 8t29.5 24t20 54l132 496q14 55 2.5 69.5t-61.5 16.5l5 20q28 -1 75.5 -2t101.5 -1q53 0 102 1t86 2l-5 -20q-34 -1 -53 -7.5t-29.5 -24t-20.5 -54.5z
M311 948q39 0 65 -11t46 -25.5t40.5 -25.5t49.5 -11q23 0 43 13.5t39 44.5l18 -5q-32 -87 -84.5 -125t-105.5 -38q-39 0 -65 11t-46 25.5t-40.5 25.5t-49.5 11q-23 0 -42.5 -13t-39.5 -45l-18 5q32 87 84.5 125t105.5 38z" />
    <glyph glyph-name="itilde" unicode="&#x129;" horiz-adv-x="335" 
d="M126 434q14 42 -9 42q-15 0 -28 -13.5t-27 -49.5l-23 -61h-19l28 78q20 56 58.5 79.5t90.5 23.5q51 0 75 -22t28 -54t-7 -64l-104 -308q-8 -25 -3 -33.5t15 -8.5q9 0 23 10.5t30 52.5l21 56h19l-25 -73q-22 -63 -62.5 -83t-80.5 -20q-44 0 -71.5 18.5t-33.5 57t13 96.5z
M214 798q30 0 49.5 -11t34.5 -25.5t30.5 -25.5t36.5 -11q20 0 37.5 13.5t34.5 44.5l18 -5q-29 -87 -76 -125t-94 -38q-30 0 -49.5 11t-34.5 25.5t-30.5 25.5t-36.5 11q-20 0 -37.5 -13t-34.5 -45l-18 5q29 87 76 125t94 38z" />
    <glyph glyph-name="Imacron" unicode="&#x12a;" horiz-adv-x="422" 
d="M262 106q-14 -55 -3 -69.5t62 -16.5l-4 -20q-32 2 -83 2.5t-104 0.5q-54 0 -101 -0.5t-76 -2.5l5 20q33 2 51.5 8t29.5 24t20 54l132 496q14 55 2.5 69.5t-61.5 16.5l5 20q28 -1 75.5 -2t101.5 -1q53 0 102 1t86 2l-5 -20q-34 -1 -53 -7.5t-29.5 -24t-20.5 -54.5z
M560 844l-6 -25h-432l6 25h432z" />
    <glyph glyph-name="imacron" unicode="&#x12b;" horiz-adv-x="335" 
d="M126 434q14 42 -9 42q-15 0 -28 -13.5t-27 -49.5l-23 -61h-19l28 78q20 56 58.5 79.5t90.5 23.5q51 0 75 -22t28 -54t-7 -64l-104 -308q-8 -25 -3 -33.5t15 -8.5q9 0 23 10.5t30 52.5l21 56h19l-25 -73q-22 -63 -62.5 -83t-80.5 -20q-44 0 -71.5 18.5t-33.5 57t13 96.5z
M393.238 712l-5.09961 -25h-299.191l5.09961 25h299.191z" />
    <glyph glyph-name="Ibreve" unicode="&#x12c;" horiz-adv-x="422" 
d="M262 106q-14 -55 -3 -69.5t62 -16.5l-4 -20q-32 2 -83 2.5t-104 0.5q-54 0 -101 -0.5t-76 -2.5l5 20q33 2 51.5 8t29.5 24t20 54l132 496q14 55 2.5 69.5t-61.5 16.5l5 20q28 -1 75.5 -2t101.5 -1q53 0 102 1t86 2l-5 -20q-34 -1 -53 -7.5t-29.5 -24t-20.5 -54.5z
M357 882q73 0 129 14t104 42l12 -9q-26 -43 -67.5 -81t-92.5 -61.5t-106 -23.5q-73 0 -112.5 48t-51.5 115l15 8q31 -26 70 -39t100 -13z" />
    <glyph glyph-name="ibreve" unicode="&#x12d;" horiz-adv-x="335" 
d="M126 434q14 42 -9 42q-15 0 -28 -13.5t-27 -49.5l-23 -61h-19l28 78q20 56 58.5 79.5t90.5 23.5q51 0 75 -22t28 -54t-7 -64l-104 -308q-8 -25 -3 -33.5t15 -8.5q9 0 23 10.5t30 52.5l21 56h19l-25 -73q-22 -63 -62.5 -83t-80.5 -20q-44 0 -71.5 18.5t-33.5 57t13 96.5z
M249 732q57 0 107 14t93 42l12 -9q-23 -43 -59.5 -81t-82 -61.5t-94.5 -23.5q-55 0 -85 48t-39 115l15 8q23 -26 52 -39t81 -13z" />
    <glyph glyph-name="Iogonek" unicode="&#x12e;" horiz-adv-x="422" 
d="M262 106q-14 -55 -3 -69.5t62 -16.5l-4 -20q-32 2 -83 2.5t-104 0.5q-54 0 -101 -0.5t-76 -2.5l5 20q33 2 51.5 8t29.5 24t20 54l132 496q14 55 2.5 69.5t-61.5 16.5l5 20q28 -1 75.5 -2t101.5 -1q53 0 102 1t86 2l-5 -20q-34 -1 -53 -7.5t-29.5 -24t-20.5 -54.5zM305 3
q-33 -13 -54.5 -33t-32 -41t-10.5 -40q0 -26 29 -26q14 0 32.5 4.5t38.5 14.5l11 -17q-40 -28 -78 -40.5t-79 -12.5t-66 16t-25 45q0 31 30.5 56t80 43.5t105.5 30.5h18z" />
    <glyph glyph-name="iogonek" unicode="&#x12f;" horiz-adv-x="336" 
d="M169 676q0 54 35 80t87 26q44 0 66.5 -17t22.5 -51q0 -47 -35.5 -75.5t-87.5 -28.5q-43 0 -65.5 17t-22.5 49zM127 434q14 42 -9 42q-15 0 -28 -13.5t-27 -49.5l-23 -61h-19l28 78q20 56 58.5 79.5t90.5 23.5q51 0 75 -22t28 -54t-7 -64l-104 -308q-8 -25 -3 -33.5
t15 -8.5q9 0 23 10.5t30 52.5l21 56h19l-25 -73q-22 -63 -62.5 -83t-80.5 -20q-44 0 -71.5 18.5t-33.5 57t13 96.5zM201 3q-33 -13 -54.5 -33t-32 -41.5t-10.5 -41.5q0 -24 23 -24q14 0 30 9t29 21l15 -13q-29 -35 -66 -51.5t-77 -16.5q-41 0 -66 16t-25 45q0 31 30.5 56
t80 43.5t105.5 30.5h18z" />
    <glyph glyph-name="Idotaccent" unicode="&#x130;" horiz-adv-x="422" 
d="M262 106q-14 -55 -3 -69.5t62 -16.5l-4 -20q-32 2 -83 2.5t-104 0.5q-54 0 -101 -0.5t-76 -2.5l5 20q33 2 51.5 8t29.5 24t20 54l132 496q14 55 2.5 69.5t-61.5 16.5l5 20q28 -1 75.5 -2t101.5 -1q53 0 102 1t86 2l-5 -20q-34 -1 -53 -7.5t-29.5 -24t-20.5 -54.5z
M247 826q0 54 35 80t87 26q44 0 66.5 -17t22.5 -51q0 -47 -35.5 -75.5t-87.5 -28.5q-43 0 -65.5 17t-22.5 49z" />
    <glyph glyph-name="dotlessi" unicode="&#x131;" horiz-adv-x="335" 
d="M126 434q14 42 -9 42q-15 0 -28 -13.5t-27 -49.5l-23 -61h-19l28 78q20 56 58.5 79.5t90.5 23.5q51 0 75 -22t28 -54t-7 -64l-104 -308q-8 -25 -3 -33.5t15 -8.5q9 0 23 10.5t30 52.5l21 56h19l-25 -73q-22 -63 -62.5 -83t-80.5 -20q-44 0 -71.5 18.5t-33.5 57t13 96.5z
" />
    <glyph glyph-name="Jcircumflex" unicode="&#x134;" horiz-adv-x="715" 
d="M695 366l-3 -20h-431l3 20h431zM414 543q-39 0 -73 11.5t-64 23t-57 11.5q-23 0 -40 -12t-17 -39q0 -33 31.5 -54t106.5 -26l-1 -9l-1 -9q-98 6 -157.5 46t-59.5 113q0 62 39 101t120 39q53 0 91.5 -14.5t72 -34t72.5 -34t94 -14.5q33 0 80 8t84 27q21 32 41 49t35 4
q12 -10 -1 -27t-66 -37q-63 -57 -99 -150t-66 -209l-62 -242q-17 -68 -56.5 -126t-107.5 -92.5t-173 -34.5q-68 0 -116.5 19.5t-48.5 69.5q0 38 26.5 62.5t77.5 24.5q42 0 71.5 -18t29.5 -55q0 -28 -16.5 -49t-48.5 -35q8 -1 13 -1.5t10 -0.5q23 0 39.5 11t29.5 34
t25.5 59.5t26.5 86.5l69 242q29 102 76.5 169.5t113 118t147.5 100.5q-48 -13 -83 -31.5t-65.5 -35.5t-64 -28.5t-78.5 -11.5zM559 824q-46 -16 -103.5 -29.5t-121.5 -24.5l-5 14q91 29 169.5 75.5t125.5 96.5h18q19 -58 49.5 -99t89.5 -73l-4 -14q-75 12 -124.5 25
t-93.5 29z" />
    <glyph glyph-name="jcircumflex" unicode="&#x135;" horiz-adv-x="318" 
d="M-139 -188l5 20q40 0 74 28.5t51 97.5l133 476q6 23 4 32.5t-14 9.5q-15 0 -28 -14.5t-26 -48.5l-23 -61h-19l28 78q21 58 63.5 80.5t87.5 22.5q51 0 73.5 -21.5t24.5 -54t-7 -64.5l-86 -313q-22 -88 -50 -136t-75 -82q-31 -22 -82 -36t-134 -14zM230 660
q-37 -16 -85 -29.5t-100 -24.5l-5 14q79 35 146.5 92.5t108.5 119.5h18q16 -73 42.5 -123.5t76.5 -88.5l-4 -14q-67 12 -112.5 25t-85.5 29z" />
    <glyph glyph-name="uni0136" unicode="&#x136;" horiz-adv-x="783" 
d="M262 106q-14 -55 -3 -69.5t62 -16.5l-4 -20q-31 2 -79 2.5t-98 0.5q-57 0 -106.5 -0.5t-80.5 -2.5l5 20q33 2 51.5 8t29.5 24t20 54l132 496q14 55 2.5 69.5t-61.5 16.5l5 20q29 -1 79.5 -2t107.5 -1q50 0 96.5 1t81.5 2l-5 -20q-34 -1 -53 -7.5t-29.5 -24t-20.5 -54.5z
M646 71q15 0 25.5 13t17.5 35l17 51h20l-26 -77q-19 -56 -58 -81.5t-84 -25.5q-75 0 -109.5 37.5t-24.5 95.5l28 158q5 25 4.5 42t-7.5 28t-22 18l2 10q97 -1 145 -22t61.5 -60t4.5 -95l-16 -100q-2 -12 5 -19.5t17 -7.5zM441 360q-53 -14 -72.5 -12t-15.5 21q4 17 21.5 20
t66.5 -11v-18zM639 677q-21 -25 -33.5 -64t-24 -81.5t-29 -80t-46.5 -61t-78 -22.5l2 10q45 5 71 30t41 62t25 78.5t22.5 78.5t34.5 62q17 20 38 26.5t41 6.5q51 0 84.5 -30.5t33.5 -81.5q0 -43 -29 -81.5t-84 -38.5q-32 0 -58.5 20.5t-26.5 62.5q0 39 27.5 74.5t75.5 52.5
q-4 2 -10.5 3.5t-15.5 1.5q-22 0 -36 -7t-25 -21zM304 -42q27 0 52 -14.5t25 -49.5q0 -61 -46.5 -97t-117.5 -38v21q47 1 78.5 15.5t38.5 38.5q-13 -8 -29.5 -13t-37.5 -5q-34 0 -52 13t-18 40q0 41 32 65t75 24z" />
    <glyph glyph-name="uni0137" unicode="&#x137;" horiz-adv-x="577" 
d="M153 0h-177l198 667q10 34 -2 50t-61 16l7 21q82 1 145.5 11.5t122.5 29.5zM432 85q-5 -25 -1 -33.5t13 -8.5t23 10.5t30 52.5l21 56h19l-25 -73q-15 -42 -41.5 -64t-57.5 -30.5t-61 -8.5q-61 0 -83 34t-9 95l17 71q14 51 -1 72.5t-65 27.5v4q48 3 94 -0.5t81.5 -18.5
t52 -46t5.5 -82zM451 514q-14 0 -25 -4t-21 -12q-17 -14 -27 -40t-20 -55.5t-25 -56t-41 -43.5t-69 -16l-10 -1l2 11q42 3 66 20.5t38 43t23 54t19 54t29 41.5q15 13 33 18t31 5q58 0 86.5 -34t28.5 -80q0 -49 -29.5 -75t-71.5 -26q-39 0 -60 20.5t-21 48.5q0 41 27.5 70
t61.5 44q-4 6 -11 9.5t-14 3.5zM204 -42q27 0 52 -14.5t25 -49.5q0 -61 -46.5 -97t-117.5 -38v21q47 1 78.5 15.5t38.5 38.5q-13 -8 -29.5 -13t-37.5 -5q-34 0 -52 13t-18 40q0 41 32 65t75 24z" />
    <glyph glyph-name="kgreenlandic" unicode="&#x138;" horiz-adv-x="615" 
d="M459 85q-4 -27 -0.5 -34.5t12.5 -7.5t23 10.5t30 52.5l21 56h19l-25 -73q-15 -42 -41.5 -64t-57.5 -30.5t-61 -8.5q-61 0 -83.5 33.5t-8.5 95.5l10 44q12 51 -2 72.5t-64 27.5v4q48 3 93 0t79.5 -18t51.5 -46t9 -83zM478 514q-14 0 -25 -4t-21 -12q-17 -14 -28 -42.5
t-22 -62t-27 -64.5t-42.5 -50.5t-69.5 -18.5l-10 -1l2 11q42 3 67 23t39.5 50t24.5 62.5t21 60.5t30 44q15 13 33 18t31 5q58 0 86.5 -34t28.5 -80q0 -49 -29.5 -75t-71.5 -26q-39 0 -60 20.5t-21 48.5q0 41 27.5 70t61.5 44q-4 6 -11 9.5t-14 3.5zM180 0h-18h-44h-52.5
h-44.5h-18l122 434q7 23 6 32.5t-15 9.5q-15 0 -28 -13.5t-27 -49.5l-23 -61h-19l28 78q19 53 52 78t85 25q53 0 76.5 -21.5t27.5 -54t-5 -64.5z" />
    <glyph glyph-name="Lacute" unicode="&#x139;" horiz-adv-x="617" 
d="M580 210q-6 -16 -12 -37t-12 -45q-5 -19 -13 -54.5t-13 -73.5q-51 2 -113.5 2.5t-112.5 0.5h-97t-129 -0.5t-126 -2.5l4 20q34 2 53 8t30 24t20 54l132 496q14 55 2.5 69.5t-61.5 16.5l5 20q29 -1 80.5 -2t108.5 -1q50 0 95 1t80 2l-5 -20q-34 -1 -53 -7.5t-29.5 -24
t-20.5 -54.5l-132 -496q-14 -55 -3 -69t60 -14h18q34 0 74.5 18t80 59t67.5 110h22zM314 784q48 42 78 75.5t54.5 58.5t53.5 40q25 14 58 11.5t50 -34.5q15 -28 0.5 -52t-45.5 -41q-39 -21 -96.5 -31t-145.5 -39z" />
    <glyph glyph-name="lacute" unicode="&#x13a;" horiz-adv-x="316" 
d="M169 85q-7 -24 0 -33t16 -9q5 0 20 9.5t31 53.5l21 56h19l-25 -73q-15 -43 -39.5 -65t-51.5 -30t-51 -8q-42 0 -69.5 19.5t-34.5 57.5t10 95l153 509q10 34 -2 50t-61 16l7 21q82 1 145.5 11.5t122.5 29.5zM257 847q48 42 78 75.5t54.5 58.5t53.5 40q25 14 58 11.5
t50 -34.5q15 -28 0.5 -52t-45.5 -41q-39 -21 -96.5 -31t-145.5 -39z" />
    <glyph glyph-name="uni013B" unicode="&#x13b;" horiz-adv-x="617" 
d="M580 210q-6 -16 -12 -37t-12 -45q-5 -19 -13 -54.5t-13 -73.5q-51 2 -113.5 2.5t-112.5 0.5h-97t-129 -0.5t-126 -2.5l4 20q34 2 53 8t30 24t20 54l132 496q14 55 2.5 69.5t-61.5 16.5l5 20q29 -1 80.5 -2t108.5 -1q50 0 95 1t80 2l-5 -20q-34 -1 -53 -7.5t-29.5 -24
t-20.5 -54.5l-132 -496q-14 -55 -3 -69t60 -14h18q34 0 74.5 18t80 59t67.5 110h22zM290 -42q27 0 52 -14.5t25 -49.5q0 -61 -46.5 -97t-117.5 -38v21q47 1 78.5 15.5t38.5 38.5q-13 -8 -29.5 -13t-37.5 -5q-34 0 -52 13t-18 40q0 41 32 65t75 24z" />
    <glyph glyph-name="uni013C" unicode="&#x13c;" horiz-adv-x="316" 
d="M169 85q-7 -24 0 -33t16 -9q5 0 20 9.5t31 53.5l21 56h19l-25 -73q-15 -43 -39.5 -65t-51.5 -30t-51 -8q-42 0 -69.5 19.5t-34.5 57.5t10 95l153 509q10 34 -2 50t-61 16l7 21q82 1 145.5 11.5t122.5 29.5zM96 -42q27 0 52 -14.5t25 -49.5q0 -61 -46.5 -97t-117.5 -38v21
q47 1 78.5 15.5t38.5 38.5q-13 -8 -29.5 -13t-37.5 -5q-34 0 -52 13t-18 40q0 41 32 65t75 24z" />
    <glyph glyph-name="Lcaron" unicode="&#x13d;" horiz-adv-x="617" 
d="M580 210q-6 -16 -12 -37t-12 -45q-5 -19 -13 -54.5t-13 -73.5q-51 2 -113.5 2.5t-112.5 0.5h-97t-129 -0.5t-126 -2.5l4 20q34 2 53 8t30 24t20 54l132 496q14 55 2.5 69.5t-61.5 16.5l5 20q29 -1 80.5 -2t108.5 -1q50 0 95 1t80 2l-5 -20q-34 -1 -53 -7.5t-29.5 -24
t-20.5 -54.5l-132 -496q-14 -55 -3 -69t60 -14h18q34 0 74.5 18t80 59t67.5 110h22zM495 485q29 70 40 117.5t11 65.5q0 9 -4.5 14t-18.5 5l3 21q12 0 22 -0.5t20 -0.5q39 0 65 4t47 8q1 -2 1 -12q0 -36 -46 -96.5t-126 -129.5z" />
    <glyph glyph-name="lcaron" unicode="&#x13e;" horiz-adv-x="316" 
d="M169 85q-7 -24 0 -33t16 -9q5 0 20 9.5t31 53.5l21 56h19l-25 -73q-15 -43 -39.5 -65t-51.5 -30t-51 -8q-42 0 -69.5 19.5t-34.5 57.5t10 95l153 509q10 34 -2 50t-61 16l7 21q82 1 145.5 11.5t122.5 29.5zM379 540q34 74 47.5 124t13.5 69t-13 19l3 21q9 0 17 -0.5
t15 -0.5q39 0 65 4t47 8q1 -2 1 -12q0 -37 -49 -100.5t-133 -135.5z" />
    <glyph glyph-name="Ldot" unicode="&#x13f;" horiz-adv-x="637" 
d="M580 210q-6 -16 -12 -37t-12 -45q-5 -19 -13 -54.5t-13 -73.5q-51 2 -113.5 2.5t-112.5 0.5h-97t-129 -0.5t-126 -2.5l4 20q34 2 53 8t30 24t20 54l132 496q14 55 2.5 69.5t-61.5 16.5l5 20q29 -1 80.5 -2t108.5 -1q50 0 95 1t80 2l-5 -20q-34 -1 -53 -7.5t-29.5 -24
t-20.5 -54.5l-132 -496q-14 -55 -3 -69t60 -14h18q34 0 74.5 18t80 59t67.5 110h22zM455 357q0 47 32 76.5t80 29.5q38 0 58.5 -17t20.5 -51q0 -40 -33 -72t-80 -32q-38 0 -58 17t-20 49z" />
    <glyph glyph-name="ldot" unicode="&#x140;" horiz-adv-x="491" 
d="M169 85q-7 -24 0 -33t16 -9q5 0 20 9.5t31 53.5l21 56h19l-25 -73q-15 -43 -39.5 -65t-51.5 -30t-51 -8q-42 0 -69.5 19.5t-34.5 57.5t10 95l153 509q10 34 -2 50t-61 16l7 21q82 1 145.5 11.5t122.5 29.5zM291 273q0 47 32 76.5t80 29.5q38 0 58.5 -17t20.5 -51
q0 -40 -33 -72t-80 -32q-38 0 -58 17t-20 49z" />
    <glyph glyph-name="Lslash" unicode="&#x141;" horiz-adv-x="618" 
d="M190 308l328 165l-6 -23l-328 -165zM186 295l-169 -85l6 23l169 85zM581 210q-6 -16 -12 -37t-12 -45q-5 -19 -13 -54.5t-13 -73.5q-51 2 -113.5 2.5t-112.5 0.5h-97t-129 -0.5t-126 -2.5l4 20q34 2 53 8t30 24t20 54l132 496q14 55 2.5 69.5t-61.5 16.5l5 20
q29 -1 80.5 -2t108.5 -1q50 0 95 1t80 2l-5 -20q-34 -1 -53 -7.5t-29.5 -24t-20.5 -54.5l-132 -496q-14 -55 -3 -69t60 -14h18q34 0 74.5 18t80 59t67.5 110h22z" />
    <glyph glyph-name="lslash" unicode="&#x142;" horiz-adv-x="328" 
d="M212 386l173 115l-4 -30l-173 -115zM160 362l-174 -117l4 30l174 117zM174 85q-7 -24 0 -33t16 -9q5 0 20 9.5t31 53.5l21 56h19l-25 -73q-15 -43 -39.5 -65t-51.5 -30t-51 -8q-42 0 -69.5 19.5t-34.5 57.5t10 95l153 509q10 34 -2 50t-61 16l7 21q82 1 145.5 11.5
t122.5 29.5z" />
    <glyph glyph-name="Nacute" unicode="&#x143;" horiz-adv-x="861" 
d="M543 -5l-268 488l2 18t4 41.5t4 41.5l2 18q8 37 5.5 54.5t-20 24t-56.5 7.5l5 20q16 -1 39.5 -2t49.5 -1q47 0 81 3l224 -436l-5 -28t-12.5 -69t-15 -82.5t-12.5 -69.5l-5 -28h-22zM851 737q-25 0 -47 -16t-38 -39q-46 -68 -94 -239t-107 -448l-14 28q18 84 40.5 182.5
t47.5 193.5t52.5 172t56.5 119q19 27 45 45.5t63 18.5q53 0 85 -31t32 -76q0 -48 -32.5 -76.5t-79.5 -28.5q-40 0 -64.5 19.5t-24.5 54.5q0 45 30 75.5t74 37.5q-4 4 -10.5 6t-14.5 2zM37 -57q28 0 49 15.5t37 40.5q29 46 58.5 144t60 237t61.5 305l17 -21
q-20 -102 -42 -208t-45.5 -201t-47 -165.5t-46.5 -100.5q-18 -24 -42.5 -43.5t-64.5 -19.5q-53 0 -85 31t-32 76q0 48 33 76.5t79 28.5q41 0 65 -19.5t24 -54.5q0 -45 -30 -75t-74 -38q4 -4 10.5 -6t14.5 -2zM520 784q48 42 78 75.5t54.5 58.5t53.5 40q25 14 58 11.5
t50 -34.5q15 -28 0.5 -52t-45.5 -41q-39 -21 -96.5 -31t-145.5 -39z" />
    <glyph glyph-name="nacute" unicode="&#x144;" horiz-adv-x="619" 
d="M180 0h-177l122 434q5 16 6 25t-2.5 13t-12.5 4q-15 0 -28 -13.5t-27 -49.5l-23 -61h-19l28 78q19 53 52 78t85 25q53 0 76.5 -21.5t27.5 -54t-5 -64.5zM203 143q41 122 75.5 198.5t67 118.5t67 57.5t74.5 15.5q50 0 73 -20t24.5 -54.5t-12.5 -76.5l-99 -297
q-10 -28 -2.5 -35t14.5 -7q9 0 23 10.5t30 52.5l21 56h19l-25 -73q-22 -63 -62.5 -83t-80.5 -20q-64 0 -90 36q-15 21 -16.5 52.5t15.5 83.5l86 259q6 18 7.5 30t-0.5 18t-9 6q-20 0 -49 -41.5t-60.5 -110t-61 -151t-51.5 -165.5zM314 609q34 54 53.5 94.5t35.5 71t39 53.5
q20 20 52.5 27.5t57.5 -18.5q23 -22 16 -49t-32 -52q-21 -21 -51 -39t-70 -40.5t-91 -57.5z" />
    <glyph glyph-name="uni0145" unicode="&#x145;" horiz-adv-x="861" 
d="M543 -5l-268 488l2 18t4 41.5t4 41.5l2 18q8 37 5.5 54.5t-20 24t-56.5 7.5l5 20q16 -1 39.5 -2t49.5 -1q47 0 81 3l224 -436l-5 -28t-12.5 -69t-15 -82.5t-12.5 -69.5l-5 -28h-22zM851 737q-25 0 -47 -16t-38 -39q-46 -68 -94 -239t-107 -448l-14 28q18 84 40.5 182.5
t47.5 193.5t52.5 172t56.5 119q19 27 45 45.5t63 18.5q53 0 85 -31t32 -76q0 -48 -32.5 -76.5t-79.5 -28.5q-40 0 -64.5 19.5t-24.5 54.5q0 45 30 75.5t74 37.5q-4 4 -10.5 6t-14.5 2zM37 -57q28 0 49 15.5t37 40.5q29 46 58.5 144t60 237t61.5 305l17 -21
q-20 -102 -42 -208t-45.5 -201t-47 -165.5t-46.5 -100.5q-18 -24 -42.5 -43.5t-64.5 -19.5q-53 0 -85 31t-32 76q0 48 33 76.5t79 28.5q41 0 65 -19.5t24 -54.5q0 -45 -30 -75t-74 -38q4 -4 10.5 -6t14.5 -2zM333 -42q27 0 52 -14.5t25 -49.5q0 -61 -46.5 -97t-117.5 -38v21
q47 1 78.5 15.5t38.5 38.5q-13 -8 -29.5 -13t-37.5 -5q-34 0 -52 13t-18 40q0 41 32 65t75 24z" />
    <glyph glyph-name="uni0146" unicode="&#x146;" horiz-adv-x="619" 
d="M180 0h-177l122 434q5 16 6 25t-2.5 13t-12.5 4q-15 0 -28 -13.5t-27 -49.5l-23 -61h-19l28 78q19 53 52 78t85 25q53 0 76.5 -21.5t27.5 -54t-5 -64.5zM203 143q41 122 75.5 198.5t67 118.5t67 57.5t74.5 15.5q50 0 73 -20t24.5 -54.5t-12.5 -76.5l-99 -297
q-10 -28 -2.5 -35t14.5 -7q9 0 23 10.5t30 52.5l21 56h19l-25 -73q-22 -63 -62.5 -83t-80.5 -20q-64 0 -90 36q-15 21 -16.5 52.5t15.5 83.5l86 259q6 18 7.5 30t-0.5 18t-9 6q-20 0 -49 -41.5t-60.5 -110t-61 -151t-51.5 -165.5zM216 -42q27 0 52 -14.5t25 -49.5
q0 -61 -46.5 -97t-117.5 -38v21q47 1 78.5 15.5t38.5 38.5q-13 -8 -29.5 -13t-37.5 -5q-34 0 -52 13t-18 40q0 41 32 65t75 24z" />
    <glyph glyph-name="Ncaron" unicode="&#x147;" horiz-adv-x="861" 
d="M543 -5l-268 488l2 18t4 41.5t4 41.5l2 18q8 37 5.5 54.5t-20 24t-56.5 7.5l5 20q16 -1 39.5 -2t49.5 -1q47 0 81 3l224 -436l-5 -28t-12.5 -69t-15 -82.5t-12.5 -69.5l-5 -28h-22zM851 737q-25 0 -47 -16t-38 -39q-46 -68 -94 -239t-107 -448l-14 28q18 84 40.5 182.5
t47.5 193.5t52.5 172t56.5 119q19 27 45 45.5t63 18.5q53 0 85 -31t32 -76q0 -48 -32.5 -76.5t-79.5 -28.5q-40 0 -64.5 19.5t-24.5 54.5q0 45 30 75.5t74 37.5q-4 4 -10.5 6t-14.5 2zM37 -57q28 0 49 15.5t37 40.5q29 46 58.5 144t60 237t61.5 305l17 -21
q-20 -102 -42 -208t-45.5 -201t-47 -165.5t-46.5 -100.5q-18 -24 -42.5 -43.5t-64.5 -19.5q-53 0 -85 31t-32 76q0 48 33 76.5t79 28.5q41 0 65 -19.5t24 -54.5q0 -45 -30 -75t-74 -38q4 -4 10.5 -6t14.5 -2zM619 892q47 16 104 30t121 24l5 -14q-91 -28 -169.5 -75
t-125.5 -97h-18q-19 59 -49.5 99.5t-89.5 72.5l4 14q75 -12 124.5 -24.5t93.5 -29.5z" />
    <glyph glyph-name="ncaron" unicode="&#x148;" horiz-adv-x="619" 
d="M180 0h-177l122 434q5 16 6 25t-2.5 13t-12.5 4q-15 0 -28 -13.5t-27 -49.5l-23 -61h-19l28 78q19 53 52 78t85 25q53 0 76.5 -21.5t27.5 -54t-5 -64.5zM203 143q41 122 75.5 198.5t67 118.5t67 57.5t74.5 15.5q50 0 73 -20t24.5 -54.5t-12.5 -76.5l-99 -297
q-10 -28 -2.5 -35t14.5 -7q9 0 23 10.5t30 52.5l21 56h19l-25 -73q-22 -63 -62.5 -83t-80.5 -20q-64 0 -90 36q-15 21 -16.5 52.5t15.5 83.5l86 259q6 18 7.5 30t-0.5 18t-9 6q-20 0 -49 -41.5t-60.5 -110t-61 -151t-51.5 -165.5zM439 778q38 16 85.5 30t99.5 24l5 -14
q-79 -34 -146.5 -92t-108.5 -120h-18q-16 74 -42.5 124t-76.5 88l4 14q68 -12 113 -24.5t85 -29.5z" />
    <glyph glyph-name="napostrophe" unicode="&#x149;" horiz-adv-x="619" 
d="M180 0h-177l122 434q5 16 6 25t-2.5 13t-12.5 4q-15 0 -28 -13.5t-27 -49.5l-23 -61h-19l28 78q19 53 52 78t85 25q53 0 76.5 -21.5t27.5 -54t-5 -64.5zM203 143q41 122 75.5 198.5t67 118.5t67 57.5t74.5 15.5q50 0 73 -20t24.5 -54.5t-12.5 -76.5l-99 -297
q-10 -28 -2.5 -35t14.5 -7q9 0 23 10.5t30 52.5l21 56h19l-25 -73q-22 -63 -62.5 -83t-80.5 -20q-64 0 -90 36q-15 21 -16.5 52.5t15.5 83.5l86 259q6 18 7.5 30t-0.5 18t-9 6q-20 0 -49 -41.5t-60.5 -110t-61 -151t-51.5 -165.5zM188 723q0 -70 -40 -127t-110 -87l-5 18
q41 17 74 53t36 84q-14 -15 -32 -23t-38 -8q-78 0 -78 66q0 31 14.5 55t40 37.5t57.5 13.5q38 0 59.5 -19t21.5 -63z" />
    <glyph glyph-name="Eng" unicode="&#x14a;" horiz-adv-x="735" 
d="M693 602q14 55 2.5 69.5t-61.5 16.5l5 20q17 -1 42 -2t51 -1t50 1t41 2l-5 -20q-34 -1 -53 -7.5t-29.5 -24t-20.5 -54.5l-160 -607h-22l-350 479l-99 -368q-15 -55 -3 -69.5t62 -16.5l-4 -20q-18 2 -40.5 2.5t-48.5 0.5t-52 -0.5t-43 -2.5l4 20q35 2 53.5 8t29.5 24
t20 54l132 496q14 54 1 69t-72 17l5 20q16 -1 39.5 -2t49.5 -1q47 0 81 3l309 -433zM556 1q-10 -52 -27 -95t-48 -68.5t-85 -25.5q-33 0 -65.5 8.5t-53.5 28t-21 52.5q0 38 26.5 62.5t77.5 24.5q42 0 71.5 -18t29.5 -55q0 -28 -17.5 -49t-49.5 -35q8 -2 13 -2q35 0 58 19
t37 48.5t22 62.5t14 61z" />
    <glyph glyph-name="eng" unicode="&#x14b;" horiz-adv-x="602" 
d="M180 0h-18h-44h-52.5h-44.5h-18l122 434q7 23 6 32.5t-15 9.5q-15 0 -28 -13.5t-27 -49.5l-23 -61h-19l28 78q19 53 52 78t85 25q53 0 76.5 -21.5t27.5 -54t-5 -64.5zM495 115q-32 -100 -61.5 -157t-71.5 -89q-43 -34 -95 -45.5t-91 -11.5q-66 0 -96.5 19t-30.5 53
q0 35 25.5 58t62.5 23q35 0 55.5 -20.5t20.5 -46.5q0 -18 -11 -38t-34 -33q38 5 60 29t39 79l138 482q8 27 8 40.5t-10 13.5q-20 0 -49 -41.5t-60.5 -110t-61 -151t-51.5 -165.5l22 140q41 122 75.5 198.5t67 118.5t67 57.5t74.5 15.5q50 0 72.5 -20t24.5 -54.5t-12 -76.5z
" />
    <glyph glyph-name="Omacron" unicode="&#x14c;" horiz-adv-x="809" 
d="M502 704q-49 0 -94 -42t-80.5 -113t-56.5 -158.5t-21 -177.5q0 -98 25 -153.5t63 -55.5q49 0 94 42t80.5 113t56.5 158.5t21 177.5q0 98 -25 153.5t-63 55.5zM34 226q0 66 22 136t63 134t99.5 115t132.5 81t160 30q138 0 217 -62.5t79 -178.5q0 -66 -22 -135.5
t-63.5 -133.5t-100.5 -115t-132.5 -81t-159.5 -30q-138 0 -216.5 62.5t-78.5 177.5zM732 844l-6 -25h-432l6 25h432z" />
    <glyph glyph-name="omacron" unicode="&#x14d;" horiz-adv-x="557" 
d="M349 513q-17 0 -40 -28.5t-47 -76.5t-44.5 -107t-33 -121t-12.5 -118q0 -31 4.5 -43.5t14.5 -12.5q16 0 38.5 27t46 73t44 104t33.5 121.5t13 123.5q0 38 -5 48t-12 10zM6 156q0 59 20.5 124.5t63.5 123t108.5 93.5t155.5 36q87 0 132.5 -44t45.5 -126
q0 -59 -20.5 -124.5t-63.5 -123t-108.5 -93.5t-155.5 -36q-87 0 -132.5 44t-45.5 126zM571 712l-6 -25h-352l6 25h352z" />
    <glyph glyph-name="Obreve" unicode="&#x14e;" horiz-adv-x="809" 
d="M502 704q-49 0 -94 -42t-80.5 -113t-56.5 -158.5t-21 -177.5q0 -98 25 -153.5t63 -55.5q49 0 94 42t80.5 113t56.5 158.5t21 177.5q0 98 -25 153.5t-63 55.5zM34 226q0 66 22 136t63 134t99.5 115t132.5 81t160 30q138 0 217 -62.5t79 -178.5q0 -66 -22 -135.5
t-63.5 -133.5t-100.5 -115t-132.5 -81t-159.5 -30q-138 0 -216.5 62.5t-78.5 177.5zM529 882q73 0 129 14t104 42l12 -9q-26 -43 -67.5 -81t-92.5 -61.5t-106 -23.5q-73 0 -112.5 48t-51.5 115l15 8q31 -26 70 -39t100 -13z" />
    <glyph glyph-name="obreve" unicode="&#x14f;" horiz-adv-x="557" 
d="M349 513q-17 0 -40 -28.5t-47 -76.5t-44.5 -107t-33 -121t-12.5 -118q0 -31 4.5 -43.5t14.5 -12.5q16 0 38.5 27t46 73t44 104t33.5 121.5t13 123.5q0 38 -5 48t-12 10zM6 156q0 59 20.5 124.5t63.5 123t108.5 93.5t155.5 36q87 0 132.5 -44t45.5 -126
q0 -59 -20.5 -124.5t-63.5 -123t-108.5 -93.5t-155.5 -36q-87 0 -132.5 44t-45.5 126zM394 732q57 0 107 14t93 42l12 -9q-23 -43 -59.5 -81t-82 -61.5t-94.5 -23.5q-55 0 -85 48t-39 115l15 8q23 -26 52 -39t81 -13z" />
    <glyph glyph-name="Ohungarumlaut" unicode="&#x150;" horiz-adv-x="809" 
d="M502 704q-49 0 -94 -42t-80.5 -113t-56.5 -158.5t-21 -177.5q0 -98 25 -153.5t63 -55.5q49 0 94 42t80.5 113t56.5 158.5t21 177.5q0 98 -25 153.5t-63 55.5zM34 226q0 66 22 136t63 134t99.5 115t132.5 81t160 30q138 0 217 -62.5t79 -178.5q0 -66 -22 -135.5
t-63.5 -133.5t-100.5 -115t-132.5 -81t-159.5 -30q-138 0 -216.5 62.5t-78.5 177.5zM560 782q33 42 52 73t33.5 53t31.5 35q22 16 51 11t45 -31q16 -22 9 -47t-31 -41q-26 -17 -68.5 -26.5t-113.5 -36.5zM333 782q33 42 52 73t33.5 53t31.5 35q22 16 50.5 11t45.5 -31
q15 -22 8.5 -47t-30.5 -41q-26 -17 -68.5 -26.5t-113.5 -36.5z" />
    <glyph glyph-name="ohungarumlaut" unicode="&#x151;" horiz-adv-x="557" 
d="M349 513q-17 0 -40 -28.5t-47 -76.5t-44.5 -107t-33 -121t-12.5 -118q0 -31 4.5 -43.5t14.5 -12.5q16 0 38.5 27t46 73t44 104t33.5 121.5t13 123.5q0 38 -5 48t-12 10zM6 156q0 59 20.5 124.5t63.5 123t108.5 93.5t155.5 36q87 0 132.5 -44t45.5 -126
q0 -59 -20.5 -124.5t-63.5 -123t-108.5 -93.5t-155.5 -36q-87 0 -132.5 44t-45.5 126zM243 605q20 50 29 85.5t16 60.5t19 42q17 22 45.5 25.5t52.5 -15.5q21 -18 22.5 -43.5t-17.5 -47.5q-19 -25 -57 -46t-98 -68zM422 605q20 50 29 85.5t16 60.5t19 42q17 22 45.5 25.5
t52.5 -15.5q21 -18 22.5 -43.5t-17.5 -47.5q-19 -25 -57 -46t-98 -68z" />
    <glyph glyph-name="OE" unicode="&#x152;" horiz-adv-x="1020" 
d="M625 346l4 20h214l-4 -20h-214zM772 366q45 0 66 34.5t37 77.5h22q-13 -39 -19.5 -64.5t-14.5 -57.5q-6 -22 -11.5 -47t-14.5 -75h-22q0 23 4 48t-4.5 43.5t-46.5 20.5zM354 4q27 0 47 10.5t28 40.5l145 547q11 40 8 62t-19 31t-48 9q-54 0 -101.5 -42t-84.5 -113
t-58 -158.5t-21 -177.5q0 -98 27 -153.5t77 -55.5zM1001 528q16 89 -2.5 123t-78.5 34h-43q-33 0 -51.5 -5.5t-28.5 -23t-20 -54.5l-132 -496q-14 -55 -3 -69t60 -14h53q48 0 79.5 17t54.5 55.5t45 104.5h22q-5 -13 -10.5 -32t-10.5 -40q-5 -19 -13 -54.5t-13 -73.5
q-51 2 -113.5 2.5t-112.5 0.5h-65h-92t-90 -1q-25 -7 -52 -11.5t-55 -4.5q-138 0 -216.5 62.5t-78.5 177.5q0 66 22 136t63 134t99.5 115t132.5 81t160 30q23 0 46 -4.5t42 -12.5h96.5h99.5h72q46 0 103 0.5t104 2.5q-13 -35 -21.5 -59.5t-16.5 -58.5q-4 -18 -7.5 -34
t-5.5 -28h-22z" />
    <glyph glyph-name="oe" unicode="&#x153;" horiz-adv-x="815" 
d="M481 210q34 14 68.5 34.5t61.5 48.5q38 38 59.5 89t21.5 107q0 25 -16 25q-25 0 -55 -34t-57 -88t-44 -117t-17 -120q0 -58 23 -77.5t60 -19.5q20 0 60 15t80 55l16 -8q-22 -33 -58 -64t-85 -50.5t-110 -19.5q-70 0 -121.5 35.5t-51.5 105.5q0 59 18.5 117t52.5 110
t81.5 92.5t105.5 63.5t124 23q53 0 88.5 -21.5t35.5 -66.5q0 -38 -20 -71.5t-55 -61t-79 -49.5t-92.5 -38t-95.5 -25zM475 448q-7 15 -19 23t-25 10.5t-24 2.5q-38 0 -77 -27.5t-71.5 -75t-52.5 -107.5t-20 -125q0 -48 17 -70.5t48 -22.5q15 0 37.5 5.5t41.5 23.5l8 -10
q-18 -28 -44 -48t-56.5 -30.5t-64.5 -10.5q-83 0 -128 44t-45 126q0 59 26.5 124.5t75.5 123t119 93.5t157 36q38 0 69.5 -18.5t41.5 -58.5z" />
    <glyph glyph-name="Racute" unicode="&#x154;" horiz-adv-x="742" 
d="M311 356l24 -2t23.5 -2t23.5 -2q69 -3 126 -14t88 -40t21 -87l-17 -104q-5 -33 3 -47.5t27 -14.5q21 0 36 16.5t26 47.5l5 14h23l-4 -13q-19 -63 -61 -92.5t-114 -29.5q-83 0 -117.5 35t-24.5 95l19 114q6 34 0 59t-31 39t-78 14zM291 343l5 16h25q46 0 92.5 24
t78.5 75.5t32 131.5q0 51 -18.5 74.5t-51.5 23.5q-20 0 -32 -10.5t-20 -41.5l-140 -530q-8 -30 -9.5 -48t13.5 -27t54 -11l-4 -20q-34 2 -79.5 2.5t-98.5 0.5t-104.5 -0.5t-81.5 -2.5l4 20q34 2 53 8t30 24t20 54l131 496q8 30 8.5 48t-14 27t-52.5 11l5 20q20 -1 50 -1.5
t62.5 -1t57.5 -0.5q53 0 87.5 1t65.5 1q136 0 200.5 -31t64.5 -107q0 -70 -49.5 -120t-138 -77t-206.5 -27zM417 784q48 42 78 75.5t54.5 58.5t53.5 40q25 14 58 11.5t50 -34.5q15 -28 0.5 -52t-45.5 -41q-39 -21 -96.5 -31t-145.5 -39z" />
    <glyph glyph-name="racute" unicode="&#x155;" horiz-adv-x="499" 
d="M180 0h-177l122 434q6 23 4 32.5t-13 9.5q-15 0 -28 -13.5t-27 -49.5l-23 -61h-19l28 78q20 56 58.5 79.5t90.5 23.5q46 0 67 -21.5t24.5 -54t-4.5 -64.5zM435 513q-19 0 -40.5 -6t-45 -30.5t-50 -78.5t-56.5 -150t-63 -245l21 140q30 117 55 192.5t50 119t55 61t70 17.5
q47 0 72 -28t25 -69q0 -50 -31.5 -87.5t-81.5 -37.5q-37 0 -56 19t-19 56q0 44 32.5 80t76.5 44q-3 1 -6.5 2t-7.5 1zM263 609q34 54 53.5 94.5t35.5 71t39 53.5q20 20 52.5 27.5t57.5 -18.5q23 -22 16 -49t-32 -52q-21 -21 -51 -39t-70 -40.5t-91 -57.5z" />
    <glyph glyph-name="uni0156" unicode="&#x156;" horiz-adv-x="742" 
d="M311 356l24 -2t23.5 -2t23.5 -2q69 -3 126 -14t88 -40t21 -87l-17 -104q-5 -33 3 -47.5t27 -14.5q21 0 36 16.5t26 47.5l5 14h23l-4 -13q-19 -63 -61 -92.5t-114 -29.5q-83 0 -117.5 35t-24.5 95l19 114q6 34 0 59t-31 39t-78 14zM291 343l5 16h25q46 0 92.5 24
t78.5 75.5t32 131.5q0 51 -18.5 74.5t-51.5 23.5q-20 0 -32 -10.5t-20 -41.5l-140 -530q-8 -30 -9.5 -48t13.5 -27t54 -11l-4 -20q-34 2 -79.5 2.5t-98.5 0.5t-104.5 -0.5t-81.5 -2.5l4 20q34 2 53 8t30 24t20 54l131 496q8 30 8.5 48t-14 27t-52.5 11l5 20q20 -1 50 -1.5
t62.5 -1t57.5 -0.5q53 0 87.5 1t65.5 1q136 0 200.5 -31t64.5 -107q0 -70 -49.5 -120t-138 -77t-206.5 -27zM325 -42q27 0 52 -14.5t25 -49.5q0 -61 -46.5 -97t-117.5 -38v21q47 1 78.5 15.5t38.5 38.5q-13 -8 -29.5 -13t-37.5 -5q-34 0 -52 13t-18 40q0 41 32 65t75 24z
" />
    <glyph glyph-name="uni0157" unicode="&#x157;" horiz-adv-x="499" 
d="M180 0h-177l122 434q6 23 4 32.5t-13 9.5q-15 0 -28 -13.5t-27 -49.5l-23 -61h-19l28 78q20 56 58.5 79.5t90.5 23.5q46 0 67 -21.5t24.5 -54t-4.5 -64.5zM435 513q-19 0 -40.5 -6t-45 -30.5t-50 -78.5t-56.5 -150t-63 -245l21 140q30 117 55 192.5t50 119t55 61t70 17.5
q47 0 72 -28t25 -69q0 -50 -31.5 -87.5t-81.5 -37.5q-37 0 -56 19t-19 56q0 44 32.5 80t76.5 44q-3 1 -6.5 2t-7.5 1zM73 -42q27 0 52 -14.5t25 -49.5q0 -61 -46.5 -97t-117.5 -38v21q47 1 78.5 15.5t38.5 38.5q-13 -8 -29.5 -13t-37.5 -5q-34 0 -52 13t-18 40q0 41 32 65
t75 24z" />
    <glyph glyph-name="Rcaron" unicode="&#x158;" horiz-adv-x="742" 
d="M311 356l24 -2t23.5 -2t23.5 -2q69 -3 126 -14t88 -40t21 -87l-17 -104q-5 -33 3 -47.5t27 -14.5q21 0 36 16.5t26 47.5l5 14h23l-4 -13q-19 -63 -61 -92.5t-114 -29.5q-83 0 -117.5 35t-24.5 95l19 114q6 34 0 59t-31 39t-78 14zM291 343l5 16h25q46 0 92.5 24
t78.5 75.5t32 131.5q0 51 -18.5 74.5t-51.5 23.5q-20 0 -32 -10.5t-20 -41.5l-140 -530q-8 -30 -9.5 -48t13.5 -27t54 -11l-4 -20q-34 2 -79.5 2.5t-98.5 0.5t-104.5 -0.5t-81.5 -2.5l4 20q34 2 53 8t30 24t20 54l131 496q8 30 8.5 48t-14 27t-52.5 11l5 20q20 -1 50 -1.5
t62.5 -1t57.5 -0.5q53 0 87.5 1t65.5 1q136 0 200.5 -31t64.5 -107q0 -70 -49.5 -120t-138 -77t-206.5 -27zM516 892q47 16 104 30t121 24l5 -14q-91 -28 -169.5 -75t-125.5 -97h-18q-19 59 -49.5 99.5t-89.5 72.5l4 14q75 -12 124.5 -24.5t93.5 -29.5z" />
    <glyph glyph-name="rcaron" unicode="&#x159;" horiz-adv-x="499" 
d="M180 0h-177l122 434q6 23 4 32.5t-13 9.5q-15 0 -28 -13.5t-27 -49.5l-23 -61h-19l28 78q20 56 58.5 79.5t90.5 23.5q46 0 67 -21.5t24.5 -54t-4.5 -64.5zM435 513q-19 0 -40.5 -6t-45 -30.5t-50 -78.5t-56.5 -150t-63 -245l21 140q30 117 55 192.5t50 119t55 61t70 17.5
q47 0 72 -28t25 -69q0 -50 -31.5 -87.5t-81.5 -37.5q-37 0 -56 19t-19 56q0 44 32.5 80t76.5 44q-3 1 -6.5 2t-7.5 1zM388 778q38 16 85.5 30t99.5 24l5 -14q-79 -34 -146.5 -92t-108.5 -120h-18q-16 74 -42.5 124t-76.5 88l4 14q68 -12 113 -24.5t85 -29.5z" />
    <glyph glyph-name="Sacute" unicode="&#x15a;" horiz-adv-x="609" 
d="M649 715q-10 -26 -27 -75.5t-32 -128.5h-20q6 29 6 55q0 61 -38 95t-106 34q-43 0 -75.5 -22t-32.5 -75q0 -41 22.5 -80t56 -77t66.5 -77.5t55.5 -83t22.5 -92.5q0 -55 -29 -93.5t-74 -62.5t-95 -35t-93 -11q-52 0 -85 5t-57 15.5t-52 25.5q-10 6 -19 10.5t-15 4.5
q-13 0 -21 -11t-22 -43h-20q14 32 30 84t38 156h20q-5 -15 -7.5 -37.5t-1.5 -40.5q3 -73 46 -109.5t117 -36.5q70 0 93.5 26.5t23.5 65.5q0 51 -20.5 93t-50 80.5t-59.5 76t-50.5 78.5t-20.5 90q0 53 24.5 91t64.5 63t86 37t88 12q71 0 113 -17.5t64 -28.5l18 -9t15 -5
q14 0 33 53h20zM395 784q48 42 78 75.5t54.5 58.5t53.5 40q25 14 58 11.5t50 -34.5q15 -28 0.5 -52t-45.5 -41q-39 -21 -96.5 -31t-145.5 -39z" />
    <glyph glyph-name="sacute" unicode="&#x15b;" horiz-adv-x="446" 
d="M84 14q8 -4 16.5 -5.5t18.5 -1.5q31 0 51.5 20.5t20.5 55.5q0 34 -16 71t-42 78q-24 39 -42 73.5t-18 76.5q0 64 49.5 107.5t149.5 43.5q42 0 81.5 -10t65 -34.5t25.5 -70.5q0 -31 -18 -60t-53 -29q-30 0 -47 23.5t-17 60.5q0 32 10.5 57t21.5 37q-8 4 -25 4
q-35 0 -52.5 -20t-18.5 -58q-1 -34 18.5 -67t40.5 -69q33 -56 46.5 -91.5t13.5 -69.5q0 -41 -22.5 -75t-67 -54.5t-110.5 -20.5q-47 0 -89.5 11.5t-69 39.5t-26.5 77q0 37 18.5 63t49.5 26q29 0 47 -24t18 -64q0 -32 -10.5 -59t-17.5 -42zM250 609q34 54 53.5 94.5t35.5 71
t39 53.5q20 20 52.5 27.5t57.5 -18.5q23 -22 16 -49t-32 -52q-21 -21 -51 -39t-70 -40.5t-91 -57.5z" />
    <glyph glyph-name="Scircumflex" unicode="&#x15c;" horiz-adv-x="609" 
d="M649 715q-10 -26 -27 -75.5t-32 -128.5h-20q6 29 6 55q0 61 -38 95t-106 34q-43 0 -75.5 -22t-32.5 -75q0 -41 22.5 -80t56 -77t66.5 -77.5t55.5 -83t22.5 -92.5q0 -55 -29 -93.5t-74 -62.5t-95 -35t-93 -11q-52 0 -85 5t-57 15.5t-52 25.5q-10 6 -19 10.5t-15 4.5
q-13 0 -21 -11t-22 -43h-20q14 32 30 84t38 156h20q-5 -15 -7.5 -37.5t-1.5 -40.5q3 -73 46 -109.5t117 -36.5q70 0 93.5 26.5t23.5 65.5q0 51 -20.5 93t-50 80.5t-59.5 76t-50.5 78.5t-20.5 90q0 53 24.5 91t64.5 63t86 37t88 12q71 0 113 -17.5t64 -28.5l18 -9t15 -5
q14 0 33 53h20zM412 824q-46 -16 -103.5 -29.5t-121.5 -24.5l-5 14q91 29 169.5 75.5t125.5 96.5h18q19 -58 49.5 -99t89.5 -73l-4 -14q-75 12 -124.5 25t-93.5 29z" />
    <glyph glyph-name="scircumflex" unicode="&#x15d;" horiz-adv-x="446" 
d="M84 14q8 -4 16.5 -5.5t18.5 -1.5q31 0 51.5 20.5t20.5 55.5q0 34 -16 71t-42 78q-24 39 -42 73.5t-18 76.5q0 64 49.5 107.5t149.5 43.5q42 0 81.5 -10t65 -34.5t25.5 -70.5q0 -31 -18 -60t-53 -29q-30 0 -47 23.5t-17 60.5q0 32 10.5 57t21.5 37q-8 4 -25 4
q-35 0 -52.5 -20t-18.5 -58q-1 -34 18.5 -67t40.5 -69q33 -56 46.5 -91.5t13.5 -69.5q0 -41 -22.5 -75t-67 -54.5t-110.5 -20.5q-47 0 -89.5 11.5t-69 39.5t-26.5 77q0 37 18.5 63t49.5 26q29 0 47 -24t18 -64q0 -32 -10.5 -59t-17.5 -42zM292 660q-37 -16 -85 -29.5
t-100 -24.5l-5 14q79 35 146.5 92.5t108.5 119.5h18q16 -73 42.5 -123.5t76.5 -88.5l-4 -14q-67 12 -112.5 25t-85.5 29z" />
    <glyph glyph-name="Scedilla" unicode="&#x15e;" horiz-adv-x="609" 
d="M649 715q-10 -26 -27 -75.5t-32 -128.5h-20q6 29 6 55q0 61 -38 95t-106 34q-43 0 -75.5 -22t-32.5 -75q0 -41 22.5 -80t56 -77t66.5 -77.5t55.5 -83t22.5 -92.5q0 -55 -29 -93.5t-74 -62.5t-95 -35t-93 -11q-52 0 -85 5t-57 15.5t-52 25.5q-10 6 -19 10.5t-15 4.5
q-13 0 -21 -11t-22 -43h-20q14 32 30 84t38 156h20q-5 -15 -7.5 -37.5t-1.5 -40.5q3 -73 46 -109.5t117 -36.5q70 0 93.5 26.5t23.5 65.5q0 51 -20.5 93t-50 80.5t-59.5 76t-50.5 78.5t-20.5 90q0 53 24.5 91t64.5 63t86 37t88 12q71 0 113 -17.5t64 -28.5l18 -9t15 -5
q14 0 33 53h20zM254 7l-28 -64q31 12 62 12q34 0 55.5 -12.5t21.5 -40.5q0 -33 -27 -52.5t-68.5 -28.5t-85.5 -9q-38 0 -69.5 6.5t-46.5 11.5l6 16q9 -2 34 -6t47 -4q16 0 35 3t33 12t14 27q0 23 -28 23q-5 0 -14 -1.5t-17 -5.5l49 113h27z" />
    <glyph glyph-name="scedilla" unicode="&#x15f;" horiz-adv-x="446" 
d="M84 14q8 -4 16.5 -5.5t18.5 -1.5q31 0 51.5 20.5t20.5 55.5q0 34 -16 71t-42 78q-24 39 -42 73.5t-18 76.5q0 64 49.5 107.5t149.5 43.5q42 0 81.5 -10t65 -34.5t25.5 -70.5q0 -31 -18 -60t-53 -29q-30 0 -47 23.5t-17 60.5q0 32 10.5 57t21.5 37q-8 4 -25 4
q-35 0 -52.5 -20t-18.5 -58q-1 -34 18.5 -67t40.5 -69q33 -56 46.5 -91.5t13.5 -69.5q0 -41 -22.5 -75t-67 -54.5t-110.5 -20.5q-47 0 -89.5 11.5t-69 39.5t-26.5 77q0 37 18.5 63t49.5 26q29 0 47 -24t18 -64q0 -32 -10.5 -59t-17.5 -42zM159 0l-50 -67q14 5 30.5 8.5
t31.5 3.5q29 0 50.5 -10t21.5 -33q0 -33 -28.5 -52.5t-72.5 -28.5t-90 -9q-33 0 -58.5 6.5t-37.5 11.5l6 16l24 -6t37 -4q12 0 31.5 3t35 12t15.5 27q0 23 -28 23q-5 0 -14 -1.5t-17 -5.5l84 106h29z" />
    <glyph glyph-name="Scaron" unicode="&#x160;" horiz-adv-x="609" 
d="M649 715q-10 -26 -27 -75.5t-32 -128.5h-20q6 29 6 55q0 61 -38 95t-106 34q-43 0 -75.5 -22t-32.5 -75q0 -41 22.5 -80t56 -77t66.5 -77.5t55.5 -83t22.5 -92.5q0 -55 -29 -93.5t-74 -62.5t-95 -35t-93 -11q-52 0 -85 5t-57 15.5t-52 25.5q-10 6 -19 10.5t-15 4.5
q-13 0 -21 -11t-22 -43h-20q14 32 30 84t38 156h20q-5 -15 -7.5 -37.5t-1.5 -40.5q3 -73 46 -109.5t117 -36.5q70 0 93.5 26.5t23.5 65.5q0 51 -20.5 93t-50 80.5t-59.5 76t-50.5 78.5t-20.5 90q0 53 24.5 91t64.5 63t86 37t88 12q71 0 113 -17.5t64 -28.5l18 -9t15 -5
q14 0 33 53h20zM494 892q47 16 104 30t121 24l5 -14q-91 -28 -169.5 -75t-125.5 -97h-18q-19 59 -49.5 99.5t-89.5 72.5l4 14q75 -12 124.5 -24.5t93.5 -29.5z" />
    <glyph glyph-name="scaron" unicode="&#x161;" horiz-adv-x="446" 
d="M84 14q8 -4 16.5 -5.5t18.5 -1.5q31 0 51.5 20.5t20.5 55.5q0 34 -16 71t-42 78q-24 39 -42 73.5t-18 76.5q0 64 49.5 107.5t149.5 43.5q42 0 81.5 -10t65 -34.5t25.5 -70.5q0 -31 -18 -60t-53 -29q-30 0 -47 23.5t-17 60.5q0 32 10.5 57t21.5 37q-8 4 -25 4
q-35 0 -52.5 -20t-18.5 -58q-1 -34 18.5 -67t40.5 -69q33 -56 46.5 -91.5t13.5 -69.5q0 -41 -22.5 -75t-67 -54.5t-110.5 -20.5q-47 0 -89.5 11.5t-69 39.5t-26.5 77q0 37 18.5 63t49.5 26q29 0 47 -24t18 -64q0 -32 -10.5 -59t-17.5 -42zM375 778q38 16 85.5 30t99.5 24
l5 -14q-79 -34 -146.5 -92t-108.5 -120h-18q-16 74 -42.5 124t-76.5 88l4 14q68 -12 113 -24.5t85 -29.5z" />
    <glyph glyph-name="uni0162" unicode="&#x162;" horiz-adv-x="695" 
d="M790 886q45 0 71.5 -26.5t26.5 -59.5q0 -37 -21.5 -64.5t-62.5 -44.5q-33 -13 -76.5 -20t-96.5 -7q-43 0 -104.5 5t-124.5 10t-112 5q-36 0 -65.5 -4t-48.5 -13q38 -5 63.5 -30.5t25.5 -66.5q0 -43 -28 -71.5t-69 -28.5q-43 0 -66.5 29.5t-23.5 67.5q0 27 15 58.5
t58 52.5q24 12 49.5 17t48 6t36.5 1q63 0 126 -4.5t122 -9t108 -4.5q35 0 58.5 3t42.5 7l-3 -9q-18 14 -33 40t-15 61q0 46 28 73t71 27zM406 687l20 -1.5t49.5 -3.5l59 -4t49.5 -3.5l20 -1.5l-147 -557q-14 -52 1.5 -72t73.5 -24l-4 -20q-35 2 -91.5 2.5t-117.5 0.5
q-58 0 -111 -0.5t-85 -2.5l4 20q42 2 66.5 10.5t38 29t22.5 56.5zM336 7l-28 -64q31 12 62 12q34 0 55.5 -12.5t21.5 -40.5q0 -33 -27 -52.5t-68.5 -28.5t-85.5 -9q-38 0 -69.5 6.5t-46.5 11.5l6 16q9 -2 34 -6t47 -4q16 0 35 3t33 12t14 27q0 23 -28 23q-5 0 -14 -1.5
t-17 -5.5l49 113h27z" />
    <glyph glyph-name="uni0163" unicode="&#x163;" horiz-adv-x="365" 
d="M420 519l-3 -20h-371l5 20h369zM193 85q-6 -21 -0.5 -31.5t18.5 -10.5q20 0 40 22t32 54l16 43h19l-19 -55q-19 -57 -60 -89t-99 -32q-76 0 -98.5 51t-2.5 121l146 508q55 1 98 4t84 10zM133 0l-50 -67q14 5 30.5 8.5t31.5 3.5q29 0 50.5 -10t21.5 -33q0 -33 -28.5 -52.5
t-72.5 -28.5t-90 -9q-33 0 -58.5 6.5t-37.5 11.5l6 16l24 -6t37 -4q12 0 31.5 3t35 12t15.5 27q0 23 -28 23q-5 0 -14 -1.5t-17 -5.5l84 106h29z" />
    <glyph glyph-name="Tcaron" unicode="&#x164;" horiz-adv-x="695" 
d="M790 886q45 0 71.5 -26.5t26.5 -59.5q0 -37 -21.5 -64.5t-62.5 -44.5q-33 -13 -76.5 -20t-96.5 -7q-43 0 -104.5 5t-124.5 10t-112 5q-36 0 -65.5 -4t-48.5 -13q38 -5 63.5 -30.5t25.5 -66.5q0 -43 -28 -71.5t-69 -28.5q-43 0 -66.5 29.5t-23.5 67.5q0 27 15 58.5
t58 52.5q24 12 49.5 17t48 6t36.5 1q63 0 126 -4.5t122 -9t108 -4.5q35 0 58.5 3t42.5 7l-3 -9q-18 14 -33 40t-15 61q0 46 28 73t71 27zM406 687l20 -1.5t49.5 -3.5l59 -4t49.5 -3.5l20 -1.5l-147 -557q-14 -52 1.5 -72t73.5 -24l-4 -20q-35 2 -91.5 2.5t-117.5 0.5
q-58 0 -111 -0.5t-85 -2.5l4 20q42 2 66.5 10.5t38 29t22.5 56.5zM573 892q47 16 104 30t121 24l5 -14q-91 -28 -169.5 -75t-125.5 -97h-18q-19 59 -49.5 99.5t-89.5 72.5l4 14q75 -12 124.5 -24.5t93.5 -29.5z" />
    <glyph glyph-name="tcaron" unicode="&#x165;" horiz-adv-x="365" 
d="M420 519l-3 -20h-371l5 20h369zM193 85q-6 -21 -0.5 -31.5t18.5 -10.5q20 0 40 22t32 54l16 43h19l-19 -55q-19 -57 -60 -89t-99 -32q-76 0 -98.5 51t-2.5 121l146 508q55 1 98 4t84 10zM382 560q34 74 47.5 124t13.5 69t-13 19l3 21q9 0 17 -0.5t15 -0.5q39 0 65 4t47 8
q1 -2 1 -12q0 -37 -49 -100.5t-133 -135.5z" />
    <glyph glyph-name="Tbar" unicode="&#x166;" horiz-adv-x="695" 
d="M790 886q45 0 71.5 -26.5t26.5 -59.5q0 -37 -21.5 -64.5t-62.5 -44.5q-33 -13 -76.5 -20t-96.5 -7q-43 0 -104.5 5t-124.5 10t-112 5q-36 0 -65.5 -4t-48.5 -13q38 -5 63.5 -30.5t25.5 -66.5q0 -43 -28 -71.5t-69 -28.5q-43 0 -66.5 29.5t-23.5 67.5q0 27 15 58.5
t58 52.5q24 12 49.5 17t48 6t36.5 1q63 0 126 -4.5t122 -9t108 -4.5q35 0 58.5 3t42.5 7l-3 -9q-18 14 -33 40t-15 61q0 46 28 73t71 27zM406 687l20 -1.5t49.5 -3.5l59 -4t49.5 -3.5l20 -1.5l-147 -557q-14 -52 1.5 -72t73.5 -24l-4 -20q-35 2 -91.5 2.5t-117.5 0.5
q-58 0 -111 -0.5t-85 -2.5l4 20q42 2 66.5 10.5t38 29t22.5 56.5zM628 366l-6 -25h-432l6 25h432z" />
    <glyph glyph-name="tbar" unicode="&#x167;" horiz-adv-x="365" 
d="M398 421l-3 -20h-370l5 20h368zM420 519l-3 -20h-371l5 20h369zM193 85q-6 -21 -0.5 -31.5t18.5 -10.5q20 0 40 22t32 54l16 43h19l-19 -55q-19 -57 -60 -89t-99 -32q-76 0 -98.5 51t-2.5 121l146 508q55 1 98 4t84 10z" />
    <glyph glyph-name="Utilde" unicode="&#x168;" horiz-adv-x="702" 
d="M651 512q18 67 21.5 102.5t-14 51.5t-63.5 22l6 20q20 -1 51.5 -2t59.5 -1q23 0 45.5 1t38.5 2l-6 -20q-32 -6 -51 -21t-32.5 -46.5t-28.5 -88.5l-62 -241q-36 -138 -98 -212q-36 -42 -89.5 -67.5t-115.5 -25.5q-91 0 -145 27t-77 68q-20 38 -20.5 87.5t18.5 119.5
l83 314q14 55 2.5 69.5t-61.5 16.5l6 20q29 -1 80.5 -2t108.5 -1q50 0 95 1t80 2l-6 -20q-34 -1 -53 -7.5t-29.5 -24t-20.5 -54.5l-88 -331q-24 -91 -24.5 -146t18.5 -79.5t52 -24.5q75 0 125 33.5t82 92.5t51 133zM472 948q39 0 65 -11t46 -25.5t40.5 -25.5t49.5 -11
q23 0 43 13.5t39 44.5l18 -5q-32 -87 -84.5 -125t-105.5 -38q-39 0 -65 11t-46 25.5t-40.5 25.5t-49.5 11q-23 0 -42.5 -13t-39.5 -45l-18 5q32 87 84.5 125t105.5 38z" />
    <glyph glyph-name="utilde" unicode="&#x169;" horiz-adv-x="617" 
d="M391 354q-39 -117 -73 -189.5t-66.5 -111t-67 -53t-74.5 -14.5q-61 0 -83.5 38t2.5 113l97 297q10 29 2.5 35.5t-14.5 6.5q-9 0 -23 -10.5t-30 -52.5l-21 -56h-19l25 73q22 63 62.5 83t80.5 20q45 0 72 -18.5t33 -56.5t-14 -97l-86 -259q-18 -54 2 -54t49 41.5t61 110
t61.5 151.5t51.5 165zM474 85q-7 -23 -5.5 -32.5t14.5 -9.5q15 0 28.5 13.5t26.5 49.5l23 61h19l-28 -78q-20 -56 -59 -79.5t-84 -23.5q-35 0 -56.5 10.5t-32.5 28.5q-12 20 -11.5 46.5t7.5 54.5l103 393q52 1 97 4t84 10zM352 798q30 0 49.5 -11t34.5 -25.5t30.5 -25.5
t36.5 -11q20 0 37.5 13.5t34.5 44.5l18 -5q-29 -87 -76 -125t-94 -38q-30 0 -49.5 11t-34.5 25.5t-30.5 25.5t-36.5 11q-20 0 -37.5 -13t-34.5 -45l-18 5q29 87 76 125t94 38z" />
    <glyph glyph-name="Umacron" unicode="&#x16a;" horiz-adv-x="702" 
d="M651 512q18 67 21.5 102.5t-14 51.5t-63.5 22l6 20q20 -1 51.5 -2t59.5 -1q23 0 45.5 1t38.5 2l-6 -20q-32 -6 -51 -21t-32.5 -46.5t-28.5 -88.5l-62 -241q-36 -138 -98 -212q-36 -42 -89.5 -67.5t-115.5 -25.5q-91 0 -145 27t-77 68q-20 38 -20.5 87.5t18.5 119.5
l83 314q14 55 2.5 69.5t-61.5 16.5l6 20q29 -1 80.5 -2t108.5 -1q50 0 95 1t80 2l-6 -20q-34 -1 -53 -7.5t-29.5 -24t-20.5 -54.5l-88 -331q-24 -91 -24.5 -146t18.5 -79.5t52 -24.5q75 0 125 33.5t82 92.5t51 133zM721 844l-6 -25h-432l6 25h432z" />
    <glyph glyph-name="umacron" unicode="&#x16b;" horiz-adv-x="617" 
d="M391 354q-39 -117 -73 -189.5t-66.5 -111t-67 -53t-74.5 -14.5q-61 0 -83.5 38t2.5 113l97 297q10 29 2.5 35.5t-14.5 6.5q-9 0 -23 -10.5t-30 -52.5l-21 -56h-19l25 73q22 63 62.5 83t80.5 20q45 0 72 -18.5t33 -56.5t-14 -97l-86 -259q-18 -54 2 -54t49 41.5t61 110
t61.5 151.5t51.5 165zM474 85q-7 -23 -5.5 -32.5t14.5 -9.5q15 0 28.5 13.5t26.5 49.5l23 61h19l-28 -78q-20 -56 -59 -79.5t-84 -23.5q-35 0 -56.5 10.5t-32.5 28.5q-12 20 -11.5 46.5t7.5 54.5l103 393q52 1 97 4t84 10zM564 712l-6 -25h-352l6 25h352z" />
    <glyph glyph-name="Ubreve" unicode="&#x16c;" horiz-adv-x="702" 
d="M651 512q18 67 21.5 102.5t-14 51.5t-63.5 22l6 20q20 -1 51.5 -2t59.5 -1q23 0 45.5 1t38.5 2l-6 -20q-32 -6 -51 -21t-32.5 -46.5t-28.5 -88.5l-62 -241q-36 -138 -98 -212q-36 -42 -89.5 -67.5t-115.5 -25.5q-91 0 -145 27t-77 68q-20 38 -20.5 87.5t18.5 119.5
l83 314q14 55 2.5 69.5t-61.5 16.5l6 20q29 -1 80.5 -2t108.5 -1q50 0 95 1t80 2l-6 -20q-34 -1 -53 -7.5t-29.5 -24t-20.5 -54.5l-88 -331q-24 -91 -24.5 -146t18.5 -79.5t52 -24.5q75 0 125 33.5t82 92.5t51 133zM518 882q73 0 129 14t104 42l12 -9q-26 -43 -67.5 -81
t-92.5 -61.5t-106 -23.5q-73 0 -112.5 48t-51.5 115l15 8q31 -26 70 -39t100 -13z" />
    <glyph glyph-name="ubreve" unicode="&#x16d;" horiz-adv-x="617" 
d="M391 354q-39 -117 -73 -189.5t-66.5 -111t-67 -53t-74.5 -14.5q-61 0 -83.5 38t2.5 113l97 297q10 29 2.5 35.5t-14.5 6.5q-9 0 -23 -10.5t-30 -52.5l-21 -56h-19l25 73q22 63 62.5 83t80.5 20q45 0 72 -18.5t33 -56.5t-14 -97l-86 -259q-18 -54 2 -54t49 41.5t61 110
t61.5 151.5t51.5 165zM474 85q-7 -23 -5.5 -32.5t14.5 -9.5q15 0 28.5 13.5t26.5 49.5l23 61h19l-28 -78q-20 -56 -59 -79.5t-84 -23.5q-35 0 -56.5 10.5t-32.5 28.5q-12 20 -11.5 46.5t7.5 54.5l103 393q52 1 97 4t84 10zM387 732q57 0 107 14t93 42l12 -9
q-23 -43 -59.5 -81t-82 -61.5t-94.5 -23.5q-55 0 -85 48t-39 115l15 8q23 -26 52 -39t81 -13z" />
    <glyph glyph-name="Uring" unicode="&#x16e;" horiz-adv-x="702" 
d="M651 512q18 67 21.5 102.5t-14 51.5t-63.5 22l6 20q20 -1 51.5 -2t59.5 -1q23 0 45.5 1t38.5 2l-6 -20q-32 -6 -51 -21t-32.5 -46.5t-28.5 -88.5l-62 -241q-36 -138 -98 -212q-36 -42 -89.5 -67.5t-115.5 -25.5q-91 0 -145 27t-77 68q-20 38 -20.5 87.5t18.5 119.5
l83 314q14 55 2.5 69.5t-61.5 16.5l6 20q29 -1 80.5 -2t108.5 -1q50 0 95 1t80 2l-6 -20q-34 -1 -53 -7.5t-29.5 -24t-20.5 -54.5l-88 -331q-24 -91 -24.5 -146t18.5 -79.5t52 -24.5q75 0 125 33.5t82 92.5t51 133zM527 945q45 0 75.5 -24t30.5 -65q0 -31 -18.5 -57
t-49 -41.5t-65.5 -15.5q-43 0 -72.5 24t-29.5 66q0 48 37.5 80.5t91.5 32.5zM505 763q39 0 70.5 26.5t31.5 64.5q0 36 -27 53t-56 17q-40 0 -69.5 -28t-29.5 -64q0 -34 25 -51.5t55 -17.5z" />
    <glyph glyph-name="uring" unicode="&#x16f;" horiz-adv-x="617" 
d="M391 354q-39 -117 -73 -189.5t-66.5 -111t-67 -53t-74.5 -14.5q-61 0 -83.5 38t2.5 113l97 297q10 29 2.5 35.5t-14.5 6.5q-9 0 -23 -10.5t-30 -52.5l-21 -56h-19l25 73q22 63 62.5 83t80.5 20q45 0 72 -18.5t33 -56.5t-14 -97l-86 -259q-18 -54 2 -54t49 41.5t61 110
t61.5 151.5t51.5 165zM474 85q-7 -23 -5.5 -32.5t14.5 -9.5q15 0 28.5 13.5t26.5 49.5l23 61h19l-28 -78q-20 -56 -59 -79.5t-84 -23.5q-35 0 -56.5 10.5t-32.5 28.5q-12 20 -11.5 46.5t7.5 54.5l103 393q52 1 97 4t84 10zM404 801q45 0 75.5 -24t30.5 -65q0 -31 -18.5 -57
t-49 -41.5t-65.5 -15.5q-43 0 -72.5 24t-29.5 66q0 48 37.5 80.5t91.5 32.5zM382 619q39 0 70.5 26.5t31.5 64.5q0 36 -27 53t-56 17q-40 0 -69.5 -28t-29.5 -64q0 -34 25 -51.5t55 -17.5z" />
    <glyph glyph-name="Uhungarumlaut" unicode="&#x170;" horiz-adv-x="702" 
d="M651 512q18 67 21.5 102.5t-14 51.5t-63.5 22l6 20q20 -1 51.5 -2t59.5 -1q23 0 45.5 1t38.5 2l-6 -20q-32 -6 -51 -21t-32.5 -46.5t-28.5 -88.5l-62 -241q-36 -138 -98 -212q-36 -42 -89.5 -67.5t-115.5 -25.5q-91 0 -145 27t-77 68q-20 38 -20.5 87.5t18.5 119.5
l83 314q14 55 2.5 69.5t-61.5 16.5l6 20q29 -1 80.5 -2t108.5 -1q50 0 95 1t80 2l-6 -20q-34 -1 -53 -7.5t-29.5 -24t-20.5 -54.5l-88 -331q-24 -91 -24.5 -146t18.5 -79.5t52 -24.5q75 0 125 33.5t82 92.5t51 133zM549 782q33 42 52 73t33.5 53t31.5 35q22 16 51 11t45 -31
q16 -22 9 -47t-31 -41q-26 -17 -68.5 -26.5t-113.5 -36.5zM322 782q33 42 52 73t33.5 53t31.5 35q22 16 50.5 11t45.5 -31q15 -22 8.5 -47t-30.5 -41q-26 -17 -68.5 -26.5t-113.5 -36.5z" />
    <glyph glyph-name="uhungarumlaut" unicode="&#x171;" horiz-adv-x="617" 
d="M391 354q-39 -117 -73 -189.5t-66.5 -111t-67 -53t-74.5 -14.5q-61 0 -83.5 38t2.5 113l97 297q10 29 2.5 35.5t-14.5 6.5q-9 0 -23 -10.5t-30 -52.5l-21 -56h-19l25 73q22 63 62.5 83t80.5 20q45 0 72 -18.5t33 -56.5t-14 -97l-86 -259q-18 -54 2 -54t49 41.5t61 110
t61.5 151.5t51.5 165zM474 85q-7 -23 -5.5 -32.5t14.5 -9.5q15 0 28.5 13.5t26.5 49.5l23 61h19l-28 -78q-20 -56 -59 -79.5t-84 -23.5q-35 0 -56.5 10.5t-32.5 28.5q-12 20 -11.5 46.5t7.5 54.5l103 393q52 1 97 4t84 10zM236 605q20 50 29 85.5t16 60.5t19 42
q17 22 45.5 25.5t52.5 -15.5q21 -18 22.5 -43.5t-17.5 -47.5q-19 -25 -57 -46t-98 -68zM415 605q20 50 29 85.5t16 60.5t19 42q17 22 45.5 25.5t52.5 -15.5q21 -18 22.5 -43.5t-17.5 -47.5q-19 -25 -57 -46t-98 -68z" />
    <glyph glyph-name="Uogonek" unicode="&#x172;" horiz-adv-x="702" 
d="M651 512q18 67 21.5 102.5t-14 51.5t-63.5 22l6 20q20 -1 51.5 -2t59.5 -1q23 0 45.5 1t38.5 2l-6 -20q-32 -6 -51 -21t-32.5 -46.5t-28.5 -88.5l-62 -241q-36 -138 -98 -212q-36 -42 -89.5 -67.5t-115.5 -25.5q-91 0 -145 27t-77 68q-20 38 -20.5 87.5t18.5 119.5
l83 314q14 55 2.5 69.5t-61.5 16.5l6 20q29 -1 80.5 -2t108.5 -1q50 0 95 1t80 2l-6 -20q-34 -1 -53 -7.5t-29.5 -24t-20.5 -54.5l-88 -331q-24 -91 -24.5 -146t18.5 -79.5t52 -24.5q75 0 125 33.5t82 92.5t51 133zM407 3q-33 -13 -54.5 -33t-32 -41t-10.5 -40q0 -26 29 -26
q14 0 32.5 4.5t38.5 14.5l11 -17q-40 -28 -78 -40.5t-79 -12.5t-66 16t-25 45q0 31 30.5 56t80 43.5t105.5 30.5h18z" />
    <glyph glyph-name="uogonek" unicode="&#x173;" horiz-adv-x="617" 
d="M391 354q-39 -117 -73 -189.5t-66.5 -111t-67 -53t-74.5 -14.5q-61 0 -83.5 38t2.5 113l97 297q10 29 2.5 35.5t-14.5 6.5q-9 0 -23 -10.5t-30 -52.5l-21 -56h-19l25 73q22 63 62.5 83t80.5 20q45 0 72 -18.5t33 -56.5t-14 -97l-86 -259q-18 -54 2 -54t49 41.5t61 110
t61.5 151.5t51.5 165zM474 85q-7 -23 -5.5 -32.5t14.5 -9.5q15 0 28.5 13.5t26.5 49.5l23 61h19l-28 -78q-20 -56 -59 -79.5t-84 -23.5q-35 0 -56.5 10.5t-32.5 28.5q-12 20 -11.5 46.5t7.5 54.5l103 393q52 1 97 4t84 10zM479 3q-33 -13 -54.5 -33t-32 -41.5t-10.5 -41.5
q0 -24 23 -24q14 0 30 9t29 21l15 -13q-29 -35 -66 -51.5t-77 -16.5q-41 0 -66 16t-25 45q0 31 30.5 56t80 43.5t105.5 30.5h18z" />
    <glyph glyph-name="Wcircumflex" unicode="&#x174;" horiz-adv-x="1035" 
d="M609 514l-317 -519h-75l-79 629q-4 36 -21 49.5t-31 14.5l5 20q29 -1 75.5 -2t92.5 -1q45 0 82 1t62 2l-5 -20q-30 -2 -41.5 -17t-8.5 -67l46 -425l-44 -48l254 410zM1001 577q24 42 21 65t-26.5 33t-62.5 13l5 20q10 -1 36.5 -1.5t57 -1t48.5 -0.5q21 0 40 1t35 2
l-5 -20q-24 -7 -44.5 -18t-41.5 -34t-46 -67l-327 -574h-75l-79 629q-4 36 -17.5 49.5t-24.5 14.5l5 20q27 -1 71 -2t87 -1q54 0 99.5 1t74.5 2l-5 -20q-48 -2 -66.5 -17t-13.5 -67l46 -425l-46 -45zM663 821q-46 -16 -103.5 -29.5t-121.5 -24.5l-5 14q91 29 169.5 75.5
t125.5 96.5h18q19 -58 49.5 -99t89.5 -73l-4 -14q-75 12 -124.5 25t-93.5 29z" />
    <glyph glyph-name="wcircumflex" unicode="&#x175;" horiz-adv-x="676" 
d="M299 45q-28 -26 -67.5 -42.5t-95.5 -16.5q-68 0 -104.5 36.5t-36.5 91.5q0 46 26 89t73.5 87.5t113.5 94.5t145 110l-3 -5q-37 0 -64 -14t-47.5 -32.5t-39.5 -32.5t-42 -14q-19 0 -30 7.5t-25 7.5q-13 0 -19.5 -9t-13.5 -29l-7 -21h-19l22 73q19 63 44.5 82.5t51.5 19.5
q20 0 36.5 -5.5t37.5 -11.5t55 -6q11 0 30.5 2.5t43.5 12.5l10 19l21 -10q-61 -71 -108.5 -149.5t-74.5 -151t-27 -126.5q0 -29 10 -46t37 -17q31 0 58 19zM483 69q25 0 45 13t35.5 35.5t25.5 52.5t16 64.5t7 71.5q-34 16 -70 37t-60.5 51.5t-24.5 73.5q0 21 16 43t53 22
q33 0 54 -22.5t32.5 -56.5t16 -69.5t4.5 -62.5q0 -49 -9.5 -98t-28 -91.5t-45.5 -75.5t-62.5 -52t-79.5 -19q-34 0 -67 12t-54 42t-21 83q0 47 17 89.5t43 75.5t55.5 52t54.5 19q19 0 27.5 -11t11 -26t2.5 -26q0 -65 -27.5 -125t-80.5 -108l-7 17q42 41 67 97.5t25 112.5
q0 21 -4 34t-12 13q-12 0 -23 -23t-18 -59t-7 -77q0 -32 10.5 -56.5t31.5 -38.5t51 -14zM391 660q-37 -16 -85 -29.5t-100 -24.5l-5 14q79 35 146.5 92.5t108.5 119.5h18q16 -73 42.5 -123.5t76.5 -88.5l-4 -14q-67 12 -112.5 25t-85.5 29z" />
    <glyph glyph-name="Ycircumflex" unicode="&#x176;" horiz-adv-x="776" 
d="M422 106q-13 -55 7.5 -69.5t71.5 -16.5l-5 -20q-21 1 -55.5 1.5t-74 1t-74.5 0.5q-54 0 -103 -0.5t-78 -2.5l5 20q34 2 53 8t30 24t20 54l69 274l85 -63l93 19l34 80zM732 705q-16 0 -30.5 -5t-33.5 -19q-25 -18 -62.5 -72t-75.5 -140t-67 -199l-188 -5q-4 47 -11 98
t-17.5 99.5t-24 88t-29.5 62.5t-36 23q-19 0 -29.5 -15.5t-15.5 -31.5l-17 -51h-11h-11l21 64q23 69 70 94.5t99 25.5q77 0 117 -40.5t58.5 -119.5t31.5 -193q31 95 69 169.5t79 123.5q23 27 52.5 43.5t66.5 16.5q53 0 85 -31t32 -76q0 -48 -32.5 -76.5t-79.5 -28.5
q-40 0 -64.5 19.5t-24.5 54.5q0 45 30 75.5t74 37.5q-4 4 -10.5 6t-14.5 2zM490 824q-46 -16 -103.5 -29.5t-121.5 -24.5l-5 14q91 29 169.5 75.5t125.5 96.5h18q19 -58 49.5 -99t89.5 -73l-4 -14q-75 12 -124.5 25t-93.5 29z" />
    <glyph glyph-name="ycircumflex" unicode="&#x177;" horiz-adv-x="483" 
d="M323 75l-133 -153l-84 511q-4 25 -8 34t-13 9q-10 0 -17.5 -11.5t-22.5 -51.5l-21 -56h-19l25 73q21 61 53.5 82t75.5 21q47 0 77.5 -24.5t40.5 -94.5zM71 -137q49 22 100 61.5t104 106.5q53 66 91 137.5t59 131.5q-46 26 -75 65.5t-29 85.5q0 38 20.5 60t57.5 22
q40 0 58 -26t18 -71t-15.5 -99.5t-43 -113.5t-63 -115t-75.5 -104q-42 -51 -87 -88t-90.5 -61t-90.5 -35q-16 -4 -31.5 -6t-27.5 -2q-40 0 -61.5 17.5t-21.5 48.5q0 29 21.5 51t58.5 22t67.5 -22.5t55.5 -65.5zM309 660q-37 -16 -85 -29.5t-100 -24.5l-5 14
q79 35 146.5 92.5t108.5 119.5h18q16 -73 42.5 -123.5t76.5 -88.5l-4 -14q-67 12 -112.5 25t-85.5 29z" />
    <glyph glyph-name="Ydieresis" unicode="&#x178;" horiz-adv-x="776" 
d="M422 106q-13 -55 7.5 -69.5t71.5 -16.5l-5 -20q-21 1 -55.5 1.5t-74 1t-74.5 0.5q-54 0 -103 -0.5t-78 -2.5l5 20q34 2 53 8t30 24t20 54l69 274l85 -63l93 19l34 80zM732 705q-16 0 -30.5 -5t-33.5 -19q-25 -18 -62.5 -72t-75.5 -140t-67 -199l-188 -5q-4 47 -11 98
t-17.5 99.5t-24 88t-29.5 62.5t-36 23q-19 0 -29.5 -15.5t-15.5 -31.5l-17 -51h-11h-11l21 64q23 69 70 94.5t99 25.5q77 0 117 -40.5t58.5 -119.5t31.5 -193q31 95 69 169.5t79 123.5q23 27 52.5 43.5t66.5 16.5q53 0 85 -31t32 -76q0 -48 -32.5 -76.5t-79.5 -28.5
q-40 0 -64.5 19.5t-24.5 54.5q0 45 30 75.5t74 37.5q-4 4 -10.5 6t-14.5 2zM287 838q0 52 30.5 75t68.5 23q40 0 57.5 -21.5t17.5 -56.5q0 -52 -31.5 -74t-68.5 -22q-40 0 -57 21t-17 55zM545 838q0 52 30.5 75t68.5 23q40 0 57.5 -21.5t17.5 -56.5q0 -52 -31.5 -74
t-68.5 -22q-40 0 -57 21t-17 55z" />
    <glyph glyph-name="Zacute" unicode="&#x179;" horiz-adv-x="662" 
d="M164 346l7 20h353l-8 -20h-352zM452 216l2 9.5l2 9.5q36 -5 69.5 -18.5t55 -37t21.5 -60.5q0 -58 -43.5 -95.5t-117.5 -37.5q-47 0 -83 11.5t-68 27t-67 27t-81 11.5q-21 0 -39.5 -4t-38.5 -11q-22 -32 -48 -49t-40 -4q-12 11 2 33t67 42l580 570q-51 -52 -107.5 -83
t-115.5 -31q-51 0 -87.5 9t-63.5 18t-52 9q-13 0 -21 -5t-8 -18q0 -14 16 -26.5t57 -20.5l-2.5 -9.5l-2.5 -9.5q-35 6 -69 19t-55.5 37t-21.5 60q0 58 43.5 95.5t117.5 37.5q47 0 83 -11.5t68 -27t67 -27t81 -11.5q21 0 39.5 4t38.5 11q23 32 48 49t40 4q12 -10 -2 -32.5
t-67 -42.5l-580 -570q51 52 108 83t116 31q52 0 88 -9t63 -18t52 -9q13 0 21 5t8 18q0 14 -16 26.5t-57 20.5zM416 784q48 42 78 75.5t54.5 58.5t53.5 40q25 14 58 11.5t50 -34.5q15 -28 0.5 -52t-45.5 -41q-39 -21 -96.5 -31t-145.5 -39z" />
    <glyph glyph-name="zacute" unicode="&#x17a;" horiz-adv-x="476" 
d="M39 67q34 13 66.5 37.5t63.5 45.5t58 21q24 0 37 -8t23.5 -16t26.5 -8q14 0 19.5 9t5.5 16q0 21 -14 32t-30 15l6 15q59 -13 85 -40.5t26 -72.5q0 -53 -33.5 -90t-99.5 -37q-34 0 -60.5 9t-49.5 21.5t-48.5 21.5t-59.5 9q-27 0 -48.5 -9.5t-42.5 -37.5h-31l509 461
q-30 -11 -59.5 -31.5t-57.5 -41.5t-54.5 -36t-49.5 -15t-36.5 8t-23.5 16t-25 8q-13 0 -19.5 -7.5t-6.5 -17.5q0 -17 10.5 -26.5t33.5 -20.5l-6 -15q-53 12 -82 38.5t-29 69.5q0 34 18 65.5t54 52t89 20.5q35 0 60 -8.5t47 -20t46 -20t56 -8.5q31 0 51.5 10.5t40.5 36.5h31z
M262 609q34 54 53.5 94.5t35.5 71t39 53.5q20 20 52.5 27.5t57.5 -18.5q23 -22 16 -49t-32 -52q-21 -21 -51 -39t-70 -40.5t-91 -57.5z" />
    <glyph glyph-name="Zdotaccent" unicode="&#x17b;" horiz-adv-x="662" 
d="M164 346l7 20h353l-8 -20h-352zM452 216l2 9.5l2 9.5q36 -5 69.5 -18.5t55 -37t21.5 -60.5q0 -58 -43.5 -95.5t-117.5 -37.5q-47 0 -83 11.5t-68 27t-67 27t-81 11.5q-21 0 -39.5 -4t-38.5 -11q-22 -32 -48 -49t-40 -4q-12 11 2 33t67 42l580 570q-51 -52 -107.5 -83
t-115.5 -31q-51 0 -87.5 9t-63.5 18t-52 9q-13 0 -21 -5t-8 -18q0 -14 16 -26.5t57 -20.5l-2.5 -9.5l-2.5 -9.5q-35 6 -69 19t-55.5 37t-21.5 60q0 58 43.5 95.5t117.5 37.5q47 0 83 -11.5t68 -27t67 -27t81 -11.5q21 0 39.5 4t38.5 11q23 32 48 49t40 4q12 -10 -2 -32.5
t-67 -42.5l-580 -570q51 52 108 83t116 31q52 0 88 -9t63 -18t52 -9q13 0 21 5t8 18q0 14 -16 26.5t-57 20.5zM341 826q0 54 35 80t87 26q44 0 66.5 -17t22.5 -51q0 -47 -35.5 -75.5t-87.5 -28.5q-43 0 -65.5 17t-22.5 49z" />
    <glyph glyph-name="zdotaccent" unicode="&#x17c;" horiz-adv-x="476" 
d="M39 67q34 13 66.5 37.5t63.5 45.5t58 21q24 0 37 -8t23.5 -16t26.5 -8q14 0 19.5 9t5.5 16q0 21 -14 32t-30 15l6 15q59 -13 85 -40.5t26 -72.5q0 -53 -33.5 -90t-99.5 -37q-34 0 -60.5 9t-49.5 21.5t-48.5 21.5t-59.5 9q-27 0 -48.5 -9.5t-42.5 -37.5h-31l509 461
q-30 -11 -59.5 -31.5t-57.5 -41.5t-54.5 -36t-49.5 -15t-36.5 8t-23.5 16t-25 8q-13 0 -19.5 -7.5t-6.5 -17.5q0 -17 10.5 -26.5t33.5 -20.5l-6 -15q-53 12 -82 38.5t-29 69.5q0 34 18 65.5t54 52t89 20.5q35 0 60 -8.5t47 -20t46 -20t56 -8.5q31 0 51.5 10.5t40.5 36.5h31z
M236 676q0 54 35 80t87 26q44 0 66.5 -17t22.5 -51q0 -47 -35.5 -75.5t-87.5 -28.5q-43 0 -65.5 17t-22.5 49z" />
    <glyph glyph-name="Zcaron" unicode="&#x17d;" horiz-adv-x="662" 
d="M164 346l7 20h353l-8 -20h-352zM452 216l2 9.5l2 9.5q36 -5 69.5 -18.5t55 -37t21.5 -60.5q0 -58 -43.5 -95.5t-117.5 -37.5q-47 0 -83 11.5t-68 27t-67 27t-81 11.5q-21 0 -39.5 -4t-38.5 -11q-22 -32 -48 -49t-40 -4q-12 11 2 33t67 42l580 570q-51 -52 -107.5 -83
t-115.5 -31q-51 0 -87.5 9t-63.5 18t-52 9q-13 0 -21 -5t-8 -18q0 -14 16 -26.5t57 -20.5l-2.5 -9.5l-2.5 -9.5q-35 6 -69 19t-55.5 37t-21.5 60q0 58 43.5 95.5t117.5 37.5q47 0 83 -11.5t68 -27t67 -27t81 -11.5q21 0 39.5 4t38.5 11q23 32 48 49t40 4q12 -10 -2 -32.5
t-67 -42.5l-580 -570q51 52 108 83t116 31q52 0 88 -9t63 -18t52 -9q13 0 21 5t8 18q0 14 -16 26.5t-57 20.5zM515 892q47 16 104 30t121 24l5 -14q-91 -28 -169.5 -75t-125.5 -97h-18q-19 59 -49.5 99.5t-89.5 72.5l4 14q75 -12 124.5 -24.5t93.5 -29.5z" />
    <glyph glyph-name="zcaron" unicode="&#x17e;" horiz-adv-x="476" 
d="M39 67q34 13 66.5 37.5t63.5 45.5t58 21q24 0 37 -8t23.5 -16t26.5 -8q14 0 19.5 9t5.5 16q0 21 -14 32t-30 15l6 15q59 -13 85 -40.5t26 -72.5q0 -53 -33.5 -90t-99.5 -37q-34 0 -60.5 9t-49.5 21.5t-48.5 21.5t-59.5 9q-27 0 -48.5 -9.5t-42.5 -37.5h-31l509 461
q-30 -11 -59.5 -31.5t-57.5 -41.5t-54.5 -36t-49.5 -15t-36.5 8t-23.5 16t-25 8q-13 0 -19.5 -7.5t-6.5 -17.5q0 -17 10.5 -26.5t33.5 -20.5l-6 -15q-53 12 -82 38.5t-29 69.5q0 34 18 65.5t54 52t89 20.5q35 0 60 -8.5t47 -20t46 -20t56 -8.5q31 0 51.5 10.5t40.5 36.5h31z
M387 778q38 16 85.5 30t99.5 24l5 -14q-79 -34 -146.5 -92t-108.5 -120h-18q-16 74 -42.5 124t-76.5 88l4 14q68 -12 113 -24.5t85 -29.5z" />
    <glyph glyph-name="longs" unicode="&#x17f;" horiz-adv-x="355" 
d="M47 499l6 20h165l-6 -20h-165zM440 762q-14 0 -26 -3.5t-23 -12.5q-14 -12 -25.5 -35.5t-22.5 -63.5l-220 -821q-54 -1 -96.5 -4t-84.5 -10l186 692q23 88 54.5 145.5t74.5 88.5q32 23 69.5 33.5t81.5 10.5q74 0 115.5 -30t41.5 -82q0 -35 -29.5 -67.5t-78.5 -32.5
q-37 0 -58.5 17.5t-21.5 50.5q0 38 23.5 70t65.5 48q-7 3 -13 4.5t-13 1.5z" />
    <glyph glyph-name="uni018F" unicode="&#x18f;" horiz-adv-x="780" 
d="M296 -14q-74 0 -135.5 24t-98 72.5t-36.5 123.5q0 44 14 98h550l-2 -19h-341q-26 -78 -26 -142q0 -58 24 -96t73 -38q56 0 105.5 63t92.5 219v8q13 45 19.5 96.5t6.5 94.5q0 77 -20 119.5t-54.5 60t-80.5 17.5q-31 0 -57.5 -6.5t-52.5 -19.5q-56 -28 -85.5 -75
t-54.5 -118h-23q18 56 29 100.5t17.5 79.5t9.5 60h23q-3 -22 -3 -35q0 -24 12 -24q9 0 23 8q16 8 47.5 24t81 29t120.5 13q85 0 152.5 -26t106.5 -84t39 -155q0 -92 -36 -177t-101 -151.5t-151.5 -105t-187.5 -38.5z" />
    <glyph glyph-name="florin" unicode="&#x192;" horiz-adv-x="568" 
d="M579 514l-5 -20h-487l5 20h487zM-44 -188q-57 0 -87.5 19t-30.5 53q0 35 25.5 58t62.5 23q35 0 55.5 -20.5t20.5 -46.5q0 -18 -11 -38t-34 -33q40 5 64 28.5t39 79.5l155 580q17 65 50.5 121.5t68.5 82.5q41 31 85 47t101 16q68 0 99 -33.5t31 -78.5q0 -28 -12 -56
t-34 -46t-52 -18q-32 0 -51 17.5t-19 50.5q0 44 24.5 81t64.5 57q-4 5 -11.5 7.5t-17.5 2.5q-17 0 -30 -10.5t-24 -25.5q-11 -16 -22 -41t-23.5 -66t-30.5 -108l-107 -400q-23 -88 -63 -146.5t-99 -100.5q-43 -31 -93 -43.5t-94 -12.5z" />
    <glyph glyph-name="Ohorn" unicode="&#x1a0;" horiz-adv-x="809" 
d="M606 686l-5 20q92 -12 150 -7t105 21l-3 -9q-25 11 -46.5 33.5t-21.5 55.5q0 35 23 55.5t54 20.5q32 0 56 -21.5t24 -60.5q0 -28 -15 -50.5t-47 -36.5q-33 -15 -103.5 -26t-170.5 5zM502 704q-49 0 -94 -42t-80.5 -113t-56.5 -158.5t-21 -177.5q0 -98 25 -153.5t63 -55.5
q49 0 94 42t80.5 113t56.5 158.5t21 177.5q0 98 -25 153.5t-63 55.5zM34 226q0 66 22 136t63 134t99.5 115t132.5 81t160 30q138 0 217 -62.5t79 -178.5q0 -66 -22 -135.5t-63.5 -133.5t-100.5 -115t-132.5 -81t-159.5 -30q-138 0 -216.5 62.5t-78.5 177.5z" />
    <glyph glyph-name="ohorn" unicode="&#x1a1;" horiz-adv-x="557" 
d="M421 482l-5 20q44 0 73.5 4.5t53.5 11.5l-3 -9q-22 11 -40 32t-18 51q0 32 22.5 52t56.5 20q30 0 54 -17t24 -54q0 -28 -16 -49t-48 -35q-27 -11 -67 -18t-87 -9zM349 513q-17 0 -40 -28.5t-47 -76.5t-44.5 -107t-33 -121t-12.5 -118q0 -31 4.5 -43.5t14.5 -12.5
q16 0 38.5 27t46 73t44 104t33.5 121.5t13 123.5q0 38 -5 48t-12 10zM6 156q0 59 20.5 124.5t63.5 123t108.5 93.5t155.5 36q87 0 132.5 -44t45.5 -126q0 -59 -20.5 -124.5t-63.5 -123t-108.5 -93.5t-155.5 -36q-87 0 -132.5 44t-45.5 126z" />
    <glyph glyph-name="Uhorn" unicode="&#x1af;" horiz-adv-x="702" 
d="M301 -14q-78 0 -132 26.5t-78 68.5q-22 38 -20.5 90t18.5 117l83 314q14 55 2.5 69.5t-61.5 16.5l6 20q29 -1 80.5 -2t104.5 -1t98.5 1t80.5 2l-6 -20q-34 -1 -53 -7.5t-29.5 -24t-20.5 -54.5l-88 -331q-25 -94 -26 -149t22 -78t68 -23q63 0 110 35t79.5 93.5t50.5 130.5
l106 410l2 -6q-26 0 -52.5 0.5t-51.5 3.5l5 20q23 -1 37 -2.5t36 -1.5q38 0 65 4t51 17l-3 -8q-25 11 -46.5 33.5t-21.5 55.5q0 35 23 55.5t54 20.5q32 0 56 -21.5t24 -59.5q0 -31 -17.5 -52.5t-44.5 -35.5q-25 -13 -50.5 -19.5t-50.5 -8.5l8 5l-104 -399
q-16 -60 -38.5 -115t-58.5 -97t-88.5 -67.5t-128.5 -25.5z" />
    <glyph glyph-name="uhorn" unicode="&#x1b0;" horiz-adv-x="617" 
d="M510 501l-5 20q44 4 73.5 9t53.5 12l-3 -9q-22 11 -40 32t-18 51q0 32 22.5 52t56.5 20q30 0 54 -17t24 -54q0 -28 -16 -49t-48 -35q-27 -11 -67 -19t-87 -13zM391 354q-39 -117 -73 -189.5t-66.5 -111t-67 -53t-74.5 -14.5q-61 0 -83.5 38t2.5 113l97 297
q10 29 2.5 35.5t-14.5 6.5q-9 0 -23 -10.5t-30 -52.5l-21 -56h-19l25 73q22 63 62.5 83t80.5 20q45 0 72 -18.5t33 -56.5t-14 -97l-86 -259q-18 -54 2 -54t49 41.5t61 110t61.5 151.5t51.5 165zM474 85q-7 -23 -5.5 -32.5t14.5 -9.5q15 0 28.5 13.5t26.5 49.5l23 61h19
l-28 -78q-20 -56 -59 -79.5t-84 -23.5q-35 0 -56.5 10.5t-32.5 28.5q-12 20 -11.5 46.5t7.5 54.5l103 393q52 1 97 4t84 10z" />
    <glyph glyph-name="uni01B7" unicode="&#x1b7;" horiz-adv-x="617" 
d="M681 708l-5 -20l-243 -347l-17 57q79 -34 118.5 -76t39.5 -108t-44 -117.5t-118.5 -81t-166.5 -29.5q-69 0 -110 12.5t-64 23.5q-14 7 -24.5 11t-18.5 4q-10 0 -18 -11t-16 -33h-23q9 26 19 60.5t24 89.5t33 140h23q-19 -74 -11.5 -135t46.5 -96.5t112 -35.5
q50 0 88.5 31t61 78t22.5 96q0 68 -35 106.5t-106 52.5l5 20l201 285h-50q-41 0 -93.5 -19t-102 -66t-82.5 -132h-23q17 46 31.5 114t24.5 126q46 -2 104 -2.5t104 -0.5q75 0 158 0.5t156 2.5z" />
    <glyph glyph-name="uni01CD" unicode="&#x1cd;" horiz-adv-x="669" 
d="M47 131q-27 -38 -24 -61.5t28.5 -35t63.5 -14.5l-4 -20q-52 2 -83 2.5t-59 0.5q-21 0 -35 -0.5t-30 -2.5l4 20q29 8 54 33t68 86l408 574q18 -2 38.5 -2t36.5 2l40 -629q3 -36 18.5 -49.5t30.5 -14.5l-4 -20q-29 2 -78 2.5t-91 0.5q-51 0 -97 -0.5t-73 -2.5l4 20
q48 2 68.5 17.5t17.5 66.5l-23 438l53 58zM149 288h292l-8 -20h-302zM559 892q47 16 104 30t121 24l5 -14q-91 -28 -169.5 -75t-125.5 -97h-18q-19 59 -49.5 99.5t-89.5 72.5l4 14q75 -12 124.5 -24.5t93.5 -29.5z" />
    <glyph glyph-name="uni01CE" unicode="&#x1ce;" horiz-adv-x="582" 
d="M204 54q10 0 21 8t23 27.5t26 54.5t30 90l-26 -109q-25 -80 -66.5 -109.5t-94.5 -29.5q-63 0 -93.5 32.5t-30.5 92.5q0 58 19.5 118t53 114.5t75 97t86.5 67.5t87 25q32 0 49.5 -20t12.5 -71l-11 -6q5 25 0 36.5t-17 11.5q-21 0 -49.5 -33t-55 -87.5t-44.5 -121.5
t-18 -135q0 -28 5 -40.5t18 -12.5zM389 518q55 1 97.5 4.5t83.5 10.5l-135 -448q-5 -16 -4.5 -25.5t5 -13t11.5 -3.5q9 0 23 10.5t30 52.5l21 56h19l-25 -73q-22 -63 -62.5 -83t-80.5 -20q-61 0 -87 35q-15 21 -16.5 55t12.5 82zM453 778q38 16 85.5 30t99.5 24l5 -14
q-79 -34 -146.5 -92t-108.5 -120h-18q-16 74 -42.5 124t-76.5 88l4 14q68 -12 113 -24.5t85 -29.5z" />
    <glyph glyph-name="uni01D3" unicode="&#x1d3;" horiz-adv-x="702" 
d="M651 512q18 67 21.5 102.5t-14 51.5t-63.5 22l6 20q20 -1 51.5 -2t59.5 -1q23 0 45.5 1t38.5 2l-6 -20q-32 -6 -51 -21t-32.5 -46.5t-28.5 -88.5l-62 -241q-36 -138 -98 -212q-36 -42 -89.5 -67.5t-115.5 -25.5q-91 0 -145 27t-77 68q-20 38 -20.5 87.5t18.5 119.5
l83 314q14 55 2.5 69.5t-61.5 16.5l6 20q29 -1 80.5 -2t108.5 -1q50 0 95 1t80 2l-6 -20q-34 -1 -53 -7.5t-29.5 -24t-20.5 -54.5l-88 -331q-24 -91 -24.5 -146t18.5 -79.5t52 -24.5q75 0 125 33.5t82 92.5t51 133zM582 892q47 16 104 30t121 24l5 -14q-91 -28 -169.5 -75
t-125.5 -97h-18q-19 59 -49.5 99.5t-89.5 72.5l4 14q75 -12 124.5 -24.5t93.5 -29.5z" />
    <glyph glyph-name="uni01D4" unicode="&#x1d4;" horiz-adv-x="617" 
d="M391 354q-39 -117 -73 -189.5t-66.5 -111t-67 -53t-74.5 -14.5q-61 0 -83.5 38t2.5 113l97 297q10 29 2.5 35.5t-14.5 6.5q-9 0 -23 -10.5t-30 -52.5l-21 -56h-19l25 73q22 63 62.5 83t80.5 20q45 0 72 -18.5t33 -56.5t-14 -97l-86 -259q-18 -54 2 -54t49 41.5t61 110
t61.5 151.5t51.5 165zM474 85q-7 -23 -5.5 -32.5t14.5 -9.5q15 0 28.5 13.5t26.5 49.5l23 61h19l-28 -78q-20 -56 -59 -79.5t-84 -23.5q-35 0 -56.5 10.5t-32.5 28.5q-12 20 -11.5 46.5t7.5 54.5l103 393q52 1 97 4t84 10zM432 778q38 16 85.5 30t99.5 24l5 -14
q-79 -34 -146.5 -92t-108.5 -120h-18q-16 74 -42.5 124t-76.5 88l4 14q68 -12 113 -24.5t85 -29.5z" />
    <glyph glyph-name="uni01E4" unicode="&#x1e4;" horiz-adv-x="761" 
d="M320 -14q-135 0 -212.5 60t-77.5 169q0 68 23.5 139t68 137t107 118t140.5 82.5t169 30.5q65 0 100.5 -19t63.5 -46q15 -15 28 -5t29 56h22q-15 -39 -31 -94.5t-33 -135.5h-22q2 20 3.5 38.5t1.5 36.5q0 21 -2.5 38t-11.5 35q-19 38 -57.5 58t-96.5 20t-105.5 -35.5
t-84 -94t-60.5 -128t-36.5 -139t-12.5 -125.5q0 -90 31 -133t92 -43q13 0 27 3t25 11q15 11 22 29t16 51l31 118q11 40 8.5 60t-22 27.5t-61.5 8.5l5 20q34 -1 89.5 -2t100.5 -1q51 0 94.5 1t70.5 2l-5 -20q-22 -1 -34.5 -7.5t-21 -24t-18.5 -54.5l-61 -228h-20
q1 32 -9 44.5t-30 12.5q-28 0 -58.5 -15.5t-56.5 -26.5q-37 -17 -67.5 -23t-60.5 -6zM375 178l4 20h365l-4 -20h-365z" />
    <glyph glyph-name="uni01E5" unicode="&#x1e5;" horiz-adv-x="487" 
d="M470 -85l-4 -20h-648l4 20h648zM228 227l60 8q-63 -22 -94 -39t-31 -31q0 -8 9.5 -13.5t25.5 -11.5l91 -34q27 -10 53 -25t43.5 -38.5t17.5 -58.5q0 -45 -29 -77.5t-76.5 -53.5t-102 -31t-105.5 -10q-50 0 -95 9.5t-73.5 26.5t-28.5 41q0 21 22 35.5t55.5 22.5t69 11
t63.5 1l1 -15q-32 -18 -45.5 -35.5t-13.5 -34.5q0 -21 17 -33t49 -12q33 0 68.5 11.5t60.5 32.5t25 47q0 21 -16.5 29.5t-41.5 15.5l-136 43q-25 8 -44.5 25.5t-19.5 43.5q0 32 30 56.5t80.5 47t110.5 46.5zM266 514q-13 0 -26 -17.5t-23.5 -48.5t-16.5 -71t-6 -85
q0 -33 4.5 -45t14.5 -12q15 0 28.5 18.5t24 50t16 71.5t5.5 83q0 21 -3.5 38.5t-17.5 17.5zM292 532q70 0 117 -26.5t47 -87.5q0 -48 -32.5 -94.5t-92 -76.5t-140.5 -30q-70 0 -117 27t-47 87q0 36 18 71.5t52.5 65t83.5 47t111 17.5zM376 479l-21 7q16 42 49.5 67.5
t73.5 25.5q35 0 52 -19t17 -47q0 -29 -15 -45t-34 -16q-16 0 -30.5 13t-18.5 39t12 66l4 -7q-35 -13 -55 -32t-34 -52z" />
    <glyph glyph-name="Gcaron" unicode="&#x1e6;" horiz-adv-x="761" 
d="M356 6q13 0 27 3t25 11q15 11 22 28.5t16 51.5l23 88q11 41 8.5 61t-22 27t-61.5 8l5 20q34 -1 89.5 -2t100.5 -1q51 0 94.5 1t70.5 2l-5 -20q-22 -1 -34.5 -7t-21 -24t-18.5 -55l-53 -198h-20q1 32 -9 44.5t-30 12.5q-28 0 -58.5 -15.5t-56.5 -26.5q-37 -17 -67.5 -23
t-60.5 -6q-135 0 -212.5 60t-77.5 169q0 68 23.5 139t68 137t107 118t140.5 82.5t169 30.5q65 0 100.5 -19t63.5 -46q15 -15 28 -5t29 56h22q-15 -39 -31 -94.5t-33 -135.5h-22q2 20 3.5 38.5t1.5 36.5q0 21 -2.5 38t-11.5 35q-19 38 -57.5 58t-96.5 20t-105.5 -35.5
t-84 -94t-60.5 -128t-36.5 -139t-12.5 -125.5q0 -90 31 -133t92 -43zM615 892q47 16 104 30t121 24l5 -14q-91 -28 -169.5 -75t-125.5 -97h-18q-19 59 -49.5 99.5t-89.5 72.5l4 14q75 -12 124.5 -24.5t93.5 -29.5z" />
    <glyph glyph-name="gcaron" unicode="&#x1e7;" horiz-adv-x="487" 
d="M228 227l60 8q-63 -22 -94 -39t-31 -31q0 -8 9.5 -13.5t25.5 -11.5l91 -34q27 -10 53 -25t43.5 -38.5t17.5 -58.5q0 -45 -29 -77.5t-76.5 -53.5t-102 -31t-105.5 -10q-50 0 -95 9.5t-73.5 26.5t-28.5 41q0 21 22 35.5t55.5 22.5t69 11t63.5 1l1 -15q-32 -18 -45.5 -35.5
t-13.5 -34.5q0 -21 17 -33t49 -12q33 0 68.5 11.5t60.5 32.5t25 47q0 21 -16.5 29.5t-41.5 15.5l-136 43q-25 8 -44.5 25.5t-19.5 43.5q0 32 30 56.5t80.5 47t110.5 46.5zM266 514q-13 0 -26 -17.5t-23.5 -48.5t-16.5 -71t-6 -85q0 -33 4.5 -45t14.5 -12q15 0 28.5 18.5
t24 50t16 71.5t5.5 83q0 21 -3.5 38.5t-17.5 17.5zM292 532q70 0 117 -26.5t47 -87.5q0 -48 -32.5 -94.5t-92 -76.5t-140.5 -30q-70 0 -117 27t-47 87q0 36 18 71.5t52.5 65t83.5 47t111 17.5zM376 479l-21 7q16 42 49.5 67.5t73.5 25.5q35 0 52 -19t17 -47q0 -29 -15 -45
t-34 -16q-16 0 -30.5 13t-18.5 39t12 66l4 -7q-35 -13 -55 -32t-34 -52zM392 778q38 16 85.5 30t99.5 24l5 -14q-79 -34 -146.5 -92t-108.5 -120h-18q-16 74 -42.5 124t-76.5 88l4 14q68 -12 113 -24.5t85 -29.5z" />
    </font>
</defs>
</svg>
