<?xml version="1.0" standalone="no"?>
<!DOCTYPE svg PUBLIC "-//W3C//DTD SVG 1.1//EN" "http://www.w3.org/Graphics/SVG/1.1/DTD/svg11.dtd" >
<svg xmlns="http://www.w3.org/2000/svg" xmlns:xlink="http://www.w3.org/1999/xlink" version="1.1">
<metadata>
Created by FontForge 20170731 at Tue Oct 31 17:58:43 2017
 By Aleksey,,,
Copyright 2011 The Montserrat Project Authors (https://github.com/JulietaUla/Montserrat)
</metadata>
<defs>
<font id="Montserrat-Italic" horiz-adv-x="0" >
  <font-face 
    font-family="Montserrat"
    font-weight="400"
    font-style="italic"
    font-stretch="normal"
    units-per-em="1000"
    panose-1="0 0 5 0 0 0 0 0 0 0"
    ascent="800"
    descent="-200"
    x-height="526"
    cap-height="700"
    bbox="-807 -262 1600 1043"
    underline-thickness="50"
    underline-position="-150"
    slope="-11.3"
    unicode-range="U+000D-FB02"
  />
<missing-glyph horiz-adv-x="587" 
d="M127 700h507l-140 -700h-507zM428 70l112 560h-347l-112 -560h347z" />
    <glyph glyph-name="fi" unicode="fi" horiz-adv-x="688" 
d="M283 662q-27 -25 -38 -78l-12 -58h161l-12 -60h-159l-93 -466h-71l93 466h-94l11 60h95l13 66q15 75 60.5 115t119.5 40q32 0 60 -9t46 -25l-31 -52q-29 26 -75 26q-47 0 -74 -25zM570 526h71l-104 -526h-71zM601.5 655q-13.5 14 -13.5 33q0 23 15.5 38.5t39.5 15.5
q21 0 35 -13.5t14 -31.5q0 -24 -16 -40t-40 -16q-21 0 -34.5 14z" />
    <glyph glyph-name="fl" unicode="fl" horiz-adv-x="608" 
d="M283 662q-27 -25 -38 -78l-12 -58h161l-12 -60h-159l-93 -466h-71l93 466h-94l11 60h95l13 66q15 75 60.5 115t119.5 40q32 0 60 -9t46 -25l-31 -52q-29 26 -75 26q-47 0 -74 -25zM534 742h71l-148 -742h-71z" />
    <glyph glyph-name=".notdef" horiz-adv-x="587" 
d="M127 700h507l-140 -700h-507zM428 70l112 560h-347l-112 -560h347z" />
    <glyph glyph-name=".null" 
 />
    <glyph glyph-name="nonmarkingreturn" unicode="&#xd;" horiz-adv-x="262" 
 />
    <glyph glyph-name="NULL" 
 />
    <glyph glyph-name="NULL" 
 />
    <glyph glyph-name="space" unicode=" " horiz-adv-x="262" 
 />
    <glyph glyph-name="exclam" unicode="!" horiz-adv-x="260" 
d="M175 700h84l-112 -490h-55zM49 9.5q-15 14.5 -15 34.5q0 23 15.5 38.5t38.5 15.5q22 0 36.5 -14t14.5 -34q0 -23 -15.5 -39t-38.5 -16q-21 0 -36 14.5z" />
    <glyph glyph-name="quotedbl" unicode="&#x22;" horiz-adv-x="373" 
d="M157 700h63l-57 -264h-53zM328 700h63l-57 -264h-53z" />
    <glyph glyph-name="numbersign" unicode="#" horiz-adv-x="696" 
d="M557 455l-67 -210h142l-11 -55h-149l-61 -190h-56l61 190h-204l-61 -190h-56l61 190h-140l11 55h147l67 210h-140l10 55h148l61 190h56l-61 -190h203l61 190h57l-61 -190h141l-11 -55h-148zM501 455h-204l-67 -210h203z" />
    <glyph glyph-name="dollar" unicode="$" horiz-adv-x="615" 
d="M411 642l-53 -267q62 -18 101 -36t66 -50.5t27 -83.5q0 -96 -74 -151.5t-196 -59.5l-23 -114h-49l23 115q-69 5 -129 29t-92 59l36 58q32 -34 85 -56.5t113 -26.5l52 264q-57 18 -95 36.5t-63 51.5t-25 85q0 93 71.5 149.5t188.5 61.5l23 114h49l-23 -115
q54 -3 103 -18.5t85 -40.5l-31 -60q-72 51 -170 56zM219 433q32 -25 93 -44l50 253q-80 -6 -127.5 -43.5t-47.5 -96.5q0 -44 32 -69zM444.5 264.5q-34.5 24.5 -99.5 44.5l-50 -251q84 4 134 40t50 97q0 45 -34.5 69.5z" />
    <glyph glyph-name="percent" unicode="%" horiz-adv-x="829" 
d="M125.5 366q-36.5 40 -36.5 109q0 61 23 113.5t65.5 84t98.5 31.5q63 0 99.5 -40t36.5 -109q0 -61 -23 -113.5t-65.5 -84t-99.5 -31.5q-62 0 -98.5 40zM708 700h62l-614 -700h-63zM299.5 397q30.5 27 46 68.5t15.5 85.5q0 52 -23.5 80.5t-65.5 28.5q-41 0 -71.5 -27
t-46 -68.5t-15.5 -85.5q0 -52 23.5 -80.5t65.5 -28.5q41 0 71.5 27zM488.5 35q-36.5 40 -36.5 109q0 61 23 113.5t66 84t99 31.5q62 0 98.5 -40t36.5 -109q0 -61 -22.5 -113.5t-65.5 -84t-99 -31.5q-63 0 -99.5 40zM663.5 66q30.5 27 46 68.5t15.5 85.5q0 52 -23.5 80.5
t-65.5 28.5t-72.5 -27t-46 -68.5t-15.5 -85.5q0 -52 24 -80.5t66 -28.5q41 0 71.5 27z" />
    <glyph glyph-name="ampersand" unicode="&#x26;" horiz-adv-x="669" 
d="M533 134l77 -99l-48 -46l-76 97q-102 -92 -243 -92q-98 0 -156 43.5t-58 116.5q0 70 51.5 125t167.5 112q-28 39 -42.5 72.5t-14.5 67.5q0 80 54 127t140 47q69 0 111 -33.5t42 -89.5q0 -63 -45 -108.5t-151 -96.5l153 -195q44 56 75 136l56 -18q-36 -94 -93 -166z
M291.5 621q-34.5 -31 -34.5 -82q0 -27 12.5 -55.5t39.5 -63.5q66 31 101.5 55t50.5 47.5t15 54.5q0 33 -24.5 54t-68.5 21q-57 0 -91.5 -31zM450 132l-168 216q-101 -49 -141.5 -90t-40.5 -93q0 -51 39 -81.5t109 -30.5q116 0 202 79z" />
    <glyph glyph-name="quotesingle" unicode="'" horiz-adv-x="202" 
d="M157 700h63l-57 -264h-53z" />
    <glyph glyph-name="parenleft" unicode="(" horiz-adv-x="329" 
d="M98.5 -67.5q-12.5 70.5 -12.5 138.5q0 183 61 364t164 307h73q-106 -133 -168 -315t-62 -360q0 -131 42 -261h-64q-21 56 -33.5 126.5z" />
    <glyph glyph-name="parenright" unicode=")" horiz-adv-x="329" 
d="M166 121q62 182 62 360q0 131 -42 261h64q21 -56 33.5 -126.5t12.5 -138.5q0 -183 -61 -364t-164 -307h-73q106 133 168 315z" />
    <glyph glyph-name="asterisk" unicode="*" horiz-adv-x="386" 
d="M301 560l108 -69l-28 -42l-113 75l-28 -144h-47l29 141l-136 -72l-19 41l141 72l-110 69l28 43l112 -75l27 143h47l-30 -143l140 74l18 -43z" />
    <glyph glyph-name="plus" unicode="+" horiz-adv-x="575" 
d="M517 320h-187l-36 -182h-63l36 182h-186l12 59h186l37 183h63l-37 -183h187z" />
    <glyph glyph-name="comma" unicode="," horiz-adv-x="212" 
d="M102.5 89q14.5 -15 14.5 -37q0 -13 -4.5 -24t-14.5 -29l-76 -145h-48l64 147q-13 6 -20.5 18.5t-7.5 27.5q0 24 16.5 40.5t39.5 16.5q22 0 36.5 -15z" />
    <glyph glyph-name="hyphen" unicode="-" horiz-adv-x="382" 
d="M68 302h262l-12 -62h-262z" />
    <glyph glyph-name="period" unicode="." horiz-adv-x="212" 
d="M25 10q-15 15 -15 37q0 24 16.5 40.5t39.5 16.5q22 0 36.5 -15t14.5 -37q0 -24 -16.5 -40.5t-38.5 -16.5t-37 15z" />
    <glyph glyph-name="slash" unicode="/" horiz-adv-x="335" 
d="M417 842h69l-516 -942h-69z" />
    <glyph glyph-name="zero" unicode="0" horiz-adv-x="662" 
d="M119.5 61q-60.5 67 -60.5 186q0 120 43 225.5t123 169.5t184 64q107 0 167.5 -67t60.5 -186q0 -120 -43 -225.5t-123 -169.5t-184 -64q-107 0 -167.5 67zM437 118.5q62 58.5 94.5 149.5t32.5 184q0 91 -42.5 139.5t-118.5 48.5q-82 0 -144 -58.5t-94.5 -149.5t-32.5 -184
q0 -91 42.5 -139.5t118.5 -48.5q82 0 144 58.5z" />
    <glyph glyph-name="one" unicode="1" horiz-adv-x="361" 
d="M334 700l-140 -700h-73l127 636h-165l13 64h238z" />
    <glyph glyph-name="two" unicode="2" horiz-adv-x="568" 
d="M111 64h380l-13 -64h-492l11 51l350 284q74 59 102 102.5t28 91.5q0 53 -37.5 83t-113.5 30q-55 0 -105.5 -21t-87.5 -59l-50 43q43 47 110 74t143 27q103 0 159 -45.5t56 -122.5q0 -62 -34 -119t-120 -126z" />
    <glyph glyph-name="three" unicode="3" horiz-adv-x="564" 
d="M565 649l-247 -250q90 -7 138.5 -53t48.5 -123q0 -67 -36 -119t-101 -81t-150 -29q-80 0 -143 24.5t-97 66.5l40 56q29 -37 82.5 -59t121.5 -22q98 0 153.5 43t55.5 116q0 121 -169 121h-45l11 53l240 243h-355l13 64h449z" />
    <glyph glyph-name="four" unicode="4" horiz-adv-x="661" 
d="M632 184h-141l-37 -184h-72l37 184h-394l10 52l458 464h85l-444 -452h300l33 162h69l-32 -162h140z" />
    <glyph glyph-name="five" unicode="5" horiz-adv-x="566" 
d="M247 636l-69 -223h85q129 0 192.5 -48.5t63.5 -134.5q0 -71 -35.5 -124.5t-100.5 -82.5t-151 -29q-80 0 -143 24.5t-97 66.5l41 56q28 -37 81.5 -59t122.5 -22q99 0 154 43t55 119q0 127 -195 127h-162l106 351h382l-13 -64h-317z" />
    <glyph glyph-name="six" unicode="6" horiz-adv-x="609" 
d="M276.5 596.5q-66.5 -46.5 -100 -120t-39.5 -157.5q34 51 88.5 75.5t119.5 24.5q63 0 114.5 -23.5t81 -68t29.5 -105.5q0 -69 -32.5 -120.5t-90 -79.5t-130.5 -28q-117 0 -187 71.5t-70 205.5q0 107 40 206.5t126.5 164t218.5 64.5q109 0 168 -39l-34 -58q-52 34 -138 34
q-98 0 -164.5 -46.5zM232 337q-43 -21 -66.5 -57.5t-23.5 -80.5q0 -37 20 -70t59.5 -53.5t94.5 -20.5q82 0 131.5 43.5t49.5 118.5q0 67 -46 104t-121 37q-55 0 -98 -21z" />
    <glyph glyph-name="seven" unicode="7" horiz-adv-x="589" 
d="M634 700l-10 -51l-420 -649h-82l412 636h-356l-26 -131h-71l38 195h515z" />
    <glyph glyph-name="eight" unicode="8" horiz-adv-x="638" 
d="M549.5 298q26.5 -38 26.5 -90q0 -65 -35 -113.5t-99.5 -74.5t-149.5 -26q-120 0 -189 49.5t-69 135.5q0 75 45 125.5t128 70.5q-40 21 -61 55t-21 78q0 61 32 105.5t90 68.5t135 24q107 0 171.5 -46t64.5 -124q0 -65 -37.5 -111t-107.5 -66q50 -23 76.5 -61zM247 608.5
q-49 -36.5 -49 -99.5q0 -54 43 -85t121 -31q84 0 133.5 36.5t49.5 97.5q0 55 -45 86.5t-121 31.5q-83 0 -132 -36.5zM447 96q56 41 56 111q0 60 -50 94.5t-138 34.5q-96 0 -152 -41t-56 -111q0 -60 49.5 -94.5t137.5 -34.5q97 0 153 41z" />
    <glyph glyph-name="nine" unicode="9" horiz-adv-x="609" 
d="M514 634.5q70 -71.5 70 -205.5q0 -107 -40 -206.5t-126.5 -164t-219.5 -64.5q-108 0 -167 39l34 58q52 -34 138 -34q97 0 163.5 46.5t100.5 120.5t40 158q-34 -52 -88.5 -76.5t-119.5 -24.5q-63 0 -114.5 23.5t-81 68t-29.5 105.5q0 69 32.5 120.5t90 79.5t130.5 28
q117 0 187 -71.5zM412 363q43 21 66.5 57.5t23.5 80.5q0 37 -20 70t-59.5 53.5t-94.5 20.5q-82 0 -131.5 -43.5t-49.5 -118.5q0 -67 46 -104t121 -37q55 0 98 21z" />
    <glyph glyph-name="colon" unicode=":" horiz-adv-x="212" 
d="M110 436q-15 15 -15 37q0 24 16.5 40.5t39.5 16.5q22 0 36.5 -15t14.5 -37q0 -24 -16.5 -40.5t-38.5 -16.5t-37 15zM25 10q-15 15 -15 37q0 24 16.5 40.5t39.5 16.5q22 0 36.5 -15t14.5 -37q0 -24 -16.5 -40.5t-38.5 -16.5t-37 15z" />
    <glyph glyph-name="semicolon" unicode=";" horiz-adv-x="212" 
d="M110 436q-15 15 -15 37q0 24 16.5 40.5t39.5 16.5q22 0 36.5 -15t14.5 -37q0 -24 -16.5 -40.5t-38.5 -16.5t-37 15zM102.5 89q14.5 -15 14.5 -37q0 -13 -4.5 -24t-14.5 -29l-76 -145h-48l64 147q-13 6 -20.5 18.5t-7.5 27.5q0 24 16.5 40.5t39.5 16.5q22 0 36.5 -15z" />
    <glyph glyph-name="less" unicode="&#x3c;" horiz-adv-x="575" 
d="M549 491l-396 -145l340 -144l-12 -59l-401 174l13 66l470 175z" />
    <glyph glyph-name="equal" unicode="=" horiz-adv-x="575" 
d="M117 495h435l-13 -60h-434zM71 264h435l-12 -59h-435z" />
    <glyph glyph-name="greater" unicode="&#x3e;" horiz-adv-x="575" 
d="M529 383l-13 -66l-469 -174l14 66l395 144l-338 145l12 60z" />
    <glyph glyph-name="question" unicode="?" horiz-adv-x="567" 
d="M253 282.5q20 31.5 44.5 53t63.5 50.5q38 27 59.5 46t36 46t14.5 62q0 49 -36.5 76t-105.5 27q-66 0 -115.5 -20t-87.5 -61l-47 43q44 49 109.5 75t150.5 26q96 0 151 -41t55 -114q0 -48 -17 -83t-42 -58t-67 -54q-52 -37 -81 -68t-39 -78h-74q8 41 28 72.5zM191.5 9.5
q-14.5 14.5 -14.5 34.5q0 23 15.5 38.5t38.5 15.5q21 0 35.5 -14t14.5 -34q0 -23 -15.5 -39t-38.5 -16q-21 0 -35.5 14.5z" />
    <glyph glyph-name="at" unicode="@" horiz-adv-x="1033" 
d="M803 661q91 -45 138.5 -127t47.5 -191q0 -91 -29 -171t-79 -128.5t-109 -48.5q-46 0 -73.5 23t-28.5 63q-37 -41 -88 -63.5t-114 -22.5q-64 0 -113.5 26t-77 74t-27.5 113q0 84 36.5 153.5t101.5 109.5t147 40q72 0 121 -29t72 -84l22 109h65l-76 -380q-3 -13 -3 -25
q0 -50 52 -50q41 0 75.5 42t54.5 109.5t20 138.5q0 95 -41 165.5t-121.5 109t-197.5 38.5q-142 0 -251.5 -64t-169 -174t-59.5 -242q0 -97 40 -170t118.5 -113.5t188.5 -40.5q53 0 103.5 11t90.5 32l11 -50q-43 -21 -98.5 -32.5t-112.5 -11.5q-122 0 -212 47t-137.5 131
t-47.5 194q0 146 67.5 268.5t190.5 194t284 71.5q128 0 219 -45zM597 84.5q51 31.5 79.5 87t28.5 123.5q0 75 -44.5 116.5t-124.5 41.5q-63 0 -113 -31t-78.5 -86t-28.5 -124q0 -76 44 -117.5t122 -41.5q64 0 115 31.5z" />
    <glyph glyph-name="A" unicode="A" horiz-adv-x="717" 
d="M542 187h-391l-121 -187h-80l460 700h73l180 -700h-74zM528 247l-95 378l-244 -378h339z" />
    <glyph glyph-name="B" unicode="B" horiz-adv-x="754" 
d="M657 310q29 -36 29 -93q0 -105 -79.5 -161t-219.5 -56h-325l140 700h299q102 0 158.5 -38t56.5 -111q0 -71 -39 -120.5t-103 -69.5q54 -15 83 -51zM263 639l-51 -254h223q93 0 149 39.5t56 113.5q0 51 -39.5 76t-113.5 25h-224zM556 101q57 40 57 115q0 58 -40.5 83
t-122.5 25h-250l-52 -263h245q106 0 163 40z" />
    <glyph glyph-name="C" unicode="C" horiz-adv-x="719" 
d="M215 30.5q-74 36.5 -112.5 102t-38.5 152.5q0 116 52.5 212t149.5 152.5t224 56.5q84 0 149 -26.5t100 -75.5l-52 -46q-67 82 -203 82q-103 0 -182 -47.5t-122 -127.5t-43 -176q0 -105 67.5 -167t192.5 -62q137 0 222 83l43 -49q-46 -48 -117 -74t-154 -26
q-102 0 -176 36.5z" />
    <glyph glyph-name="D" unicode="D" horiz-adv-x="826" 
d="M202 700h266q104 0 178.5 -35t113 -99.5t38.5 -150.5q0 -122 -54 -216t-152.5 -146.5t-228.5 -52.5h-301zM365 64q109 0 190.5 44.5t125 123.5t43.5 180q0 104 -67 164t-197 60h-198l-114 -572h217z" />
    <glyph glyph-name="E" unicode="E" horiz-adv-x="669" 
d="M262 636l-50 -249h363l-12 -63h-363l-52 -260h421l-13 -64h-494l140 700h480l-13 -64h-407z" />
    <glyph glyph-name="F" unicode="F" horiz-adv-x="633" 
d="M262 636l-55 -275h363l-13 -64h-363l-59 -297h-73l140 700h480l-13 -64h-407z" />
    <glyph glyph-name="G" unicode="G" horiz-adv-x="773" 
d="M304 593q-80 -47 -123.5 -127t-43.5 -177q0 -105 67.5 -167t194.5 -62q101 0 179 55l47 235h71l-54 -269q-49 -41 -114.5 -64t-136.5 -23q-101 0 -175 36t-113 102t-39 153q0 116 52.5 212t149.5 152.5t225 56.5q88 0 154.5 -26.5t105.5 -75.5l-52 -45q-36 42 -88 61.5
t-123 19.5q-104 0 -184 -47z" />
    <glyph glyph-name="H" unicode="H" horiz-adv-x="813" 
d="M786 700l-140 -700h-73l64 322h-438l-64 -322h-73l140 700h73l-62 -311h438l62 311h73z" />
    <glyph glyph-name="I" unicode="I" horiz-adv-x="302" 
d="M202 700h73l-140 -700h-73z" />
    <glyph glyph-name="J" unicode="J" horiz-adv-x="501" 
d="M36.5 21q-50.5 27 -73.5 74l52 47q20 -40 56 -62t85 -22q63 0 100.5 35t53.5 116l85 427h-255l13 64h328l-99 -491q-23 -115 -78.5 -165t-149.5 -50q-67 0 -117.5 27z" />
    <glyph glyph-name="K" unicode="K" horiz-adv-x="711" 
d="M653 0h-83l-226 330l-172 -147l-37 -183h-73l140 700h73l-84 -418l488 418h97l-378 -325z" />
    <glyph glyph-name="L" unicode="L" horiz-adv-x="589" 
d="M202 700h73l-127 -636h392l-13 -64h-465z" />
    <glyph glyph-name="M" unicode="M" horiz-adv-x="955" 
d="M929 700l-140 -700h-71l111 555l-362 -466h-35l-187 475l-112 -564h-71l140 700h60l202 -520l400 520h65z" />
    <glyph glyph-name="N" unicode="N" horiz-adv-x="813" 
d="M786 700l-140 -700h-60l-335 580l-116 -580h-73l140 700h60l335 -580l116 580h73z" />
    <glyph glyph-name="O" unicode="O" horiz-adv-x="839" 
d="M213 30.5q-73 36.5 -111 102t-38 152.5q0 115 52 211.5t148 153t222 56.5q102 0 175 -36.5t111.5 -102t38.5 -152.5q0 -115 -52.5 -211.5t-148.5 -153t-222 -56.5q-102 0 -175 36.5zM574 107.5q78 47.5 120.5 128t42.5 176.5q0 104 -67 166t-191 62q-101 0 -179 -47.5
t-120.5 -128t-42.5 -175.5q0 -105 67 -167t191 -62q101 0 179 47.5z" />
    <glyph glyph-name="P" unicode="P" horiz-adv-x="718" 
d="M637 648q66 -52 66 -146q0 -134 -86.5 -207.5t-238.5 -73.5h-198l-45 -221h-73l140 700h251q118 0 184 -52zM564 339q65 53 65 156q0 69 -47 105t-135 36h-184l-71 -350h187q120 0 185 53z" />
    <glyph glyph-name="Q" unicode="Q" horiz-adv-x="839" 
d="M664 -64.5q35 15.5 61 45.5l32 -45q-31 -37 -75 -56t-94 -19q-136 0 -231 134q-92 5 -158 43t-100.5 101.5t-34.5 145.5q0 115 52 211.5t148 153t222 56.5q102 0 175 -36.5t111.5 -102t38.5 -152.5q0 -106 -44.5 -196t-126.5 -149t-191 -72q56 -78 141 -78q39 0 74 15.5z
M204 122q67 -62 191 -62q101 0 179 47.5t120.5 128t42.5 176.5q0 104 -67 166t-191 62q-101 0 -179 -47.5t-120.5 -128t-42.5 -175.5q0 -105 67 -167z" />
    <glyph glyph-name="R" unicode="R" horiz-adv-x="723" 
d="M647.5 326.5q-56.5 -68.5 -158.5 -92.5l132 -234h-80l-126 223q-11 -1 -36 -1h-199l-44 -222h-74l140 700h252q119 0 184.5 -52t65.5 -146q0 -107 -56.5 -175.5zM565.5 339q64.5 53 64.5 156q0 69 -47 105t-134 36h-186l-71 -350h189q120 0 184.5 53z" />
    <glyph glyph-name="S" unicode="S" horiz-adv-x="615" 
d="M118.5 19q-70.5 25 -106.5 64l36 58q35 -38 97 -61t128 -23q93 0 149.5 36.5t56.5 101.5q0 35 -21 57t-53 35.5t-87 29.5q-65 19 -105.5 36.5t-69 52t-28.5 89.5q0 65 35.5 112.5t99 73t145.5 25.5q63 0 120 -15.5t97 -44.5l-31 -60q-38 28 -87 42.5t-103 14.5
q-92 0 -148 -38t-56 -103q0 -36 22 -59t54.5 -36.5t87.5 -29.5q65 -19 105 -36.5t68 -50t28 -85.5q0 -66 -36.5 -113.5t-101 -72.5t-148.5 -25q-77 0 -147.5 25z" />
    <glyph glyph-name="T" unicode="T" horiz-adv-x="574" 
d="M325 636h-247l13 64h567l-14 -64h-246l-127 -636h-73z" />
    <glyph glyph-name="U" unicode="U" horiz-adv-x="792" 
d="M174.5 54q-66.5 60 -66.5 167q0 41 8 78l80 401h73l-80 -399q-8 -42 -8 -71q0 -84 48 -127t138 -43q103 0 164.5 58.5t86.5 182.5l80 399h72l-80 -404q-61 -302 -329 -302q-120 0 -186.5 60z" />
    <glyph glyph-name="V" unicode="V" horiz-adv-x="698" 
d="M783 700l-450 -700h-72l-171 700h76l147 -607l392 607h78z" />
    <glyph glyph-name="W" unicode="W" horiz-adv-x="1111" 
d="M1163 700l-376 -700h-78l-86 594l-326 -594h-78l-96 700h73l83 -603l329 603h69l85 -604l327 604h74z" />
    <glyph glyph-name="X" unicode="X" horiz-adv-x="656" 
d="M388 358l197 -358h-78l-168 307l-286 -307h-88l342 364l-185 336h78l156 -284l268 284h84z" />
    <glyph glyph-name="Y" unicode="Y" horiz-adv-x="635" 
d="M348 236l-47 -236h-73l48 241l-188 459h74l162 -394l318 394h79z" />
    <glyph glyph-name="Z" unicode="Z" horiz-adv-x="651" 
d="M685 649l-577 -585h471l-13 -64h-574l10 51l576 585h-451l13 64h555z" />
    <glyph glyph-name="bracketleft" unicode="[" horiz-adv-x="319" 
d="M209 742h183l-12 -60h-112l-162 -816h111l-12 -60h-183z" />
    <glyph glyph-name="backslash" unicode="\" horiz-adv-x="335" 
d="M225 -100l-145 942h62l145 -942h-62z" />
    <glyph glyph-name="bracketright" unicode="]" horiz-adv-x="318" 
d="M-69 -194l12 60h112l162 816h-112l12 60h184l-187 -936h-183z" />
    <glyph glyph-name="asciicircum" unicode="^" horiz-adv-x="576" 
d="M413 143l-75 352l-217 -352h-61l257 414h60l92 -414h-56z" />
    <glyph glyph-name="underscore" unicode="_" horiz-adv-x="500" 
d="M-52 0h500l-10 -48h-500z" />
    <glyph glyph-name="grave" unicode="`" horiz-adv-x="600" 
d="M226 731h94l114 -124h-71z" />
    <glyph glyph-name="a" unicode="a" horiz-adv-x="678" 
d="M632 526l-105 -526h-68l17 83q-38 -42 -90 -65t-115 -23q-67 0 -119 27t-81 77.5t-29 118.5q0 89 38.5 160t106.5 111.5t152 40.5q75 0 126 -29.5t74 -84.5l22 110h71zM403 89.5q52 31.5 81.5 88t29.5 126.5q0 77 -45.5 120.5t-127.5 43.5q-65 0 -117 -32t-81.5 -88.5
t-29.5 -126.5q0 -77 45.5 -120t127.5 -43q65 0 117 31.5z" />
    <glyph glyph-name="b" unicode="b" horiz-adv-x="678" 
d="M526.5 503q52.5 -27 81.5 -77t29 -118q0 -89 -38.5 -160.5t-106.5 -112t-153 -40.5q-76 0 -127.5 31t-73.5 89l-23 -115h-68l148 742h71l-59 -295q38 40 88.5 61.5t111.5 21.5q67 0 119.5 -27zM454.5 89.5q51.5 31.5 81 87.5t29.5 127q0 77 -45.5 120.5t-127.5 43.5
q-65 0 -116.5 -31.5t-81 -88t-29.5 -127.5q0 -77 45.5 -120t127.5 -43q65 0 116.5 31.5z" />
    <glyph glyph-name="c" unicode="c" horiz-adv-x="563" 
d="M156 22.5q-55 27.5 -84.5 78t-29.5 117.5q0 89 39 160t109 111.5t158 40.5q73 0 125.5 -26.5t81.5 -78.5l-60 -35q-45 78 -153 78q-65 0 -117.5 -32t-82 -88t-29.5 -127q0 -77 45.5 -120t129.5 -43q51 0 94.5 19.5t71.5 56.5l51 -39q-35 -47 -93.5 -73.5t-126.5 -26.5
q-74 0 -129 27.5z" />
    <glyph glyph-name="d" unicode="d" horiz-adv-x="678" 
d="M675 742l-148 -742h-68l17 83q-38 -42 -90 -65t-115 -23q-67 0 -119 27t-81 77.5t-29 118.5q0 89 38.5 160t106.5 111.5t152 40.5q74 0 125.5 -29.5t74.5 -84.5l65 326h71zM403 89.5q52 31.5 81.5 88t29.5 126.5q0 77 -45.5 120.5t-127.5 43.5q-65 0 -117 -32
t-81.5 -88.5t-29.5 -126.5q0 -77 45.5 -120t127.5 -43q65 0 117 31.5z" />
    <glyph glyph-name="e" unicode="e" horiz-adv-x="604" 
d="M113 243q-1 -7 -1 -21q0 -80 45.5 -122t135.5 -42q52 0 97.5 17.5t74.5 48.5l32 -51q-37 -37 -92.5 -57.5t-117.5 -20.5q-114 0 -179.5 60t-65.5 164q0 88 37.5 159t104 111.5t149.5 40.5q105 0 167 -59.5t62 -163.5q0 -29 -7 -64h-442zM196 423q-56 -47 -76 -127h375
q1 7 1 19q0 74 -45 114.5t-120 40.5q-79 0 -135 -47z" />
    <glyph glyph-name="f" unicode="f" horiz-adv-x="339" 
d="M283 662q-27 -25 -38 -78l-12 -58h161l-12 -60h-159l-93 -466h-71l93 466h-94l11 60h95l13 66q15 75 60.5 115t119.5 40q32 0 60 -9t46 -25l-31 -52q-29 26 -75 26q-47 0 -74 -25z" />
    <glyph glyph-name="g" unicode="g" horiz-adv-x="686" 
d="M639 526l-92 -462q-27 -138 -101.5 -200.5t-204.5 -62.5q-74 0 -133.5 20.5t-100.5 58.5l42 54q32 -33 83.5 -51.5t113.5 -18.5q99 0 154 46t74 142l12 58q-38 -43 -91.5 -66.5t-118.5 -23.5q-105 0 -168.5 57t-63.5 155q0 84 38.5 152t107 107t154.5 39q75 0 129 -30.5
t76 -89.5l22 116h68zM407.5 113q52.5 30 82 83t29.5 119q0 72 -46 112.5t-128 40.5q-66 0 -118 -30t-81.5 -83t-29.5 -119q0 -72 46 -112.5t128 -40.5q65 0 117.5 30z" />
    <glyph glyph-name="h" unicode="h" horiz-adv-x="677" 
d="M546.5 484.5q49.5 -45.5 49.5 -125.5q0 -28 -6 -60l-60 -299h-71l60 300q5 28 5 48q0 57 -34.5 87.5t-101.5 30.5q-85 0 -140 -46.5t-74 -137.5l-56 -282h-71l148 742h71l-59 -295q73 83 201 83q89 0 138.5 -45.5z" />
    <glyph glyph-name="i" unicode="i" horiz-adv-x="269" 
d="M151 526h71l-104 -526h-71zM182.5 655q-13.5 14 -13.5 33q0 23 15.5 38.5t39.5 15.5q21 0 35 -13.5t14 -31.5q0 -24 -16 -40t-40 -16q-21 0 -34.5 14z" />
    <glyph glyph-name="j" unicode="j" horiz-adv-x="274" 
d="M-125.5 -190.5q-28.5 8.5 -48.5 24.5l33 55q30 -27 79 -27q43 0 69 24t36 76l113 564h71l-113 -566q-32 -159 -177 -159q-34 0 -62.5 8.5zM186.5 656q-13.5 14 -13.5 33q0 23 15.5 38.5t39.5 15.5q21 0 35 -13.5t14 -31.5q0 -24 -16 -40t-40 -16q-21 0 -34.5 14z" />
    <glyph glyph-name="k" unicode="k" horiz-adv-x="590" 
d="M351 309l189 -309h-83l-162 266l-147 -114l-30 -152h-71l148 742h71l-100 -499l362 283h101z" />
    <glyph glyph-name="l" unicode="l" horiz-adv-x="269" 
d="M195 742h71l-148 -742h-71z" />
    <glyph glyph-name="m" unicode="m" horiz-adv-x="1061" 
d="M932.5 485.5q48.5 -44.5 48.5 -124.5q0 -23 -7 -62l-60 -299h-71l60 300q5 23 5 49q0 56 -33 86.5t-97 30.5q-80 0 -133 -44.5t-71 -131.5l-58 -290h-71l60 300q5 28 5 48q0 57 -32.5 87.5t-97.5 30.5q-81 0 -134 -46.5t-72 -137.5l-56 -282h-71l104 526h68l-17 -84
q72 88 199 88q66 0 110.5 -27t61.5 -78q39 52 95.5 78.5t126.5 26.5q89 0 137.5 -44.5z" />
    <glyph glyph-name="n" unicode="n" horiz-adv-x="677" 
d="M546.5 484.5q49.5 -45.5 49.5 -125.5q0 -28 -6 -60l-60 -299h-71l60 300q5 28 5 48q0 57 -34.5 87.5t-101.5 30.5q-85 0 -140 -46.5t-74 -137.5l-56 -282h-71l104 526h68l-17 -84q75 88 206 88q89 0 138.5 -45.5z" />
    <glyph glyph-name="o" unicode="o" horiz-adv-x="627" 
d="M155 22.5q-54 27.5 -83.5 78t-29.5 117.5q0 89 39 160t108.5 111.5t156.5 40.5q110 0 174.5 -60t64.5 -162q0 -89 -39 -160.5t-108.5 -112t-156.5 -40.5q-72 0 -126 27.5zM403 89.5q52 31.5 81.5 88t29.5 126.5q0 77 -45.5 120.5t-127.5 43.5q-65 0 -117 -32t-81.5 -88.5
t-29.5 -126.5q0 -77 45.5 -120t127.5 -43q65 0 117 31.5z" />
    <glyph glyph-name="p" unicode="p" horiz-adv-x="678" 
d="M526.5 503q52.5 -27 81.5 -77t29 -118q0 -89 -38.5 -160.5t-106.5 -112t-153 -40.5q-75 0 -126 29.5t-74 85.5l-60 -304h-71l143 720h68l-17 -84q38 43 90 65.5t115 22.5q67 0 119.5 -27zM454.5 89.5q51.5 31.5 81 87.5t29.5 127q0 77 -45.5 120.5t-127.5 43.5
q-65 0 -116.5 -31.5t-81 -88t-29.5 -127.5q0 -77 45.5 -120t127.5 -43q65 0 116.5 31.5z" />
    <glyph glyph-name="q" unicode="q" horiz-adv-x="678" 
d="M632 526l-144 -720h-71l54 273q-37 -41 -88 -62.5t-112 -21.5q-67 0 -119 27t-81 77.5t-29 118.5q0 89 38.5 160t106.5 111.5t152 40.5q76 0 127.5 -31t74.5 -88l23 115h68zM403 89.5q52 31.5 81.5 88t29.5 126.5q0 77 -45.5 120.5t-127.5 43.5q-65 0 -117 -32
t-81.5 -88.5t-29.5 -126.5q0 -77 45.5 -120t127.5 -43q65 0 117 31.5z" />
    <glyph glyph-name="r" unicode="r" horiz-adv-x="401" 
d="M289 505.5q53 24.5 128 24.5l-13 -69l-20 1q-85 0 -139.5 -49t-73.5 -146l-53 -267h-71l104 526h68l-18 -96q35 51 88 75.5z" />
    <glyph glyph-name="s" unicode="s" horiz-adv-x="489" 
d="M79.5 13q-57.5 18 -88.5 46l34 56q30 -26 79 -42t103 -16q75 0 115.5 24.5t40.5 69.5q0 25 -16.5 40t-40.5 23t-70 18q-55 12 -89 24t-58 38t-24 72q0 75 62 119.5t166 44.5q51 0 99.5 -13.5t78.5 -35.5l-30 -57q-30 22 -70.5 33.5t-83.5 11.5q-72 0 -112 -26t-40 -70
q0 -26 17 -42t42.5 -24t69.5 -17q54 -12 87.5 -23.5t57.5 -37.5t24 -70q0 -77 -63.5 -120.5t-169.5 -43.5q-63 0 -120.5 18z" />
    <glyph glyph-name="t" unicode="t" horiz-adv-x="406" 
d="M161 159q-4 -24 -4 -33q0 -70 76 -70q45 0 81 27l17 -54q-45 -34 -117 -34q-59 0 -93.5 32t-34.5 88q0 22 4 41l61 310h-93l11 60h94l23 115h71l-23 -115h160l-12 -60h-160z" />
    <glyph glyph-name="u" unicode="u" horiz-adv-x="673" 
d="M626 526l-105 -526h-68l17 84q-74 -89 -203 -89q-88 0 -137.5 45.5t-49.5 126.5q0 28 6 59l60 300h71l-60 -300q-5 -28 -5 -47q0 -58 33.5 -89t100.5 -31q84 0 139 47t74 137l56 283h71z" />
    <glyph glyph-name="v" unicode="v" horiz-adv-x="542" 
d="M594 526l-338 -526h-73l-130 526h71l109 -449l287 449h74z" />
    <glyph glyph-name="w" unicode="w" horiz-adv-x="879" 
d="M928 526l-297 -526h-69l-88 430l-246 -430h-68l-103 526h65l85 -446l254 446h60l88 -446l250 446h69z" />
    <glyph glyph-name="x" unicode="x" horiz-adv-x="534" 
d="M306 267l155 -267h-76l-125 219l-211 -219h-84l265 272l-146 254h75l118 -206l198 206h82z" />
    <glyph glyph-name="y" unicode="y" horiz-adv-x="542" 
d="M594 526l-384 -594q-48 -74 -90 -102.5t-100 -28.5q-38 0 -72 12.5t-53 34.5l38 52q36 -38 93 -38q35 0 63 19t58 66l37 56l-131 523h72l109 -448l287 448h73z" />
    <glyph glyph-name="z" unicode="z" horiz-adv-x="511" 
d="M506 479l-410 -420h333l-12 -59h-428l9 47l410 419h-319l12 60h415z" />
    <glyph glyph-name="braceleft" unicode="{" horiz-adv-x="335" 
d="M408 742l-12 -60h-26q-75 0 -90 -72l-51 -254q-7 -38 -21.5 -56.5t-42.5 -26.5q34 -14 34 -54q0 -12 -3 -27l-48 -238q-3 -15 -3 -28q0 -30 16 -45t45 -15h27l-12 -60h-37q-52 0 -82 26.5t-30 76.5q0 19 4 38l49 246q2 12 2 17q0 34 -36 34h-35l12 60h35q23 0 36 12
t18 39l53 262q13 64 51.5 94.5t109.5 30.5h37z" />
    <glyph glyph-name="bar" unicode="|" horiz-adv-x="295" 
d="M210 742h66l-187 -936h-66z" />
    <glyph glyph-name="braceright" unicode="}" horiz-adv-x="335" 
d="M283 304l-12 -60h-35q-23 0 -36 -12t-18 -39l-53 -262q-13 -64 -51.5 -94.5t-109.5 -30.5h-38l12 60h27q75 0 90 72l51 254q8 39 22 57t41 26q-33 14 -33 54q0 12 3 27l48 238q3 15 3 28q0 30 -16 45t-45 15h-27l11 60h38q52 0 82 -26.5t30 -76.5q0 -19 -4 -38l-49 -246
q-2 -12 -2 -17q0 -34 36 -34h35z" />
    <glyph glyph-name="asciitilde" unicode="~" horiz-adv-x="575" 
d="M341 286.5q-24 14.5 -53 42.5q-22 22 -38.5 33t-38.5 11q-36 0 -61.5 -25.5t-35.5 -69.5h-49q13 73 52.5 112t91.5 39q37 0 61.5 -15t51.5 -43q22 -22 39 -33t39 -11q36 0 61.5 26t34.5 70h49q-13 -73 -52 -112t-92 -39q-36 0 -60 14.5z" />
    <glyph glyph-name="uni00A0" unicode="&#xa0;" horiz-adv-x="262" 
 />
    <glyph glyph-name="exclamdown" unicode="&#xa1;" horiz-adv-x="260" 
d="M134.5 441q-14.5 14 -14.5 34q0 23 16 39t39 16q22 0 36 -14t14 -35q0 -22 -15.5 -38t-38.5 -16q-22 0 -36.5 14zM113 315h55l-80 -469h-84z" />
    <glyph glyph-name="cent" unicode="&#xa2;" horiz-adv-x="563" 
d="M385 78.5q42 19.5 69 55.5l51 -39q-35 -47 -93.5 -73.5t-126.5 -26.5h-4l-23 -115h-49l24 119q-89 13 -140 71.5t-51 147.5q0 88 37.5 158t105 111t153.5 43l23 116h49l-23 -118q57 -6 100 -32t68 -71l-60 -35q-37 65 -121 76l-81 -408q50 1 92 20.5zM147 112.5
q34 -41.5 98 -51.5l81 406q-61 -4 -109.5 -36.5t-76 -87t-27.5 -122.5q0 -67 34 -108.5z" />
    <glyph glyph-name="sterling" unicode="&#xa3;" horiz-adv-x="637" 
d="M333 594.5q-59 -45.5 -79 -142.5l-15 -77h276l-10 -50h-276l-53 -261h392l-14 -64h-577l13 64h113l52 261h-114l11 50h113l17 84q25 123 108 185t206 62q132 0 199 -55l-35 -59q-61 48 -168 48q-100 0 -159 -45.5z" />
    <glyph glyph-name="currency" unicode="&#xa4;" horiz-adv-x="700" 
d="M619.5 227.5q-16.5 -43.5 -47.5 -78.5l105 -104l-42 -45l-108 107q-72 -55 -167 -55q-46 0 -88.5 14.5t-77.5 41.5l-108 -108l-42 45l105 105q-62 73 -62 168q0 46 16 89.5t45 78.5l-104 104l42 45l106 -106q74 57 168 57q46 0 89.5 -14.5t79.5 -41.5l106 105l42 -45
l-104 -103q30 -35 46.5 -78t16.5 -91q0 -47 -16.5 -90.5zM175 215q29 -47 78 -75t107 -28q59 0 109 28t79.5 75t29.5 103t-29.5 104t-79.5 76t-109 28q-58 0 -107 -28t-78 -76t-29 -104t29 -103z" />
    <glyph glyph-name="yen" unicode="&#xa5;" horiz-adv-x="695" 
d="M420 312h194l-9 -44h-219l-19 -94h219l-9 -44h-219l-26 -130h-74l26 130h-221l10 44h220l19 94h-221l10 44h200l-213 388h76l198 -365l341 365h78z" />
    <glyph glyph-name="brokenbar" unicode="&#xa6;" horiz-adv-x="295" 
d="M210 742h66l-70 -350h-66zM93 156h66l-70 -350h-66z" />
    <glyph glyph-name="section" unicode="&#xa7;" horiz-adv-x="490" 
d="M226 616q-45 -31 -45 -76q0 -28 16 -45t40 -26.5t66 -21.5q51 -13 83 -27t54 -41.5t22 -73.5q0 -50 -30.5 -89t-82.5 -59q42 -34 42 -92q0 -50 -29 -88.5t-82 -60t-122 -21.5q-57 0 -106.5 17.5t-82.5 48.5l32 53q67 -61 166 -61q73 0 116 30.5t43 77.5q0 27 -16 44.5
t-40 27t-67 22.5q-50 14 -82 28t-54 41t-22 71q0 49 30.5 88.5t83.5 60.5q-42 34 -42 92q0 49 30 87.5t83.5 60t122.5 21.5q51 0 101.5 -13.5t80.5 -37.5l-31 -53q-30 23 -71 34.5t-85 11.5q-77 0 -122 -31zM382 346q-17 18 -41.5 28t-67.5 22q-24 7 -55 17q-52 -13 -81 -43
t-29 -69q0 -40 31 -59t94 -36q49 -15 58 -18q51 13 79.5 42.5t28.5 68.5q0 29 -17 47z" />
    <glyph glyph-name="dieresis" unicode="&#xa8;" horiz-adv-x="600" 
d="M261 641q-12 11 -12 27q0 21 13.5 34.5t31.5 13.5t29.5 -11t11.5 -29q0 -20 -13.5 -33t-31.5 -13q-17 0 -29 11zM439.5 641q-11.5 11 -11.5 27q0 21 13 34.5t32 13.5q17 0 29 -11t12 -29q0 -20 -13.5 -33t-32.5 -13q-17 0 -28.5 11z" />
    <glyph glyph-name="copyright" unicode="&#xa9;" horiz-adv-x="809" 
d="M242.5 44q-80.5 47 -127 128t-46.5 178t46.5 178t127.5 128t180 47t179.5 -46t126.5 -126.5t46 -178.5t-47 -179.5t-128 -128.5t-179 -47t-178.5 47zM581 76.5q72 42.5 114 115t42 160.5t-41 159.5t-112.5 113t-160.5 41.5t-161 -42t-113.5 -114.5t-41.5 -159.5
t41 -159.5t113 -114.5t160 -42t160 42.5zM323.5 168.5q-47.5 26.5 -74.5 74t-27 107.5t27 107.5t74.5 74t107.5 26.5q50 0 91.5 -20.5t66.5 -56.5l-43 -32q-20 29 -50 43t-66 14q-65 0 -107.5 -43t-42.5 -113t42.5 -113t107.5 -43q36 0 66 14t50 43l43 -31
q-25 -37 -66.5 -57.5t-91.5 -20.5q-60 0 -107.5 26.5z" />
    <glyph glyph-name="ordfeminine" unicode="&#xaa;" horiz-adv-x="401" 
d="M371.5 721.5q33.5 -24.5 33.5 -71.5q0 -9 -4 -33l-37 -187h-50l9 45q-45 -48 -120 -48q-52 0 -81.5 22.5t-29.5 57.5q0 48 38 74.5t103 26.5h114l3 14q2 14 2 20q0 31 -21.5 46.5t-60.5 15.5q-32 0 -63 -9t-54 -26l-16 36q26 19 64 30t77 11q60 0 93.5 -24.5zM329 519
l11 54h-107q-44 0 -67.5 -16t-23.5 -45q0 -23 18.5 -35.5t54.5 -12.5q73 0 114 55z" />
    <glyph glyph-name="guillemotleft" unicode="&#xab;" horiz-adv-x="477" 
d="M121 261l101 -187h-65l-107 189l182 190h69zM299 261l101 -187h-65l-107 189l182 190h69z" />
    <glyph glyph-name="logicalnot" unicode="&#xac;" horiz-adv-x="576" 
d="M482 141h-63l36 180h-374l12 59h436z" />
    <glyph glyph-name="uni00AD" unicode="&#xad;" horiz-adv-x="382" 
d="M68 302h262l-12 -62h-262z" />
    <glyph glyph-name="registered" unicode="&#xae;" horiz-adv-x="809" 
d="M602.5 657q80.5 -46 126.5 -126.5t46 -178.5t-47 -179.5t-128 -128.5t-179 -47t-178.5 47t-127 128t-46.5 178t46.5 178t127.5 128t180 47t179.5 -46zM581 76.5q72 42.5 114 115t42 160.5t-41 159.5t-112.5 113t-160.5 41.5t-161 -42t-113.5 -114.5t-41.5 -159.5
t41 -159.5t113 -114.5t160 -42t160 42.5zM576.5 338.5q-23.5 -32.5 -65.5 -46.5l94 -144h-54l-88 135q-7 -1 -22 -1h-105v-134h-52v404h157q73 0 116 -36t43 -98q0 -47 -23.5 -79.5zM519.5 350q29.5 24 29.5 68q0 43 -29.5 66.5t-82.5 23.5h-102v-182h102q53 0 82.5 24z" />
    <glyph glyph-name="macron" unicode="&#xaf;" horiz-adv-x="600" 
d="M231 692h309l-10 -47h-308z" />
    <glyph glyph-name="degree" unicode="&#xb0;" horiz-adv-x="419" 
d="M186.5 409q-36.5 21 -58 57.5t-21.5 80.5q0 43 21.5 79.5t58 57.5t80.5 21t80.5 -21t57.5 -57.5t21 -79.5q0 -44 -21 -80.5t-57.5 -57.5t-80.5 -21t-80.5 21zM349 463.5q33 33.5 33 83.5q0 49 -33 82.5t-82 33.5t-82.5 -33t-33.5 -83t33.5 -83.5t82.5 -33.5t82 33.5z" />
    <glyph glyph-name="plusminus" unicode="&#xb1;" horiz-adv-x="575" 
d="M534 412l-12 -60h-186l-36 -179h-63l36 179h-186l12 60h186l36 179h63l-36 -179h186zM29 60h435l-12 -60h-435z" />
    <glyph glyph-name="uni00B2" unicode="&#xb2;" horiz-adv-x="430" 
d="M155 372h242l-9 -45h-328l7 35l221 160q52 37 70 62t18 52q0 30 -25.5 47t-72.5 17q-80 0 -131 -46l-32 30q28 30 72 46t97 16q68 0 107 -28.5t39 -77.5q0 -36 -21.5 -67.5t-84.5 -77.5z" />
    <glyph glyph-name="uni00B3" unicode="&#xb3;" horiz-adv-x="430" 
d="M444 707l-153 -141q59 -4 90.5 -31.5t31.5 -73.5q0 -64 -52 -101t-139 -37q-53 0 -98 15t-67 39l26 40q23 -22 60.5 -35t82.5 -13q62 0 97.5 23t35.5 66q0 33 -24.5 50t-73.5 17h-47l7 37l147 135h-240l9 45h314z" />
    <glyph glyph-name="acute" unicode="&#xb4;" horiz-adv-x="600" 
d="M453 731h97l-175 -124h-74z" />
    <glyph glyph-name="uni00B5" unicode="&#xb5;" horiz-adv-x="678" 
d="M631 526l-104 -526h-68l17 84q-37 -45 -86 -67t-104 -22q-113 0 -155 70l-52 -259h-71l144 720h71l-60 -300q-5 -28 -5 -48q0 -57 34 -88t100 -31q84 0 138.5 47t73.5 137l56 283h71z" />
    <glyph glyph-name="paragraph" unicode="&#xb6;" horiz-adv-x="632" 
d="M252 395q-77 2 -124.5 40.5t-47.5 107.5q0 98 69 148.5t184 50.5h280l-168 -842h-60l157 786h-172l-157 -786h-60z" />
    <glyph glyph-name="periodcentered" unicode="&#xb7;" horiz-adv-x="252" 
d="M89 231q-15 15 -15 37q0 24 16.5 40.5t39.5 16.5q22 0 36.5 -14.5t14.5 -36.5q0 -25 -16.5 -41.5t-38.5 -16.5t-37 15z" />
    <glyph glyph-name="cedilla" unicode="&#xb8;" horiz-adv-x="600" 
d="M105 -197l22 38q26 -19 67 -19q32 0 50 14.5t18 38.5q0 19 -14 29.5t-41 10.5h-22l42 91h43l-26 -57q34 -4 52 -23t18 -48q0 -44 -34.5 -71t-90.5 -27q-52 0 -84 23z" />
    <glyph glyph-name="uni00B9" unicode="&#xb9;" horiz-adv-x="430" 
d="M389 371l-9 -44h-284l8 44h122l65 328h-113l9 43h167l-74 -371h109z" />
    <glyph glyph-name="ordmasculine" unicode="&#xba;" horiz-adv-x="415" 
d="M139.5 465q-42.5 38 -42.5 100q0 51 25.5 92.5t70.5 65t101 23.5q68 0 110 -37.5t42 -99.5q0 -52 -25 -93.5t-69.5 -65t-100.5 -23.5q-69 0 -111.5 38zM355.5 510.5q39.5 38.5 39.5 95.5q0 44 -29 70t-77 26q-61 0 -100.5 -39t-39.5 -96q0 -43 29 -69t77 -26
q61 0 100.5 38.5z" />
    <glyph glyph-name="guillemotright" unicode="&#xbb;" horiz-adv-x="478" 
d="M250 263l-183 -189h-69l181 192l-101 187h65zM428 263l-183 -189h-69l181 192l-101 187h65z" />
    <glyph glyph-name="onequarter" unicode="&#xbc;" horiz-adv-x="1029" 
d="M381 329l-9 -44h-284l8 44h122l65 328h-113l9 43h167l-74 -371h109zM807 700h63l-614 -700h-62zM968 106h-88l-22 -106h-52l21 106h-233l8 36l257 273h63l-251 -265h169l18 91h49l-19 -91h90z" />
    <glyph glyph-name="onehalf" unicode="&#xbd;" horiz-adv-x="1029" 
d="M381 329l-9 -44h-284l8 44h122l65 328h-113l9 43h167l-74 -371h109zM807 700h63l-614 -700h-62zM689 45h242l-9 -45h-328l7 35l221 160q52 37 70 62t18 52q0 30 -25.5 47t-72.5 17q-80 0 -131 -46l-32 30q28 30 72 46t97 16q68 0 107 -28.5t39 -77.5q0 -36 -21.5 -67.5
t-84.5 -77.5z" />
    <glyph glyph-name="threequarters" unicode="&#xbe;" horiz-adv-x="1029" 
d="M436 665l-153 -141q59 -4 90.5 -31.5t31.5 -73.5q0 -64 -52 -101t-139 -37q-53 0 -98 15t-67 39l26 40q23 -22 60.5 -35t82.5 -13q62 0 97.5 23t35.5 66q0 33 -24.5 50t-73.5 17h-47l7 37l147 135h-240l9 45h314zM807 700h63l-614 -700h-62zM968 106h-88l-22 -106h-52
l21 106h-233l8 36l257 273h63l-251 -265h169l18 91h49l-19 -91h90z" />
    <glyph glyph-name="questiondown" unicode="&#xbf;" horiz-adv-x="567" 
d="M301.5 441.5q-14.5 14.5 -14.5 34.5q0 23 16 38.5t38 15.5q21 0 35.5 -14t14.5 -34q0 -23 -15.5 -39t-37.5 -16t-36.5 14.5zM81 -119q-55 41 -55 112q0 46 17.5 80t43.5 57t68 53q51 37 78 64.5t37 67.5h74q-10 -53 -42.5 -87.5t-90.5 -75.5q-38 -26 -60 -45t-37 -45
t-15 -60q0 -46 37 -72.5t105 -26.5q66 0 115.5 20t88.5 61l47 -43q-45 -49 -110.5 -75t-150.5 -26q-95 0 -150 41z" />
    <glyph glyph-name="Agrave" unicode="&#xc0;" horiz-adv-x="717" 
d="M542 187h-391l-121 -187h-80l460 700h73l180 -700h-74zM528 247l-95 378l-244 -378h339zM315 881h94l114 -124h-71z" />
    <glyph glyph-name="Aacute" unicode="&#xc1;" horiz-adv-x="717" 
d="M542 187h-391l-121 -187h-80l460 700h73l180 -700h-74zM528 247l-95 378l-244 -378h339zM542 881h97l-175 -124h-74z" />
    <glyph glyph-name="Acircumflex" unicode="&#xc2;" horiz-adv-x="717" 
d="M542 187h-391l-121 -187h-80l460 700h73l180 -700h-74zM528 247l-95 378l-244 -378h339zM559 757l-90 83l-108 -83h-68l143 124h72l115 -124h-64z" />
    <glyph glyph-name="Atilde" unicode="&#xc3;" horiz-adv-x="717" 
d="M542 187h-391l-121 -187h-80l460 700h73l180 -700h-74zM528 247l-95 378l-244 -378h339zM496 773q-17 10 -37 28q-17 15 -29 22.5t-26 7.5q-22 0 -37 -17.5t-20 -46.5h-43q8 52 35 81t66 29q22 0 38.5 -9.5t38.5 -28.5q16 -15 27.5 -22.5t25.5 -7.5q22 0 37.5 17t20.5 45
h43q-8 -51 -34.5 -79.5t-66.5 -28.5q-22 0 -39 10z" />
    <glyph glyph-name="Adieresis" unicode="&#xc4;" horiz-adv-x="717" 
d="M542 187h-391l-121 -187h-80l460 700h73l180 -700h-74zM528 247l-95 378l-244 -378h339zM350 791q-12 11 -12 27q0 21 13.5 34.5t31.5 13.5t29.5 -11t11.5 -29q0 -20 -13.5 -33t-31.5 -13q-17 0 -29 11zM528.5 791q-11.5 11 -11.5 27q0 21 13 34.5t32 13.5q17 0 29 -11
t12 -29q0 -20 -13.5 -33t-32.5 -13q-17 0 -28.5 11z" />
    <glyph glyph-name="Aring" unicode="&#xc5;" horiz-adv-x="717" 
d="M542 187h-391l-121 -187h-80l460 700h73l180 -700h-74zM528 247l-95 378l-244 -378h339zM406.5 800q-29.5 30 -29.5 72q0 43 30 74t74 31t74 -31t30 -74q0 -42 -30 -72t-74 -30q-45 0 -74.5 30zM530 824q19 19 19 48t-19.5 49.5t-48.5 20.5t-48.5 -20t-19.5 -50
q0 -29 19 -48t49 -19t49 19z" />
    <glyph glyph-name="AE" unicode="&#xc6;" horiz-adv-x="1033" 
d="M626 636l-50 -249h364l-14 -63h-362l-52 -260h421l-13 -64h-493l37 187h-282l-150 -187h-83l563 700h534l-13 -64h-407zM554 637h-12l-312 -390h246z" />
    <glyph glyph-name="Ccedilla" unicode="&#xc7;" horiz-adv-x="719" 
d="M215 30.5q-74 36.5 -112.5 102t-38.5 152.5q0 116 52.5 212t149.5 152.5t224 56.5q84 0 149 -26.5t100 -75.5l-52 -46q-67 82 -203 82q-103 0 -182 -47.5t-122 -127.5t-43 -176q0 -105 67.5 -167t192.5 -62q137 0 222 83l43 -49q-46 -48 -117 -74t-154 -26
q-102 0 -176 36.5zM219 -197l22 38q26 -19 67 -19q32 0 50 14.5t18 38.5q0 19 -14 29.5t-41 10.5h-22l42 91h43l-26 -57q34 -4 52 -23t18 -48q0 -44 -34.5 -71t-90.5 -27q-52 0 -84 23z" />
    <glyph glyph-name="Egrave" unicode="&#xc8;" horiz-adv-x="669" 
d="M262 636l-50 -249h363l-12 -63h-363l-52 -260h421l-13 -64h-494l140 700h480l-13 -64h-407zM311 881h94l114 -124h-71z" />
    <glyph glyph-name="Eacute" unicode="&#xc9;" horiz-adv-x="669" 
d="M262 636l-50 -249h363l-12 -63h-363l-52 -260h421l-13 -64h-494l140 700h480l-13 -64h-407zM538 881h97l-175 -124h-74z" />
    <glyph glyph-name="Ecircumflex" unicode="&#xca;" horiz-adv-x="669" 
d="M262 636l-50 -249h363l-12 -63h-363l-52 -260h421l-13 -64h-494l140 700h480l-13 -64h-407zM555 757l-90 83l-108 -83h-68l143 124h72l115 -124h-64z" />
    <glyph glyph-name="Edieresis" unicode="&#xcb;" horiz-adv-x="669" 
d="M262 636l-50 -249h363l-12 -63h-363l-52 -260h421l-13 -64h-494l140 700h480l-13 -64h-407zM346 791q-12 11 -12 27q0 21 13.5 34.5t31.5 13.5t29.5 -11t11.5 -29q0 -20 -13.5 -33t-31.5 -13q-17 0 -29 11zM524.5 791q-11.5 11 -11.5 27q0 21 13 34.5t32 13.5
q17 0 29 -11t12 -29q0 -20 -13.5 -33t-32.5 -13q-17 0 -28.5 11z" />
    <glyph glyph-name="Igrave" unicode="&#xcc;" horiz-adv-x="302" 
d="M202 700h73l-140 -700h-73zM107 881h94l114 -124h-71z" />
    <glyph glyph-name="Iacute" unicode="&#xcd;" horiz-adv-x="302" 
d="M202 700h73l-140 -700h-73zM334 881h97l-175 -124h-74z" />
    <glyph glyph-name="Icircumflex" unicode="&#xce;" horiz-adv-x="302" 
d="M202 700h73l-140 -700h-73zM351 757l-90 83l-108 -83h-68l143 124h72l115 -124h-64z" />
    <glyph glyph-name="Idieresis" unicode="&#xcf;" horiz-adv-x="302" 
d="M202 700h73l-140 -700h-73zM142 791q-12 11 -12 27q0 21 13.5 34.5t31.5 13.5t29.5 -11t11.5 -29q0 -20 -13.5 -33t-31.5 -13q-17 0 -29 11zM320.5 791q-11.5 11 -11.5 27q0 21 13 34.5t32 13.5q17 0 29 -11t12 -29q0 -20 -13.5 -33t-32.5 -13q-17 0 -28.5 11z" />
    <glyph glyph-name="Eth" unicode="&#xd0;" horiz-adv-x="831" 
d="M207 700h266q104 0 178.5 -35t113 -99.5t38.5 -150.5q0 -122 -54 -216t-152.5 -146.5t-228.5 -52.5h-301zM370 64q109 0 190.5 44.5t125 123.5t43.5 180q0 104 -67 164t-197 60h-198l-114 -572h217zM37 386h387l-11 -59h-388z" />
    <glyph glyph-name="Ntilde" unicode="&#xd1;" horiz-adv-x="813" 
d="M786 700l-140 -700h-60l-335 580l-116 -580h-73l140 700h60l335 -580l116 580h73zM544 773q-17 10 -37 28q-17 15 -29 22.5t-26 7.5q-22 0 -37 -17.5t-20 -46.5h-43q8 52 35 81t66 29q22 0 38.5 -9.5t38.5 -28.5q16 -15 27.5 -22.5t25.5 -7.5q22 0 37.5 17t20.5 45h43
q-8 -51 -34.5 -79.5t-66.5 -28.5q-22 0 -39 10z" />
    <glyph glyph-name="Ograve" unicode="&#xd2;" horiz-adv-x="839" 
d="M213 30.5q-73 36.5 -111 102t-38 152.5q0 115 52 211.5t148 153t222 56.5q102 0 175 -36.5t111.5 -102t38.5 -152.5q0 -115 -52.5 -211.5t-148.5 -153t-222 -56.5q-102 0 -175 36.5zM574 107.5q78 47.5 120.5 128t42.5 176.5q0 104 -67 166t-191 62q-101 0 -179 -47.5
t-120.5 -128t-42.5 -175.5q0 -105 67 -167t191 -62q101 0 179 47.5zM376 881h94l114 -124h-71z" />
    <glyph glyph-name="Oacute" unicode="&#xd3;" horiz-adv-x="839" 
d="M213 30.5q-73 36.5 -111 102t-38 152.5q0 115 52 211.5t148 153t222 56.5q102 0 175 -36.5t111.5 -102t38.5 -152.5q0 -115 -52.5 -211.5t-148.5 -153t-222 -56.5q-102 0 -175 36.5zM574 107.5q78 47.5 120.5 128t42.5 176.5q0 104 -67 166t-191 62q-101 0 -179 -47.5
t-120.5 -128t-42.5 -175.5q0 -105 67 -167t191 -62q101 0 179 47.5zM603 881h97l-175 -124h-74z" />
    <glyph glyph-name="Ocircumflex" unicode="&#xd4;" horiz-adv-x="839" 
d="M213 30.5q-73 36.5 -111 102t-38 152.5q0 115 52 211.5t148 153t222 56.5q102 0 175 -36.5t111.5 -102t38.5 -152.5q0 -115 -52.5 -211.5t-148.5 -153t-222 -56.5q-102 0 -175 36.5zM574 107.5q78 47.5 120.5 128t42.5 176.5q0 104 -67 166t-191 62q-101 0 -179 -47.5
t-120.5 -128t-42.5 -175.5q0 -105 67 -167t191 -62q101 0 179 47.5zM620 757l-90 83l-108 -83h-68l143 124h72l115 -124h-64z" />
    <glyph glyph-name="Otilde" unicode="&#xd5;" horiz-adv-x="839" 
d="M213 30.5q-73 36.5 -111 102t-38 152.5q0 115 52 211.5t148 153t222 56.5q102 0 175 -36.5t111.5 -102t38.5 -152.5q0 -115 -52.5 -211.5t-148.5 -153t-222 -56.5q-102 0 -175 36.5zM574 107.5q78 47.5 120.5 128t42.5 176.5q0 104 -67 166t-191 62q-101 0 -179 -47.5
t-120.5 -128t-42.5 -175.5q0 -105 67 -167t191 -62q101 0 179 47.5zM557 773q-17 10 -37 28q-17 15 -29 22.5t-26 7.5q-22 0 -37 -17.5t-20 -46.5h-43q8 52 35 81t66 29q22 0 38.5 -9.5t38.5 -28.5q16 -15 27.5 -22.5t25.5 -7.5q22 0 37.5 17t20.5 45h43q-8 -51 -34.5 -79.5
t-66.5 -28.5q-22 0 -39 10z" />
    <glyph glyph-name="Odieresis" unicode="&#xd6;" horiz-adv-x="839" 
d="M213 30.5q-73 36.5 -111 102t-38 152.5q0 115 52 211.5t148 153t222 56.5q102 0 175 -36.5t111.5 -102t38.5 -152.5q0 -115 -52.5 -211.5t-148.5 -153t-222 -56.5q-102 0 -175 36.5zM574 107.5q78 47.5 120.5 128t42.5 176.5q0 104 -67 166t-191 62q-101 0 -179 -47.5
t-120.5 -128t-42.5 -175.5q0 -105 67 -167t191 -62q101 0 179 47.5zM411 791q-12 11 -12 27q0 21 13.5 34.5t31.5 13.5t29.5 -11t11.5 -29q0 -20 -13.5 -33t-31.5 -13q-17 0 -29 11zM589.5 791q-11.5 11 -11.5 27q0 21 13 34.5t32 13.5q17 0 29 -11t12 -29q0 -20 -13.5 -33
t-32.5 -13q-17 0 -28.5 11z" />
    <glyph glyph-name="multiply" unicode="&#xd7;" horiz-adv-x="575" 
d="M346 348l114 -133l-43 -41l-115 134l-148 -134l-37 44l147 134l-115 133l44 41l115 -134l148 134l37 -44z" />
    <glyph glyph-name="Oslash" unicode="&#xd8;" horiz-adv-x="839" 
d="M213 30.5q-73 36.5 -111 102t-38 152.5q0 115 52 211.5t148 153t222 56.5q102 0 175 -36.5t111.5 -102t38.5 -152.5q0 -115 -52.5 -211.5t-148.5 -153t-222 -56.5q-102 0 -175 36.5zM574 107.5q78 47.5 120.5 128t42.5 176.5q0 104 -67 166t-191 62q-101 0 -179 -47.5
t-120.5 -128t-42.5 -175.5q0 -105 67 -167t191 -62q101 0 179 47.5zM792 770h62l-773 -840h-63z" />
    <glyph glyph-name="Ugrave" unicode="&#xd9;" horiz-adv-x="792" 
d="M174.5 54q-66.5 60 -66.5 167q0 41 8 78l80 401h73l-80 -399q-8 -42 -8 -71q0 -84 48 -127t138 -43q103 0 164.5 58.5t86.5 182.5l80 399h72l-80 -404q-61 -302 -329 -302q-120 0 -186.5 60zM352 881h94l114 -124h-71z" />
    <glyph glyph-name="Uacute" unicode="&#xda;" horiz-adv-x="792" 
d="M174.5 54q-66.5 60 -66.5 167q0 41 8 78l80 401h73l-80 -399q-8 -42 -8 -71q0 -84 48 -127t138 -43q103 0 164.5 58.5t86.5 182.5l80 399h72l-80 -404q-61 -302 -329 -302q-120 0 -186.5 60zM579 881h97l-175 -124h-74z" />
    <glyph glyph-name="Ucircumflex" unicode="&#xdb;" horiz-adv-x="792" 
d="M174.5 54q-66.5 60 -66.5 167q0 41 8 78l80 401h73l-80 -399q-8 -42 -8 -71q0 -84 48 -127t138 -43q103 0 164.5 58.5t86.5 182.5l80 399h72l-80 -404q-61 -302 -329 -302q-120 0 -186.5 60zM596 757l-90 83l-108 -83h-68l143 124h72l115 -124h-64z" />
    <glyph glyph-name="Udieresis" unicode="&#xdc;" horiz-adv-x="792" 
d="M174.5 54q-66.5 60 -66.5 167q0 41 8 78l80 401h73l-80 -399q-8 -42 -8 -71q0 -84 48 -127t138 -43q103 0 164.5 58.5t86.5 182.5l80 399h72l-80 -404q-61 -302 -329 -302q-120 0 -186.5 60zM387 791q-12 11 -12 27q0 21 13.5 34.5t31.5 13.5t29.5 -11t11.5 -29
q0 -20 -13.5 -33t-31.5 -13q-17 0 -29 11zM565.5 791q-11.5 11 -11.5 27q0 21 13 34.5t32 13.5q17 0 29 -11t12 -29q0 -20 -13.5 -33t-32.5 -13q-17 0 -28.5 11z" />
    <glyph glyph-name="Yacute" unicode="&#xdd;" horiz-adv-x="635" 
d="M348 236l-47 -236h-73l48 241l-188 459h74l162 -394l318 394h79zM501 881h97l-175 -124h-74z" />
    <glyph glyph-name="Thorn" unicode="&#xde;" horiz-adv-x="718" 
d="M620 557q65 -52 65 -147q0 -133 -87 -206.5t-238 -73.5h-199l-26 -130h-73l140 700h73l-18 -91h180q118 0 183 -52zM546.5 247.5q64.5 53.5 64.5 156.5q0 69 -46.5 104.5t-134.5 35.5h-186l-70 -350h188q120 0 184.5 53.5z" />
    <glyph glyph-name="germandbls" unicode="&#xdf;" horiz-adv-x="667" 
d="M578.5 329.5q32.5 -39.5 32.5 -97.5q0 -71 -34.5 -125t-96 -83t-139.5 -29q-31 0 -64 5t-52 13l20 60q41 -16 96 -16q89 0 143.5 46.5t54.5 125.5q0 57 -40 85.5t-110 28.5h-56l12 61q93 1 150.5 47.5t57.5 125.5q0 51 -33.5 79.5t-96.5 28.5q-80 0 -133.5 -44
t-71.5 -136l-101 -505h-71l99 500q25 126 99 186.5t184 60.5q89 0 141.5 -44t52.5 -120q0 -66 -35.5 -118.5t-96.5 -79.5q56 -16 88.5 -55.5z" />
    <glyph glyph-name="agrave" unicode="&#xe0;" horiz-adv-x="678" 
d="M632 526l-105 -526h-68l17 83q-38 -42 -90 -65t-115 -23q-67 0 -119 27t-81 77.5t-29 118.5q0 89 38.5 160t106.5 111.5t152 40.5q75 0 126 -29.5t74 -84.5l22 110h71zM403 89.5q52 31.5 81.5 88t29.5 126.5q0 77 -45.5 120.5t-127.5 43.5q-65 0 -117 -32t-81.5 -88.5
t-29.5 -126.5q0 -77 45.5 -120t127.5 -43q65 0 117 31.5zM255 732h94l114 -124h-71z" />
    <glyph glyph-name="aacute" unicode="&#xe1;" horiz-adv-x="678" 
d="M632 526l-105 -526h-68l17 83q-38 -42 -90 -65t-115 -23q-67 0 -119 27t-81 77.5t-29 118.5q0 89 38.5 160t106.5 111.5t152 40.5q75 0 126 -29.5t74 -84.5l22 110h71zM403 89.5q52 31.5 81.5 88t29.5 126.5q0 77 -45.5 120.5t-127.5 43.5q-65 0 -117 -32t-81.5 -88.5
t-29.5 -126.5q0 -77 45.5 -120t127.5 -43q65 0 117 31.5zM482 732h97l-175 -124h-74z" />
    <glyph glyph-name="acircumflex" unicode="&#xe2;" horiz-adv-x="678" 
d="M632 526l-105 -526h-68l17 83q-38 -42 -90 -65t-115 -23q-67 0 -119 27t-81 77.5t-29 118.5q0 89 38.5 160t106.5 111.5t152 40.5q75 0 126 -29.5t74 -84.5l22 110h71zM403 89.5q52 31.5 81.5 88t29.5 126.5q0 77 -45.5 120.5t-127.5 43.5q-65 0 -117 -32t-81.5 -88.5
t-29.5 -126.5q0 -77 45.5 -120t127.5 -43q65 0 117 31.5zM499 608l-90 83l-108 -83h-68l143 124h72l115 -124h-64z" />
    <glyph glyph-name="atilde" unicode="&#xe3;" horiz-adv-x="678" 
d="M632 526l-105 -526h-68l17 83q-38 -42 -90 -65t-115 -23q-67 0 -119 27t-81 77.5t-29 118.5q0 89 38.5 160t106.5 111.5t152 40.5q75 0 126 -29.5t74 -84.5l22 110h71zM403 89.5q52 31.5 81.5 88t29.5 126.5q0 77 -45.5 120.5t-127.5 43.5q-65 0 -117 -32t-81.5 -88.5
t-29.5 -126.5q0 -77 45.5 -120t127.5 -43q65 0 117 31.5zM436 624q-17 10 -37 28q-17 15 -29 22.5t-26 7.5q-22 0 -37 -17.5t-20 -46.5h-43q8 52 35 81t66 29q22 0 38.5 -9.5t38.5 -28.5q16 -15 27.5 -22.5t25.5 -7.5q22 0 37.5 17t20.5 45h43q-8 -51 -34.5 -79.5
t-66.5 -28.5q-22 0 -39 10z" />
    <glyph glyph-name="adieresis" unicode="&#xe4;" horiz-adv-x="678" 
d="M632 526l-105 -526h-68l17 83q-38 -42 -90 -65t-115 -23q-67 0 -119 27t-81 77.5t-29 118.5q0 89 38.5 160t106.5 111.5t152 40.5q75 0 126 -29.5t74 -84.5l22 110h71zM403 89.5q52 31.5 81.5 88t29.5 126.5q0 77 -45.5 120.5t-127.5 43.5q-65 0 -117 -32t-81.5 -88.5
t-29.5 -126.5q0 -77 45.5 -120t127.5 -43q65 0 117 31.5zM290 642q-12 11 -12 27q0 21 13.5 34.5t31.5 13.5t29.5 -11t11.5 -29q0 -20 -13.5 -33t-31.5 -13q-17 0 -29 11zM468.5 642q-11.5 11 -11.5 27q0 21 13 34.5t32 13.5q17 0 29 -11t12 -29q0 -20 -13.5 -33t-32.5 -13
q-17 0 -28.5 11z" />
    <glyph glyph-name="aring" unicode="&#xe5;" horiz-adv-x="678" 
d="M632 526l-105 -526h-68l17 83q-38 -42 -90 -65t-115 -23q-67 0 -119 27t-81 77.5t-29 118.5q0 89 38.5 160t106.5 111.5t152 40.5q75 0 126 -29.5t74 -84.5l22 110h71zM403 89.5q52 31.5 81.5 88t29.5 126.5q0 77 -45.5 120.5t-127.5 43.5q-65 0 -117 -32t-81.5 -88.5
t-29.5 -126.5q0 -77 45.5 -120t127.5 -43q65 0 117 31.5zM341.5 626q-29.5 30 -29.5 72q0 43 30 74t74 31t74 -31t30 -74q0 -42 -30 -72t-74 -30q-45 0 -74.5 30zM465 650q19 19 19 48t-19.5 49.5t-48.5 20.5t-48.5 -20t-19.5 -50q0 -29 19 -48t49 -19t49 19z" />
    <glyph glyph-name="ae" unicode="&#xe6;" horiz-adv-x="987" 
d="M493 244q-1 -7 -1 -22q0 -82 46 -123t136 -41q108 0 171 66l33 -51q-38 -37 -93.5 -57.5t-116.5 -20.5q-79 0 -137 32t-84 95q-34 -65 -94.5 -96t-133.5 -31q-88 0 -137.5 37.5t-49.5 101.5q0 76 57.5 119.5t165.5 43.5h176l5 27q4 20 4 41q0 51 -32.5 77t-96.5 26
q-50 0 -98 -16.5t-83 -44.5l-24 56q42 32 100 49.5t115 17.5q74 0 118.5 -26.5t58.5 -75.5q40 49 97 75.5t120 26.5q105 0 168 -59.5t63 -163.5q0 -33 -8 -63h-445zM577.5 423q-56.5 -47 -76.5 -126h376q6 82 -40 127.5t-125 45.5q-78 0 -134.5 -47zM346 90q51 39 65 111
l9 43h-170q-70 0 -109 -28t-39 -78q0 -42 31.5 -64.5t92.5 -22.5q69 0 120 39z" />
    <glyph glyph-name="ccedilla" unicode="&#xe7;" horiz-adv-x="563" 
d="M156 22.5q-55 27.5 -84.5 78t-29.5 117.5q0 89 39 160t109 111.5t158 40.5q73 0 125.5 -26.5t81.5 -78.5l-60 -35q-45 78 -153 78q-65 0 -117.5 -32t-82 -88t-29.5 -127q0 -77 45.5 -120t129.5 -43q51 0 94.5 19.5t71.5 56.5l51 -39q-35 -47 -93.5 -73.5t-126.5 -26.5
q-74 0 -129 27.5zM137 -198l22 38q26 -19 67 -19q32 0 50 14.5t18 38.5q0 19 -14 29.5t-41 10.5h-22l42 91h43l-26 -57q34 -4 52 -23t18 -48q0 -44 -34.5 -71t-90.5 -27q-52 0 -84 23z" />
    <glyph glyph-name="egrave" unicode="&#xe8;" horiz-adv-x="604" 
d="M113 243q-1 -7 -1 -21q0 -80 45.5 -122t135.5 -42q52 0 97.5 17.5t74.5 48.5l32 -51q-37 -37 -92.5 -57.5t-117.5 -20.5q-114 0 -179.5 60t-65.5 164q0 88 37.5 159t104 111.5t149.5 40.5q105 0 167 -59.5t62 -163.5q0 -29 -7 -64h-442zM196 423q-56 -47 -76 -127h375
q1 7 1 19q0 74 -45 114.5t-120 40.5q-79 0 -135 -47zM223 730h94l114 -124h-71z" />
    <glyph glyph-name="eacute" unicode="&#xe9;" horiz-adv-x="604" 
d="M113 243q-1 -7 -1 -21q0 -80 45.5 -122t135.5 -42q52 0 97.5 17.5t74.5 48.5l32 -51q-37 -37 -92.5 -57.5t-117.5 -20.5q-114 0 -179.5 60t-65.5 164q0 88 37.5 159t104 111.5t149.5 40.5q105 0 167 -59.5t62 -163.5q0 -29 -7 -64h-442zM196 423q-56 -47 -76 -127h375
q1 7 1 19q0 74 -45 114.5t-120 40.5q-79 0 -135 -47zM450 730h97l-175 -124h-74z" />
    <glyph glyph-name="ecircumflex" unicode="&#xea;" horiz-adv-x="604" 
d="M113 243q-1 -7 -1 -21q0 -80 45.5 -122t135.5 -42q52 0 97.5 17.5t74.5 48.5l32 -51q-37 -37 -92.5 -57.5t-117.5 -20.5q-114 0 -179.5 60t-65.5 164q0 88 37.5 159t104 111.5t149.5 40.5q105 0 167 -59.5t62 -163.5q0 -29 -7 -64h-442zM196 423q-56 -47 -76 -127h375
q1 7 1 19q0 74 -45 114.5t-120 40.5q-79 0 -135 -47zM467 606l-90 83l-108 -83h-68l143 124h72l115 -124h-64z" />
    <glyph glyph-name="edieresis" unicode="&#xeb;" horiz-adv-x="604" 
d="M113 243q-1 -7 -1 -21q0 -80 45.5 -122t135.5 -42q52 0 97.5 17.5t74.5 48.5l32 -51q-37 -37 -92.5 -57.5t-117.5 -20.5q-114 0 -179.5 60t-65.5 164q0 88 37.5 159t104 111.5t149.5 40.5q105 0 167 -59.5t62 -163.5q0 -29 -7 -64h-442zM196 423q-56 -47 -76 -127h375
q1 7 1 19q0 74 -45 114.5t-120 40.5q-79 0 -135 -47zM258 640q-12 11 -12 27q0 21 13.5 34.5t31.5 13.5t29.5 -11t11.5 -29q0 -20 -13.5 -33t-31.5 -13q-17 0 -29 11zM436.5 640q-11.5 11 -11.5 27q0 21 13 34.5t32 13.5q17 0 29 -11t12 -29q0 -20 -13.5 -33t-32.5 -13
q-17 0 -28.5 11z" />
    <glyph glyph-name="igrave" unicode="&#xec;" horiz-adv-x="269" 
d="M151 526h71l-104 -526h-71zM61 732h94l114 -124h-71z" />
    <glyph glyph-name="iacute" unicode="&#xed;" horiz-adv-x="269" 
d="M151 526h71l-104 -526h-71zM288 732h97l-175 -124h-74z" />
    <glyph glyph-name="icircumflex" unicode="&#xee;" horiz-adv-x="269" 
d="M151 526h71l-104 -526h-71zM282 608l-67 81l-86 -81h-65l120 124h69l91 -124h-62z" />
    <glyph glyph-name="idieresis" unicode="&#xef;" horiz-adv-x="269" 
d="M151 526h71l-104 -526h-71zM119 642q-11 11 -11 27q0 20 13 34t32 14q16 0 27 -11.5t11 -28.5q0 -20 -12.5 -33t-31.5 -13q-17 0 -28 11zM252 642q-11 11 -11 27q0 20 13 34t32 14q16 0 27 -11.5t11 -28.5q0 -20 -12.5 -33t-31.5 -13q-17 0 -28 11z" />
    <glyph glyph-name="eth" unicode="&#xf0;" horiz-adv-x="633" 
d="M552 630q60 -71 60 -183q0 -115 -41.5 -219.5t-121.5 -169t-189 -64.5q-66 0 -117 24t-79 68t-28 101q0 74 36 130.5t100 87.5t145 31q79 0 133 -36.5t70 -99.5q20 69 20 146q0 104 -56 157l-277 -109l-18 49l241 95q-44 19 -108 19q-37 0 -74 -5.5t-65 -15.5l-2 61
q66 21 146 21q109 0 181 -49l105 41l19 -49zM369 79q49 24 79 66t30 93q0 64 -42.5 101t-116.5 37q-62 0 -110.5 -23t-75.5 -65t-27 -96q0 -64 42.5 -100.5t117.5 -36.5q54 0 103 24z" />
    <glyph glyph-name="ntilde" unicode="&#xf1;" horiz-adv-x="677" 
d="M546.5 484.5q49.5 -45.5 49.5 -125.5q0 -28 -6 -60l-60 -299h-71l60 300q5 28 5 48q0 57 -34.5 87.5t-101.5 30.5q-85 0 -140 -46.5t-74 -137.5l-56 -282h-71l104 526h68l-17 -84q75 88 206 88q89 0 138.5 -45.5zM447 624q-17 10 -37 28q-17 15 -29 22.5t-26 7.5
q-22 0 -37 -17.5t-20 -46.5h-43q8 52 35 81t66 29q22 0 38.5 -9.5t38.5 -28.5q16 -15 27.5 -22.5t25.5 -7.5q22 0 37.5 17t20.5 45h43q-8 -51 -34.5 -79.5t-66.5 -28.5q-22 0 -39 10z" />
    <glyph glyph-name="ograve" unicode="&#xf2;" horiz-adv-x="627" 
d="M155 22.5q-54 27.5 -83.5 78t-29.5 117.5q0 89 39 160t108.5 111.5t156.5 40.5q110 0 174.5 -60t64.5 -162q0 -89 -39 -160.5t-108.5 -112t-156.5 -40.5q-72 0 -126 27.5zM403 89.5q52 31.5 81.5 88t29.5 126.5q0 77 -45.5 120.5t-127.5 43.5q-65 0 -117 -32t-81.5 -88.5
t-29.5 -126.5q0 -77 45.5 -120t127.5 -43q65 0 117 31.5zM238 732h94l114 -124h-71z" />
    <glyph glyph-name="oacute" unicode="&#xf3;" horiz-adv-x="627" 
d="M155 22.5q-54 27.5 -83.5 78t-29.5 117.5q0 89 39 160t108.5 111.5t156.5 40.5q110 0 174.5 -60t64.5 -162q0 -89 -39 -160.5t-108.5 -112t-156.5 -40.5q-72 0 -126 27.5zM403 89.5q52 31.5 81.5 88t29.5 126.5q0 77 -45.5 120.5t-127.5 43.5q-65 0 -117 -32t-81.5 -88.5
t-29.5 -126.5q0 -77 45.5 -120t127.5 -43q65 0 117 31.5zM465 732h97l-175 -124h-74z" />
    <glyph glyph-name="ocircumflex" unicode="&#xf4;" horiz-adv-x="627" 
d="M155 22.5q-54 27.5 -83.5 78t-29.5 117.5q0 89 39 160t108.5 111.5t156.5 40.5q110 0 174.5 -60t64.5 -162q0 -89 -39 -160.5t-108.5 -112t-156.5 -40.5q-72 0 -126 27.5zM403 89.5q52 31.5 81.5 88t29.5 126.5q0 77 -45.5 120.5t-127.5 43.5q-65 0 -117 -32t-81.5 -88.5
t-29.5 -126.5q0 -77 45.5 -120t127.5 -43q65 0 117 31.5zM482 608l-90 83l-108 -83h-68l143 124h72l115 -124h-64z" />
    <glyph glyph-name="otilde" unicode="&#xf5;" horiz-adv-x="627" 
d="M155 22.5q-54 27.5 -83.5 78t-29.5 117.5q0 89 39 160t108.5 111.5t156.5 40.5q110 0 174.5 -60t64.5 -162q0 -89 -39 -160.5t-108.5 -112t-156.5 -40.5q-72 0 -126 27.5zM403 89.5q52 31.5 81.5 88t29.5 126.5q0 77 -45.5 120.5t-127.5 43.5q-65 0 -117 -32t-81.5 -88.5
t-29.5 -126.5q0 -77 45.5 -120t127.5 -43q65 0 117 31.5zM419 624q-17 10 -37 28q-17 15 -29 22.5t-26 7.5q-22 0 -37 -17.5t-20 -46.5h-43q8 52 35 81t66 29q22 0 38.5 -9.5t38.5 -28.5q16 -15 27.5 -22.5t25.5 -7.5q22 0 37.5 17t20.5 45h43q-8 -51 -34.5 -79.5
t-66.5 -28.5q-22 0 -39 10z" />
    <glyph glyph-name="odieresis" unicode="&#xf6;" horiz-adv-x="627" 
d="M155 22.5q-54 27.5 -83.5 78t-29.5 117.5q0 89 39 160t108.5 111.5t156.5 40.5q110 0 174.5 -60t64.5 -162q0 -89 -39 -160.5t-108.5 -112t-156.5 -40.5q-72 0 -126 27.5zM403 89.5q52 31.5 81.5 88t29.5 126.5q0 77 -45.5 120.5t-127.5 43.5q-65 0 -117 -32t-81.5 -88.5
t-29.5 -126.5q0 -77 45.5 -120t127.5 -43q65 0 117 31.5zM273 642q-12 11 -12 27q0 21 13.5 34.5t31.5 13.5t29.5 -11t11.5 -29q0 -20 -13.5 -33t-31.5 -13q-17 0 -29 11zM451.5 642q-11.5 11 -11.5 27q0 21 13 34.5t32 13.5q17 0 29 -11t12 -29q0 -20 -13.5 -33t-32.5 -13
q-17 0 -28.5 11z" />
    <glyph glyph-name="divide" unicode="&#xf7;" horiz-adv-x="575" 
d="M308 506.5q-13 13.5 -13 32.5q0 22 15 36.5t35 14.5q19 0 32 -13t13 -32q0 -22 -14.5 -37t-35.5 -15q-19 0 -32 13.5zM93 379h436l-12 -59h-436zM232 123.5q-13 13.5 -13 32.5q0 22 14.5 36.5t35.5 14.5q19 0 32 -12.5t13 -32.5q0 -22 -15 -37t-35 -15q-19 0 -32 13.5z
" />
    <glyph glyph-name="oslash" unicode="&#xf8;" horiz-adv-x="627" 
d="M155 22.5q-54 27.5 -83.5 78t-29.5 117.5q0 89 39 160t108.5 111.5t156.5 40.5q110 0 174.5 -60t64.5 -162q0 -89 -39 -160.5t-108.5 -112t-156.5 -40.5q-72 0 -126 27.5zM403 89.5q52 31.5 81.5 88t29.5 126.5q0 77 -45.5 120.5t-127.5 43.5q-65 0 -117 -32t-81.5 -88.5
t-29.5 -126.5q0 -77 45.5 -120t127.5 -43q65 0 117 31.5zM572 595h51l-573 -665h-51z" />
    <glyph glyph-name="ugrave" unicode="&#xf9;" horiz-adv-x="673" 
d="M626 526l-105 -526h-68l17 84q-74 -89 -203 -89q-88 0 -137.5 45.5t-49.5 126.5q0 28 6 59l60 300h71l-60 -300q-5 -28 -5 -47q0 -58 33.5 -89t100.5 -31q84 0 139 47t74 137l56 283h71zM260 732h94l114 -124h-71z" />
    <glyph glyph-name="uacute" unicode="&#xfa;" horiz-adv-x="673" 
d="M626 526l-105 -526h-68l17 84q-74 -89 -203 -89q-88 0 -137.5 45.5t-49.5 126.5q0 28 6 59l60 300h71l-60 -300q-5 -28 -5 -47q0 -58 33.5 -89t100.5 -31q84 0 139 47t74 137l56 283h71zM487 732h97l-175 -124h-74z" />
    <glyph glyph-name="ucircumflex" unicode="&#xfb;" horiz-adv-x="673" 
d="M626 526l-105 -526h-68l17 84q-74 -89 -203 -89q-88 0 -137.5 45.5t-49.5 126.5q0 28 6 59l60 300h71l-60 -300q-5 -28 -5 -47q0 -58 33.5 -89t100.5 -31q84 0 139 47t74 137l56 283h71zM504 608l-90 83l-108 -83h-68l143 124h72l115 -124h-64z" />
    <glyph glyph-name="udieresis" unicode="&#xfc;" horiz-adv-x="673" 
d="M626 526l-105 -526h-68l17 84q-74 -89 -203 -89q-88 0 -137.5 45.5t-49.5 126.5q0 28 6 59l60 300h71l-60 -300q-5 -28 -5 -47q0 -58 33.5 -89t100.5 -31q84 0 139 47t74 137l56 283h71zM295 642q-12 11 -12 27q0 21 13.5 34.5t31.5 13.5t29.5 -11t11.5 -29
q0 -20 -13.5 -33t-31.5 -13q-17 0 -29 11zM473.5 642q-11.5 11 -11.5 27q0 21 13 34.5t32 13.5q17 0 29 -11t12 -29q0 -20 -13.5 -33t-32.5 -13q-17 0 -28.5 11z" />
    <glyph glyph-name="yacute" unicode="&#xfd;" horiz-adv-x="542" 
d="M594 526l-384 -594q-48 -74 -90 -102.5t-100 -28.5q-38 0 -72 12.5t-53 34.5l38 52q36 -38 93 -38q35 0 63 19t58 66l37 56l-131 523h72l109 -448l287 448h73zM410 732h97l-175 -124h-74z" />
    <glyph glyph-name="thorn" unicode="&#xfe;" horiz-adv-x="678" 
d="M526.5 503q52.5 -27 81.5 -77t29 -118q0 -89 -38.5 -160.5t-106.5 -112t-153 -40.5q-75 0 -126 30t-74 86l-60 -305h-71l187 936h71l-59 -295q38 40 88.5 61.5t111.5 21.5q67 0 119.5 -27zM454.5 89.5q51.5 31.5 81 87.5t29.5 127q0 77 -45.5 120.5t-127.5 43.5
q-65 0 -116.5 -31.5t-81 -88t-29.5 -127.5q0 -77 45.5 -120t127.5 -43q65 0 116.5 31.5z" />
    <glyph glyph-name="ydieresis" unicode="&#xff;" horiz-adv-x="542" 
d="M594 526l-384 -594q-48 -74 -90 -102.5t-100 -28.5q-38 0 -72 12.5t-53 34.5l38 52q36 -38 93 -38q35 0 63 19t58 66l37 56l-131 523h72l109 -448l287 448h73zM218 642q-12 11 -12 27q0 21 13.5 34.5t31.5 13.5t29.5 -11t11.5 -29q0 -20 -13.5 -33t-31.5 -13
q-17 0 -29 11zM396.5 642q-11.5 11 -11.5 27q0 21 13 34.5t32 13.5q17 0 29 -11t12 -29q0 -20 -13.5 -33t-32.5 -13q-17 0 -28.5 11z" />
    <glyph glyph-name="Amacron" unicode="&#x100;" horiz-adv-x="717" 
d="M542 187h-391l-121 -187h-80l460 700h73l180 -700h-74zM528 247l-95 378l-244 -378h339zM320 842h309l-10 -47h-308z" />
    <glyph glyph-name="amacron" unicode="&#x101;" horiz-adv-x="678" 
d="M632 526l-105 -526h-68l17 83q-38 -42 -90 -65t-115 -23q-67 0 -119 27t-81 77.5t-29 118.5q0 89 38.5 160t106.5 111.5t152 40.5q75 0 126 -29.5t74 -84.5l22 110h71zM403 89.5q52 31.5 81.5 88t29.5 126.5q0 77 -45.5 120.5t-127.5 43.5q-65 0 -117 -32t-81.5 -88.5
t-29.5 -126.5q0 -77 45.5 -120t127.5 -43q65 0 117 31.5zM260 693h309l-10 -47h-308z" />
    <glyph glyph-name="Abreve" unicode="&#x102;" horiz-adv-x="717" 
d="M542 187h-391l-121 -187h-80l460 700h73l180 -700h-74zM528 247l-95 378l-244 -378h339zM364.5 787.5q-39.5 35.5 -35.5 93.5h49q-2 -39 23.5 -62t70.5 -23q43 0 73.5 23t36.5 62h52q-10 -59 -55.5 -94t-110.5 -35q-64 0 -103.5 35.5z" />
    <glyph glyph-name="abreve" unicode="&#x103;" horiz-adv-x="678" 
d="M632 526l-105 -526h-68l17 83q-38 -42 -90 -65t-115 -23q-67 0 -119 27t-81 77.5t-29 118.5q0 89 38.5 160t106.5 111.5t152 40.5q75 0 126 -29.5t74 -84.5l22 110h71zM403 89.5q52 31.5 81.5 88t29.5 126.5q0 77 -45.5 120.5t-127.5 43.5q-65 0 -117 -32t-81.5 -88.5
t-29.5 -126.5q0 -77 45.5 -120t127.5 -43q65 0 117 31.5zM304.5 638.5q-39.5 35.5 -35.5 93.5h49q-2 -39 23.5 -62t70.5 -23q43 0 73.5 23t36.5 62h52q-10 -59 -55.5 -94t-110.5 -35q-64 0 -103.5 35.5z" />
    <glyph glyph-name="Aogonek" unicode="&#x104;" horiz-adv-x="717" 
d="M542 187h-391l-121 -187h-80l460 700h73l180 -700h-74zM528 247l-95 378l-244 -378h339zM488.5 -198q-26.5 22 -26.5 60q0 100 171 167l30 -29q-147 -58 -147 -130q0 -22 14 -34t39 -12q38 0 68 19l11 -39q-40 -24 -89 -24q-44 0 -70.5 22z" />
    <glyph glyph-name="aogonek" unicode="&#x105;" horiz-adv-x="678" 
d="M632 526l-105 -526h-68l17 83q-38 -42 -90 -65t-115 -23q-67 0 -119 27t-81 77.5t-29 118.5q0 89 38.5 160t106.5 111.5t152 40.5q75 0 126 -29.5t74 -84.5l22 110h71zM403 89.5q52 31.5 81.5 88t29.5 126.5q0 77 -45.5 120.5t-127.5 43.5q-65 0 -117 -32t-81.5 -88.5
t-29.5 -126.5q0 -77 45.5 -120t127.5 -43q65 0 117 31.5zM352.5 -198q-26.5 22 -26.5 60q0 100 171 167l30 -29q-147 -58 -147 -130q0 -22 14 -34t39 -12q38 0 68 19l11 -39q-40 -24 -89 -24q-44 0 -70.5 22z" />
    <glyph glyph-name="Cacute" unicode="&#x106;" horiz-adv-x="719" 
d="M215 30.5q-74 36.5 -112.5 102t-38.5 152.5q0 116 52.5 212t149.5 152.5t224 56.5q84 0 149 -26.5t100 -75.5l-52 -46q-67 82 -203 82q-103 0 -182 -47.5t-122 -127.5t-43 -176q0 -105 67.5 -167t192.5 -62q137 0 222 83l43 -49q-46 -48 -117 -74t-154 -26
q-102 0 -176 36.5zM593 881h97l-175 -124h-74z" />
    <glyph glyph-name="cacute" unicode="&#x107;" horiz-adv-x="563" 
d="M156 22.5q-55 27.5 -84.5 78t-29.5 117.5q0 89 39 160t109 111.5t158 40.5q73 0 125.5 -26.5t81.5 -78.5l-60 -35q-45 78 -153 78q-65 0 -117.5 -32t-82 -88t-29.5 -127q0 -77 45.5 -120t129.5 -43q51 0 94.5 19.5t71.5 56.5l51 -39q-35 -47 -93.5 -73.5t-126.5 -26.5
q-74 0 -129 27.5zM452 732h97l-175 -124h-74z" />
    <glyph glyph-name="Ccircumflex" unicode="&#x108;" horiz-adv-x="719" 
d="M215 30.5q-74 36.5 -112.5 102t-38.5 152.5q0 116 52.5 212t149.5 152.5t224 56.5q84 0 149 -26.5t100 -75.5l-52 -46q-67 82 -203 82q-103 0 -182 -47.5t-122 -127.5t-43 -176q0 -105 67.5 -167t192.5 -62q137 0 222 83l43 -49q-46 -48 -117 -74t-154 -26
q-102 0 -176 36.5zM610 757l-90 83l-108 -83h-68l143 124h72l115 -124h-64z" />
    <glyph glyph-name="ccircumflex" unicode="&#x109;" horiz-adv-x="563" 
d="M156 22.5q-55 27.5 -84.5 78t-29.5 117.5q0 89 39 160t109 111.5t158 40.5q73 0 125.5 -26.5t81.5 -78.5l-60 -35q-45 78 -153 78q-65 0 -117.5 -32t-82 -88t-29.5 -127q0 -77 45.5 -120t129.5 -43q51 0 94.5 19.5t71.5 56.5l51 -39q-35 -47 -93.5 -73.5t-126.5 -26.5
q-74 0 -129 27.5zM469 608l-90 83l-108 -83h-68l143 124h72l115 -124h-64z" />
    <glyph glyph-name="Cdotaccent" unicode="&#x10a;" horiz-adv-x="719" 
d="M215 30.5q-74 36.5 -112.5 102t-38.5 152.5q0 116 52.5 212t149.5 152.5t224 56.5q84 0 149 -26.5t100 -75.5l-52 -46q-67 82 -203 82q-103 0 -182 -47.5t-122 -127.5t-43 -176q0 -105 67.5 -167t192.5 -62q137 0 222 83l43 -49q-46 -48 -117 -74t-154 -26
q-102 0 -176 36.5zM488 792.5q-13 12.5 -13 30.5q0 23 14.5 38t36.5 15q19 0 32 -12t13 -31q0 -23 -15 -38t-36 -15q-19 0 -32 12.5z" />
    <glyph glyph-name="cdotaccent" unicode="&#x10b;" horiz-adv-x="563" 
d="M156 22.5q-55 27.5 -84.5 78t-29.5 117.5q0 89 39 160t109 111.5t158 40.5q73 0 125.5 -26.5t81.5 -78.5l-60 -35q-45 78 -153 78q-65 0 -117.5 -32t-82 -88t-29.5 -127q0 -77 45.5 -120t129.5 -43q51 0 94.5 19.5t71.5 56.5l51 -39q-35 -47 -93.5 -73.5t-126.5 -26.5
q-74 0 -129 27.5zM347 643.5q-13 12.5 -13 30.5q0 23 14.5 38t36.5 15q19 0 32 -12t13 -31q0 -23 -15 -38t-36 -15q-19 0 -32 12.5z" />
    <glyph glyph-name="Ccaron" unicode="&#x10c;" horiz-adv-x="719" 
d="M215 30.5q-74 36.5 -112.5 102t-38.5 152.5q0 116 52.5 212t149.5 152.5t224 56.5q84 0 149 -26.5t100 -75.5l-52 -46q-67 82 -203 82q-103 0 -182 -47.5t-122 -127.5t-43 -176q0 -105 67.5 -167t192.5 -62q137 0 222 83l43 -49q-46 -48 -117 -74t-154 -26
q-102 0 -176 36.5zM696 881l-144 -124h-72l-114 124h64l90 -83l107 83h69z" />
    <glyph glyph-name="ccaron" unicode="&#x10d;" horiz-adv-x="563" 
d="M156 22.5q-55 27.5 -84.5 78t-29.5 117.5q0 89 39 160t109 111.5t158 40.5q73 0 125.5 -26.5t81.5 -78.5l-60 -35q-45 78 -153 78q-65 0 -117.5 -32t-82 -88t-29.5 -127q0 -77 45.5 -120t129.5 -43q51 0 94.5 19.5t71.5 56.5l51 -39q-35 -47 -93.5 -73.5t-126.5 -26.5
q-74 0 -129 27.5zM555 732l-144 -124h-72l-114 124h64l90 -83l107 83h69z" />
    <glyph glyph-name="Dcaron" unicode="&#x10e;" horiz-adv-x="826" 
d="M202 700h266q104 0 178.5 -35t113 -99.5t38.5 -150.5q0 -122 -54 -216t-152.5 -146.5t-228.5 -52.5h-301zM365 64q109 0 190.5 44.5t125 123.5t43.5 180q0 104 -67 164t-197 60h-198l-114 -572h217zM668 880l-144 -124h-72l-114 124h64l90 -83l107 83h69z" />
    <glyph glyph-name="dcaron" unicode="&#x10f;" horiz-adv-x="678" 
d="M675 742l-148 -742h-68l17 83q-38 -42 -90 -65t-115 -23q-67 0 -119 27t-81 77.5t-29 118.5q0 89 38.5 160t106.5 111.5t152 40.5q74 0 125.5 -29.5t74.5 -84.5l65 326h71zM403 89.5q52 31.5 81.5 88t29.5 126.5q0 77 -45.5 120.5t-127.5 43.5q-65 0 -117 -32
t-81.5 -88.5t-29.5 -126.5q0 -77 45.5 -120t127.5 -43q65 0 117 31.5zM773 771h60l-47 -189h-51z" />
    <glyph glyph-name="Dcroat" unicode="&#x110;" horiz-adv-x="831" 
d="M207 700h266q104 0 178.5 -35t113 -99.5t38.5 -150.5q0 -122 -54 -216t-152.5 -146.5t-228.5 -52.5h-301zM370 64q109 0 190.5 44.5t125 123.5t43.5 180q0 104 -67 164t-197 60h-198l-114 -572h217zM37 386h387l-11 -59h-388z" />
    <glyph glyph-name="dcroat" unicode="&#x111;" horiz-adv-x="678" 
d="M675 742l-148 -742h-68l17 83q-38 -42 -90 -65t-115 -23q-67 0 -119 27t-81 77.5t-29 118.5q0 89 38.5 160t106.5 111.5t152 40.5q74 0 125.5 -29.5t74.5 -84.5l65 326h71zM403 89.5q52 31.5 81.5 88t29.5 126.5q0 77 -45.5 120.5t-127.5 43.5q-65 0 -117 -32
t-81.5 -88.5t-29.5 -126.5q0 -77 45.5 -120t127.5 -43q65 0 117 31.5zM367 659h391l-10 -52h-391z" />
    <glyph glyph-name="Emacron" unicode="&#x112;" horiz-adv-x="669" 
d="M262 636l-50 -249h363l-12 -63h-363l-52 -260h421l-13 -64h-494l140 700h480l-13 -64h-407zM316 842h309l-10 -47h-308z" />
    <glyph glyph-name="emacron" unicode="&#x113;" horiz-adv-x="604" 
d="M113 243q-1 -7 -1 -21q0 -80 45.5 -122t135.5 -42q52 0 97.5 17.5t74.5 48.5l32 -51q-37 -37 -92.5 -57.5t-117.5 -20.5q-114 0 -179.5 60t-65.5 164q0 88 37.5 159t104 111.5t149.5 40.5q105 0 167 -59.5t62 -163.5q0 -29 -7 -64h-442zM196 423q-56 -47 -76 -127h375
q1 7 1 19q0 74 -45 114.5t-120 40.5q-79 0 -135 -47zM228 691h309l-10 -47h-308z" />
    <glyph glyph-name="Ebreve" unicode="&#x114;" horiz-adv-x="669" 
d="M262 636l-50 -249h363l-12 -63h-363l-52 -260h421l-13 -64h-494l140 700h480l-13 -64h-407zM360.5 787.5q-39.5 35.5 -35.5 93.5h49q-2 -39 23.5 -62t70.5 -23q43 0 73.5 23t36.5 62h52q-10 -59 -55.5 -94t-110.5 -35q-64 0 -103.5 35.5z" />
    <glyph glyph-name="ebreve" unicode="&#x115;" horiz-adv-x="604" 
d="M113 243q-1 -7 -1 -21q0 -80 45.5 -122t135.5 -42q52 0 97.5 17.5t74.5 48.5l32 -51q-37 -37 -92.5 -57.5t-117.5 -20.5q-114 0 -179.5 60t-65.5 164q0 88 37.5 159t104 111.5t149.5 40.5q105 0 167 -59.5t62 -163.5q0 -29 -7 -64h-442zM196 423q-56 -47 -76 -127h375
q1 7 1 19q0 74 -45 114.5t-120 40.5q-79 0 -135 -47zM272.5 636.5q-39.5 35.5 -35.5 93.5h49q-2 -39 23.5 -62t70.5 -23q43 0 73.5 23t36.5 62h52q-10 -59 -55.5 -94t-110.5 -35q-64 0 -103.5 35.5z" />
    <glyph glyph-name="Edotaccent" unicode="&#x116;" horiz-adv-x="669" 
d="M262 636l-50 -249h363l-12 -63h-363l-52 -260h421l-13 -64h-494l140 700h480l-13 -64h-407zM433 792.5q-13 12.5 -13 30.5q0 23 14.5 38t36.5 15q19 0 32 -12t13 -31q0 -23 -15 -38t-36 -15q-19 0 -32 12.5z" />
    <glyph glyph-name="edotaccent" unicode="&#x117;" horiz-adv-x="604" 
d="M113 243q-1 -7 -1 -21q0 -80 45.5 -122t135.5 -42q52 0 97.5 17.5t74.5 48.5l32 -51q-37 -37 -92.5 -57.5t-117.5 -20.5q-114 0 -179.5 60t-65.5 164q0 88 37.5 159t104 111.5t149.5 40.5q105 0 167 -59.5t62 -163.5q0 -29 -7 -64h-442zM196 423q-56 -47 -76 -127h375
q1 7 1 19q0 74 -45 114.5t-120 40.5q-79 0 -135 -47zM345 641.5q-13 12.5 -13 30.5q0 23 14.5 38t36.5 15q19 0 32 -12t13 -31q0 -23 -15 -38t-36 -15q-19 0 -32 12.5z" />
    <glyph glyph-name="Eogonek" unicode="&#x118;" horiz-adv-x="669" 
d="M262 636l-50 -249h363l-12 -63h-363l-52 -260h421l-13 -64h-494l140 700h480l-13 -64h-407zM381.5 -198q-26.5 22 -26.5 60q0 100 171 167l30 -29q-147 -58 -147 -130q0 -22 14 -34t39 -12q38 0 68 19l11 -39q-40 -24 -89 -24q-44 0 -70.5 22z" />
    <glyph glyph-name="eogonek" unicode="&#x119;" horiz-adv-x="604" 
d="M113 243q-1 -7 -1 -21q0 -80 46 -122t136 -42q53 0 98 17.5t74 48.5l32 -51q-18 -18 -44 -34q-81 -49 -117.5 -89.5t-36.5 -77.5q0 -24 14 -36t38 -12q34 0 66 19l10 -39q-40 -24 -87 -24q-41 0 -66.5 22t-25.5 60q0 73 84 137q-21 -4 -45 -4q-114 0 -180 60t-66 164
q0 88 38 159t104.5 111.5t149.5 40.5q105 0 167 -59.5t62 -163.5q0 -34 -6 -64h-444zM196 423q-56 -47 -76 -127h376q1 7 1 19q0 74 -45 114.5t-121 40.5q-79 0 -135 -47z" />
    <glyph glyph-name="Ecaron" unicode="&#x11a;" horiz-adv-x="669" 
d="M262 636l-50 -249h363l-12 -63h-363l-52 -260h421l-13 -64h-494l140 700h480l-13 -64h-407zM641 881l-144 -124h-72l-114 124h64l90 -83l107 83h69z" />
    <glyph glyph-name="ecaron" unicode="&#x11b;" horiz-adv-x="604" 
d="M113 243q-1 -7 -1 -21q0 -80 45.5 -122t135.5 -42q52 0 97.5 17.5t74.5 48.5l32 -51q-37 -37 -92.5 -57.5t-117.5 -20.5q-114 0 -179.5 60t-65.5 164q0 88 37.5 159t104 111.5t149.5 40.5q105 0 167 -59.5t62 -163.5q0 -29 -7 -64h-442zM196 423q-56 -47 -76 -127h375
q1 7 1 19q0 74 -45 114.5t-120 40.5q-79 0 -135 -47zM553 730l-144 -124h-72l-114 124h64l90 -83l107 83h69z" />
    <glyph glyph-name="Gcircumflex" unicode="&#x11c;" horiz-adv-x="773" 
d="M304 593q-80 -47 -123.5 -127t-43.5 -177q0 -105 67.5 -167t194.5 -62q101 0 179 55l47 235h71l-54 -269q-49 -41 -114.5 -64t-136.5 -23q-101 0 -175 36t-113 102t-39 153q0 116 52.5 212t149.5 152.5t225 56.5q88 0 154.5 -26.5t105.5 -75.5l-52 -45q-36 42 -88 61.5
t-123 19.5q-104 0 -184 -47zM608 757l-90 83l-108 -83h-68l143 124h72l115 -124h-64z" />
    <glyph glyph-name="gcircumflex" unicode="&#x11d;" horiz-adv-x="686" 
d="M639 526l-92 -462q-27 -138 -101.5 -200.5t-204.5 -62.5q-74 0 -133.5 20.5t-100.5 58.5l42 54q32 -33 83.5 -51.5t113.5 -18.5q99 0 154 46t74 142l12 58q-38 -43 -91.5 -66.5t-118.5 -23.5q-105 0 -168.5 57t-63.5 155q0 84 38.5 152t107 107t154.5 39q75 0 129 -30.5
t76 -89.5l22 116h68zM407.5 113q52.5 30 82 83t29.5 119q0 72 -46 112.5t-128 40.5q-66 0 -118 -30t-81.5 -83t-29.5 -119q0 -72 46 -112.5t128 -40.5q65 0 117.5 30zM495 608l-90 83l-108 -83h-68l143 124h72l115 -124h-64z" />
    <glyph glyph-name="Gbreve" unicode="&#x11e;" horiz-adv-x="773" 
d="M304 593q-80 -47 -123.5 -127t-43.5 -177q0 -105 67.5 -167t194.5 -62q101 0 179 55l47 235h71l-54 -269q-49 -41 -114.5 -64t-136.5 -23q-101 0 -175 36t-113 102t-39 153q0 116 52.5 212t149.5 152.5t225 56.5q88 0 154.5 -26.5t105.5 -75.5l-52 -45q-36 42 -88 61.5
t-123 19.5q-104 0 -184 -47zM413.5 787.5q-39.5 35.5 -35.5 93.5h49q-2 -39 23.5 -62t70.5 -23q43 0 73.5 23t36.5 62h52q-10 -59 -55.5 -94t-110.5 -35q-64 0 -103.5 35.5z" />
    <glyph glyph-name="gbreve" unicode="&#x11f;" horiz-adv-x="686" 
d="M639 526l-92 -462q-27 -138 -101.5 -200.5t-204.5 -62.5q-74 0 -133.5 20.5t-100.5 58.5l42 54q32 -33 83.5 -51.5t113.5 -18.5q99 0 154 46t74 142l12 58q-38 -43 -91.5 -66.5t-118.5 -23.5q-105 0 -168.5 57t-63.5 155q0 84 38.5 152t107 107t154.5 39q75 0 129 -30.5
t76 -89.5l22 116h68zM407.5 113q52.5 30 82 83t29.5 119q0 72 -46 112.5t-128 40.5q-66 0 -118 -30t-81.5 -83t-29.5 -119q0 -72 46 -112.5t128 -40.5q65 0 117.5 30zM300.5 638.5q-39.5 35.5 -35.5 93.5h49q-2 -39 23.5 -62t70.5 -23q43 0 73.5 23t36.5 62h52
q-10 -59 -55.5 -94t-110.5 -35q-64 0 -103.5 35.5z" />
    <glyph glyph-name="Gdotaccent" unicode="&#x120;" horiz-adv-x="773" 
d="M304 593q-80 -47 -123.5 -127t-43.5 -177q0 -105 67.5 -167t194.5 -62q101 0 179 55l47 235h71l-54 -269q-49 -41 -114.5 -64t-136.5 -23q-101 0 -175 36t-113 102t-39 153q0 116 52.5 212t149.5 152.5t225 56.5q88 0 154.5 -26.5t105.5 -75.5l-52 -45q-36 42 -88 61.5
t-123 19.5q-104 0 -184 -47zM486 792.5q-13 12.5 -13 30.5q0 23 14.5 38t36.5 15q19 0 32 -12t13 -31q0 -23 -15 -38t-36 -15q-19 0 -32 12.5z" />
    <glyph glyph-name="gdotaccent" unicode="&#x121;" horiz-adv-x="686" 
d="M639 526l-92 -462q-27 -138 -101.5 -200.5t-204.5 -62.5q-74 0 -133.5 20.5t-100.5 58.5l42 54q32 -33 83.5 -51.5t113.5 -18.5q99 0 154 46t74 142l12 58q-38 -43 -91.5 -66.5t-118.5 -23.5q-105 0 -168.5 57t-63.5 155q0 84 38.5 152t107 107t154.5 39q75 0 129 -30.5
t76 -89.5l22 116h68zM407.5 113q52.5 30 82 83t29.5 119q0 72 -46 112.5t-128 40.5q-66 0 -118 -30t-81.5 -83t-29.5 -119q0 -72 46 -112.5t128 -40.5q65 0 117.5 30zM373 643.5q-13 12.5 -13 30.5q0 23 14.5 38t36.5 15q19 0 32 -12t13 -31q0 -23 -15 -38t-36 -15
q-19 0 -32 12.5z" />
    <glyph glyph-name="Gcommaaccent" unicode="&#x122;" horiz-adv-x="773" 
d="M304 593q-80 -47 -123.5 -127t-43.5 -177q0 -105 67.5 -167t194.5 -62q101 0 179 55l47 235h71l-54 -269q-49 -41 -114.5 -64t-136.5 -23q-101 0 -175 36t-113 102t-39 153q0 116 52.5 212t149.5 152.5t225 56.5q88 0 154.5 -26.5t105.5 -75.5l-52 -45q-36 42 -88 61.5
t-123 19.5q-104 0 -184 -47zM354.5 -114q11.5 -10 11.5 -26q0 -11 -4 -20.5t-14 -25.5l-43 -76h-38l37 83q-11 4 -17.5 12.5t-6.5 19.5q0 19 11.5 31t31.5 12t31.5 -10z" />
    <glyph glyph-name="gcommaaccent" unicode="&#x123;" horiz-adv-x="686" 
d="M639 526l-92 -462q-27 -138 -101.5 -200.5t-204.5 -62.5q-74 0 -133.5 20.5t-100.5 58.5l42 54q32 -33 83.5 -51.5t113.5 -18.5q99 0 154 46t74 142l12 58q-38 -43 -91.5 -66.5t-118.5 -23.5q-105 0 -168.5 57t-63.5 155q0 84 38.5 152t107 107t154.5 39q75 0 129 -30.5
t76 -89.5l22 116h68zM407.5 113q52.5 30 82 83t29.5 119q0 72 -46 112.5t-128 40.5q-66 0 -118 -30t-81.5 -83t-29.5 -119q0 -72 46 -112.5t128 -40.5q65 0 117.5 30zM441 666.5q7 -8.5 7 -20.5q0 -19 -13 -31t-35 -12q-21 0 -33 10.5t-12 26.5q0 11 3.5 20.5t14.5 25.5
l55 96h42l-48 -104q12 -3 19 -11.5z" />
    <glyph glyph-name="Hcircumflex" unicode="&#x124;" horiz-adv-x="813" 
d="M786 700l-140 -700h-73l64 322h-438l-64 -322h-73l140 700h73l-62 -311h438l62 311h73zM607 757l-90 83l-108 -83h-68l143 124h72l115 -124h-64z" />
    <glyph glyph-name="hcircumflex" unicode="&#x125;" horiz-adv-x="677" 
d="M546.5 484.5q49.5 -45.5 49.5 -125.5q0 -28 -6 -60l-60 -299h-71l60 300q5 28 5 48q0 57 -34.5 87.5t-101.5 30.5q-85 0 -140 -46.5t-74 -137.5l-56 -282h-71l148 742h71l-59 -295q73 83 201 83q89 0 138.5 -45.5zM343 799l-90 83l-108 -83h-68l143 124h72l115 -124h-64z
" />
    <glyph glyph-name="Hbar" unicode="&#x126;" horiz-adv-x="823" 
d="M791 700l-140 -700h-73l64 322h-438l-64 -322h-73l140 700h73l-62 -311h438l62 311h73zM74 578h798l-11 -60h-797z" />
    <glyph glyph-name="hbar" unicode="&#x127;" horiz-adv-x="677" 
d="M546.5 484.5q49.5 -45.5 49.5 -125.5q0 -28 -6 -60l-60 -299h-71l60 300q5 28 5 48q0 57 -34.5 87.5t-101.5 30.5q-85 0 -140 -46.5t-74 -137.5l-56 -282h-71l148 742h71l-59 -295q73 83 201 83q89 0 138.5 -45.5zM79 659h391l-10 -52h-391z" />
    <glyph glyph-name="Itilde" unicode="&#x128;" horiz-adv-x="302" 
d="M202 700h73l-140 -700h-73zM288 773q-17 10 -37 28q-17 15 -29 22.5t-26 7.5q-22 0 -37 -17.5t-20 -46.5h-43q8 52 35 81t66 29q22 0 38.5 -9.5t38.5 -28.5q16 -15 27.5 -22.5t25.5 -7.5q22 0 37.5 17t20.5 45h43q-8 -51 -34.5 -79.5t-66.5 -28.5q-22 0 -39 10z" />
    <glyph glyph-name="itilde" unicode="&#x129;" horiz-adv-x="269" 
d="M151 526h71l-104 -526h-71zM233 624.5q-15 10.5 -31 29.5q-12 14 -21 21t-19 7q-17 0 -29 -17.5t-15 -46.5h-43q5 52 29 81t60 29q21 0 36 -10.5t31 -29.5q12 -14 20 -20.5t18 -6.5q18 0 30.5 16.5t15.5 44.5h42q-5 -50 -28.5 -79t-59.5 -29q-21 0 -36 10.5z" />
    <glyph glyph-name="Imacron" unicode="&#x12a;" horiz-adv-x="302" 
d="M202 700h73l-140 -700h-73zM141 842h252l-10 -47h-250z" />
    <glyph glyph-name="imacron" unicode="&#x12b;" horiz-adv-x="269" 
d="M151 526h71l-104 -526h-71zM95 693h252l-10 -47h-250z" />
    <glyph glyph-name="Ibreve" unicode="&#x12c;" horiz-adv-x="302" 
d="M202 700h73l-140 -700h-73zM156.5 787.5q-39.5 35.5 -35.5 93.5h49q-2 -39 23.5 -62t70.5 -23q43 0 73.5 23t36.5 62h52q-10 -59 -55.5 -94t-110.5 -35q-64 0 -103.5 35.5z" />
    <glyph glyph-name="ibreve" unicode="&#x12d;" horiz-adv-x="269" 
d="M151 526h71l-104 -526h-71zM131.5 632.5q-31.5 29.5 -31.5 79.5q0 13 1 20h46q-1 -5 -1 -15q0 -34 18.5 -52t52.5 -18q79 0 89 85h49q-7 -61 -43.5 -95t-95.5 -34q-53 0 -84.5 29.5z" />
    <glyph glyph-name="Iogonek" unicode="&#x12e;" horiz-adv-x="302" 
d="M202 700h73l-140 -700h-73zM18.5 -199.5q-20.5 20.5 -20.5 55.5q0 48 31 91t83 79l23 -26q-41 -35 -62.5 -70t-21.5 -67q0 -19 10 -29.5t28 -10.5t37 14l9 -38q-10 -9 -25.5 -14t-32.5 -5q-38 0 -58.5 20.5z" />
    <glyph glyph-name="iogonek" unicode="&#x12f;" horiz-adv-x="269" 
d="M151 526h71l-104 -526h-71zM182.5 656q-13.5 14 -13.5 33q0 23 15.5 38.5t39.5 15.5q21 0 35 -13.5t14 -31.5q0 -24 -16 -40t-40 -16q-21 0 -34.5 14zM1.5 -199.5q-20.5 20.5 -20.5 55.5q0 48 31 91t83 79l23 -26q-41 -35 -62.5 -70t-21.5 -67q0 -19 10 -29.5t28 -10.5
t37 14l9 -38q-10 -9 -25.5 -14t-32.5 -5q-38 0 -58.5 20.5z" />
    <glyph glyph-name="Idotaccent" unicode="&#x130;" horiz-adv-x="302" 
d="M202 700h73l-140 -700h-73zM229 792.5q-13 12.5 -13 30.5q0 23 14.5 38t36.5 15q19 0 32 -12t13 -31q0 -23 -15 -38t-36 -15q-19 0 -32 12.5z" />
    <glyph glyph-name="dotlessi" unicode="&#x131;" horiz-adv-x="269" 
d="M151 526h71l-104 -526h-71z" />
    <glyph glyph-name="IJ" unicode="&#x132;" horiz-adv-x="718" 
d="M161.5 12.5q-59.5 18.5 -102.5 50.5l38 59q40 -30 91.5 -46t109.5 -16q102 0 161.5 57.5t83.5 181.5l80 401h74l-81 -406q-31 -153 -110.5 -226.5t-212.5 -73.5q-72 0 -131.5 18.5zM196 700h73l-80 -398h-73z" />
    <glyph glyph-name="ij" unicode="&#x133;" horiz-adv-x="543" 
d="M151 526h71l-104 -526h-71zM182.5 655q-13.5 14 -13.5 33q0 23 15.5 38.5t39.5 15.5q21 0 35 -13.5t14 -31.5q0 -24 -16 -40t-40 -16q-21 0 -34.5 14zM143.5 -190.5q-28.5 8.5 -48.5 24.5l33 55q30 -27 79 -27q43 0 69 24t36 76l113 564h71l-113 -566q-32 -159 -177 -159
q-34 0 -62.5 8.5zM455.5 656q-13.5 14 -13.5 33q0 23 15.5 38.5t39.5 15.5q21 0 35 -13.5t14 -31.5q0 -24 -16 -40t-40 -16q-21 0 -34.5 14z" />
    <glyph glyph-name="Jcircumflex" unicode="&#x134;" horiz-adv-x="501" 
d="M36.5 21q-50.5 27 -73.5 74l52 47q20 -40 56 -62t85 -22q63 0 100.5 35t53.5 116l85 427h-255l13 64h328l-99 -491q-23 -115 -78.5 -165t-149.5 -50q-67 0 -117.5 27zM429 757l-90 83l-108 -83h-68l143 124h72l115 -124h-64z" />
    <glyph glyph-name="jcircumflex" unicode="&#x135;" horiz-adv-x="274" 
d="M-125.5 -190.5q-28.5 8.5 -48.5 24.5l33 55q30 -27 79 -27q43 0 69 24t36 76l113 564h71l-113 -566q-32 -159 -177 -159q-34 0 -62.5 8.5zM286 608l-67 81l-86 -81h-65l120 124h69l91 -124h-62z" />
    <glyph glyph-name="Kcommaaccent" unicode="&#x136;" horiz-adv-x="711" 
d="M653 0h-83l-226 330l-172 -147l-37 -183h-73l140 700h73l-84 -418l488 418h97l-378 -325zM324.5 -114q11.5 -10 11.5 -26q0 -11 -4 -20.5t-14 -25.5l-43 -76h-38l37 83q-11 4 -17.5 12.5t-6.5 19.5q0 19 11.5 31t31.5 12t31.5 -10z" />
    <glyph glyph-name="kcommaaccent" unicode="&#x137;" horiz-adv-x="590" 
d="M351 309l189 -309h-83l-162 266l-147 -114l-30 -152h-71l148 742h71l-100 -499l362 283h101zM262.5 -114q11.5 -10 11.5 -26q0 -11 -4 -20.5t-14 -25.5l-43 -76h-38l37 83q-11 4 -17.5 12.5t-6.5 19.5q0 19 11.5 31t31.5 12t31.5 -10z" />
    <glyph glyph-name="kgreenlandic" unicode="&#x138;" horiz-adv-x="590" 
d="M351 309l189 -309h-83l-162 266l-147 -114l-30 -152h-71l104 526h71l-56 -283l362 283h101z" />
    <glyph glyph-name="Lacute" unicode="&#x139;" horiz-adv-x="589" 
d="M202 700h73l-127 -636h392l-13 -64h-465zM335 881h97l-175 -124h-74z" />
    <glyph glyph-name="lacute" unicode="&#x13a;" horiz-adv-x="269" 
d="M195 742h71l-148 -742h-71zM326 923h97l-175 -124h-74z" />
    <glyph glyph-name="Lcommaaccent" unicode="&#x13b;" horiz-adv-x="589" 
d="M202 700h73l-127 -636h392l-13 -64h-465zM308.5 -114q11.5 -10 11.5 -26q0 -11 -4 -20.5t-14 -25.5l-43 -76h-38l37 83q-11 4 -17.5 12.5t-6.5 19.5q0 19 11.5 31t31.5 12t31.5 -10z" />
    <glyph glyph-name="lcommaaccent" unicode="&#x13c;" horiz-adv-x="269" 
d="M195 742h71l-148 -742h-71zM85.5 -114q11.5 -10 11.5 -26q0 -11 -4 -20.5t-14 -25.5l-43 -76h-38l37 83q-11 4 -17.5 12.5t-6.5 19.5q0 19 11.5 31t31.5 12t31.5 -10z" />
    <glyph glyph-name="Lcaron" unicode="&#x13d;" horiz-adv-x="589" 
d="M202 700h73l-127 -636h392l-13 -64h-465zM534 729h60l-47 -189h-51z" />
    <glyph glyph-name="lcaron" unicode="&#x13e;" horiz-adv-x="269" 
d="M195 742h71l-148 -742h-71zM364 771h60l-47 -189h-51z" />
    <glyph glyph-name="Ldot" unicode="&#x13f;" horiz-adv-x="589" 
d="M202 700h73l-127 -636h392l-13 -64h-465zM434 345.5q-14 13.5 -14 33.5q0 23 15.5 38t36.5 15q20 0 33.5 -13.5t13.5 -34.5q0 -22 -15.5 -37t-35.5 -15t-34 13.5z" />
    <glyph glyph-name="ldot" unicode="&#x140;" horiz-adv-x="314" 
d="M195 742h71l-148 -742h-71zM278 322q-13 13 -13 32q0 20 14 34.5t33 14.5q18 0 31 -13t13 -32q0 -20 -14 -34.5t-33 -14.5q-18 0 -31 13z" />
    <glyph glyph-name="Lslash" unicode="&#x141;" horiz-adv-x="594" 
d="M207 700h73l-127 -636h392l-13 -64h-465zM23 303l335 220l31 -47l-335 -220z" />
    <glyph glyph-name="lslash" unicode="&#x142;" horiz-adv-x="279" 
d="M200 742h71l-148 -742h-71zM5 287l279 183l28 -46l-278 -182z" />
    <glyph glyph-name="Nacute" unicode="&#x143;" horiz-adv-x="813" 
d="M786 700l-140 -700h-60l-335 580l-116 -580h-73l140 700h60l335 -580l116 580h73zM590 881h97l-175 -124h-74z" />
    <glyph glyph-name="nacute" unicode="&#x144;" horiz-adv-x="677" 
d="M546.5 484.5q49.5 -45.5 49.5 -125.5q0 -28 -6 -60l-60 -299h-71l60 300q5 28 5 48q0 57 -34.5 87.5t-101.5 30.5q-85 0 -140 -46.5t-74 -137.5l-56 -282h-71l104 526h68l-17 -84q75 88 206 88q89 0 138.5 -45.5zM493 732h97l-175 -124h-74z" />
    <glyph glyph-name="Ncommaaccent" unicode="&#x145;" horiz-adv-x="813" 
d="M786 700l-140 -700h-60l-335 580l-116 -580h-73l140 700h60l335 -580l116 580h73zM357.5 -114q11.5 -10 11.5 -26q0 -11 -4 -20.5t-14 -25.5l-43 -76h-38l37 83q-11 4 -17.5 12.5t-6.5 19.5q0 19 11.5 31t31.5 12t31.5 -10z" />
    <glyph glyph-name="ncommaaccent" unicode="&#x146;" horiz-adv-x="677" 
d="M546.5 484.5q49.5 -45.5 49.5 -125.5q0 -28 -6 -60l-60 -299h-71l60 300q5 28 5 48q0 57 -34.5 87.5t-101.5 30.5q-85 0 -140 -46.5t-74 -137.5l-56 -282h-71l104 526h68l-17 -84q75 88 206 88q89 0 138.5 -45.5zM291.5 -114q11.5 -10 11.5 -26q0 -11 -4 -20.5t-14 -25.5
l-43 -76h-38l37 83q-11 4 -17.5 12.5t-6.5 19.5q0 19 11.5 31t31.5 12t31.5 -10z" />
    <glyph glyph-name="Ncaron" unicode="&#x147;" horiz-adv-x="813" 
d="M786 700l-140 -700h-60l-335 580l-116 -580h-73l140 700h60l335 -580l116 580h73zM693 881l-144 -124h-72l-114 124h64l90 -83l107 83h69z" />
    <glyph glyph-name="ncaron" unicode="&#x148;" horiz-adv-x="677" 
d="M546.5 484.5q49.5 -45.5 49.5 -125.5q0 -28 -6 -60l-60 -299h-71l60 300q5 28 5 48q0 57 -34.5 87.5t-101.5 30.5q-85 0 -140 -46.5t-74 -137.5l-56 -282h-71l104 526h68l-17 -84q75 88 206 88q89 0 138.5 -45.5zM596 732l-144 -124h-72l-114 124h64l90 -83l107 83h69z
" />
    <glyph glyph-name="napostrophe" unicode="&#x149;" horiz-adv-x="712" 
d="M161.649 700h51l-77.8701 -260h-42zM581.5 484.5q49.5 -45.5 49.5 -125.5q0 -28 -6 -60l-60 -299h-71l60 300q5 28 5 48q0 57 -34.5 87.5t-101.5 30.5q-85 0 -140 -46.5t-74 -137.5l-56 -282h-71l104 526h68l-17 -84q75 88 206 88q89 0 138.5 -45.5z" />
    <glyph glyph-name="Eng" unicode="&#x14a;" horiz-adv-x="813" 
d="M786 700l-135 -676q-25 -122 -80 -172.5t-150 -50.5q-57 0 -104.5 24t-70.5 63l44 49q20 -34 54.5 -53t79.5 -19q62 0 99 34.5t53 114.5v2l-325 565l-116 -581h-73l140 700h60l335 -580l116 580h73z" />
    <glyph glyph-name="eng" unicode="&#x14b;" horiz-adv-x="677" 
d="M546.5 484.5q49.5 -45.5 49.5 -125.5q0 -28 -6 -60l-68 -339q-30 -159 -176 -159q-34 0 -62.5 8.5t-48.5 24.5l33 55q30 -27 79 -27q43 0 68.5 23.5t35.5 76.5l68 338q5 28 5 48q0 57 -34.5 87.5t-101.5 30.5q-85 0 -140 -46.5t-74 -137.5l-56 -282h-71l104 526h68
l-17 -84q75 88 206 88q89 0 138.5 -45.5z" />
    <glyph glyph-name="Omacron" unicode="&#x14c;" horiz-adv-x="839" 
d="M213 30.5q-73 36.5 -111 102t-38 152.5q0 115 52 211.5t148 153t222 56.5q102 0 175 -36.5t111.5 -102t38.5 -152.5q0 -115 -52.5 -211.5t-148.5 -153t-222 -56.5q-102 0 -175 36.5zM574 107.5q78 47.5 120.5 128t42.5 176.5q0 104 -67 166t-191 62q-101 0 -179 -47.5
t-120.5 -128t-42.5 -175.5q0 -105 67 -167t191 -62q101 0 179 47.5zM381 842h309l-10 -47h-308z" />
    <glyph glyph-name="omacron" unicode="&#x14d;" horiz-adv-x="627" 
d="M155 22.5q-54 27.5 -83.5 78t-29.5 117.5q0 89 39 160t108.5 111.5t156.5 40.5q110 0 174.5 -60t64.5 -162q0 -89 -39 -160.5t-108.5 -112t-156.5 -40.5q-72 0 -126 27.5zM403 89.5q52 31.5 81.5 88t29.5 126.5q0 77 -45.5 120.5t-127.5 43.5q-65 0 -117 -32t-81.5 -88.5
t-29.5 -126.5q0 -77 45.5 -120t127.5 -43q65 0 117 31.5zM243 693h309l-10 -47h-308z" />
    <glyph glyph-name="Obreve" unicode="&#x14e;" horiz-adv-x="839" 
d="M213 30.5q-73 36.5 -111 102t-38 152.5q0 115 52 211.5t148 153t222 56.5q102 0 175 -36.5t111.5 -102t38.5 -152.5q0 -115 -52.5 -211.5t-148.5 -153t-222 -56.5q-102 0 -175 36.5zM574 107.5q78 47.5 120.5 128t42.5 176.5q0 104 -67 166t-191 62q-101 0 -179 -47.5
t-120.5 -128t-42.5 -175.5q0 -105 67 -167t191 -62q101 0 179 47.5zM425.5 787.5q-39.5 35.5 -35.5 93.5h49q-2 -39 23.5 -62t70.5 -23q43 0 73.5 23t36.5 62h52q-10 -59 -55.5 -94t-110.5 -35q-64 0 -103.5 35.5z" />
    <glyph glyph-name="obreve" unicode="&#x14f;" horiz-adv-x="627" 
d="M155 22.5q-54 27.5 -83.5 78t-29.5 117.5q0 89 39 160t108.5 111.5t156.5 40.5q110 0 174.5 -60t64.5 -162q0 -89 -39 -160.5t-108.5 -112t-156.5 -40.5q-72 0 -126 27.5zM403 89.5q52 31.5 81.5 88t29.5 126.5q0 77 -45.5 120.5t-127.5 43.5q-65 0 -117 -32t-81.5 -88.5
t-29.5 -126.5q0 -77 45.5 -120t127.5 -43q65 0 117 31.5zM287.5 638.5q-39.5 35.5 -35.5 93.5h49q-2 -39 23.5 -62t70.5 -23q43 0 73.5 23t36.5 62h52q-10 -59 -55.5 -94t-110.5 -35q-64 0 -103.5 35.5z" />
    <glyph glyph-name="Ohungarumlaut" unicode="&#x150;" horiz-adv-x="839" 
d="M213 30.5q-73 36.5 -111 102t-38 152.5q0 115 52 211.5t148 153t222 56.5q102 0 175 -36.5t111.5 -102t38.5 -152.5q0 -115 -52.5 -211.5t-148.5 -153t-222 -56.5q-102 0 -175 36.5zM574 107.5q78 47.5 120.5 128t42.5 176.5q0 104 -67 166t-191 62q-101 0 -179 -47.5
t-120.5 -128t-42.5 -175.5q0 -105 67 -167t191 -62q101 0 179 47.5zM514 881h82l-126 -124h-66zM677 881h82l-127 -124h-64z" />
    <glyph glyph-name="ohungarumlaut" unicode="&#x151;" horiz-adv-x="627" 
d="M155 22.5q-54 27.5 -83.5 78t-29.5 117.5q0 89 39 160t108.5 111.5t156.5 40.5q110 0 174.5 -60t64.5 -162q0 -89 -39 -160.5t-108.5 -112t-156.5 -40.5q-72 0 -126 27.5zM403 89.5q52 31.5 81.5 88t29.5 126.5q0 77 -45.5 120.5t-127.5 43.5q-65 0 -117 -32t-81.5 -88.5
t-29.5 -126.5q0 -77 45.5 -120t127.5 -43q65 0 117 31.5zM376 732h82l-126 -124h-66zM539 732h82l-127 -124h-64z" />
    <glyph glyph-name="OE" unicode="&#x152;" horiz-adv-x="1121" 
d="M714 636l-50 -249h363l-12 -63h-363l-52 -260h421l-13 -64h-614q-104 0 -178.5 35t-113 99.5t-38.5 150.5q0 122 54 216t152.5 146.5t228.5 52.5h635l-13 -64h-407zM641 636h-144q-109 0 -190.5 -44.5t-125.5 -123.5t-44 -179q0 -105 67.5 -165t196.5 -60h126z" />
    <glyph glyph-name="oe" unicode="&#x153;" horiz-adv-x="1069" 
d="M577 243q-1 -7 -1 -21q0 -80 46 -122t136 -42q52 0 97.5 17.5t74.5 48.5l32 -51q-37 -37 -92.5 -57.5t-117.5 -20.5q-86 0 -144.5 35.5t-81.5 99.5q-40 -63 -105 -99t-145 -36q-70 0 -123 27.5t-82 78t-29 117.5q0 89 38 160t106 111.5t154 40.5q81 0 138 -35t81 -98
q38 62 101 97.5t139 35.5q104 0 166 -59.5t62 -163.5q0 -36 -7 -64h-443zM660.5 423q-56.5 -47 -76.5 -127h376q1 7 1 19q0 74 -45 114.5t-120 40.5q-79 0 -135.5 -47zM403 89.5q52 31.5 81.5 88t29.5 126.5q0 77 -45.5 120.5t-127.5 43.5q-65 0 -117 -32t-81.5 -88.5
t-29.5 -126.5q0 -77 45.5 -120t127.5 -43q65 0 117 31.5z" />
    <glyph glyph-name="Racute" unicode="&#x154;" horiz-adv-x="723" 
d="M647.5 326.5q-56.5 -68.5 -158.5 -92.5l132 -234h-80l-126 223q-11 -1 -36 -1h-199l-44 -222h-74l140 700h252q119 0 184.5 -52t65.5 -146q0 -107 -56.5 -175.5zM565.5 339q64.5 53 64.5 156q0 69 -47 105t-134 36h-186l-71 -350h189q120 0 184.5 53zM552 881h97
l-175 -124h-74z" />
    <glyph glyph-name="racute" unicode="&#x155;" horiz-adv-x="401" 
d="M289 505.5q53 24.5 128 24.5l-13 -69l-20 1q-85 0 -139.5 -49t-73.5 -146l-53 -267h-71l104 526h68l-18 -96q35 51 88 75.5zM385 732h97l-175 -124h-74z" />
    <glyph glyph-name="Rcommaaccent" unicode="&#x156;" horiz-adv-x="723" 
d="M647.5 326.5q-56.5 -68.5 -158.5 -92.5l132 -234h-80l-126 223q-11 -1 -36 -1h-199l-44 -222h-74l140 700h252q119 0 184.5 -52t65.5 -146q0 -107 -56.5 -175.5zM565.5 339q64.5 53 64.5 156q0 69 -47 105t-134 36h-186l-71 -350h189q120 0 184.5 53zM319.5 -114
q11.5 -10 11.5 -26q0 -11 -4 -20.5t-14 -25.5l-43 -76h-38l37 83q-11 4 -17.5 12.5t-6.5 19.5q0 19 11.5 31t31.5 12t31.5 -10z" />
    <glyph glyph-name="rcommaaccent" unicode="&#x157;" horiz-adv-x="401" 
d="M289 505.5q53 24.5 128 24.5l-13 -69l-20 1q-85 0 -139.5 -49t-73.5 -146l-53 -267h-71l104 526h68l-18 -96q35 51 88 75.5zM85.5 -114q11.5 -10 11.5 -26q0 -11 -4 -20.5t-14 -25.5l-43 -76h-38l37 83q-11 4 -17.5 12.5t-6.5 19.5q0 19 11.5 31t31.5 12t31.5 -10z" />
    <glyph glyph-name="Rcaron" unicode="&#x158;" horiz-adv-x="723" 
d="M647.5 326.5q-56.5 -68.5 -158.5 -92.5l132 -234h-80l-126 223q-11 -1 -36 -1h-199l-44 -222h-74l140 700h252q119 0 184.5 -52t65.5 -146q0 -107 -56.5 -175.5zM565.5 339q64.5 53 64.5 156q0 69 -47 105t-134 36h-186l-71 -350h189q120 0 184.5 53zM655 881l-144 -124
h-72l-114 124h64l90 -83l107 83h69z" />
    <glyph glyph-name="rcaron" unicode="&#x159;" horiz-adv-x="401" 
d="M289 505.5q53 24.5 128 24.5l-13 -69l-20 1q-85 0 -139.5 -49t-73.5 -146l-53 -267h-71l104 526h68l-18 -96q35 51 88 75.5zM488 732l-144 -124h-72l-114 124h64l90 -83l107 83h69z" />
    <glyph glyph-name="Sacute" unicode="&#x15a;" horiz-adv-x="615" 
d="M118.5 19q-70.5 25 -106.5 64l36 58q35 -38 97 -61t128 -23q93 0 149.5 36.5t56.5 101.5q0 35 -21 57t-53 35.5t-87 29.5q-65 19 -105.5 36.5t-69 52t-28.5 89.5q0 65 35.5 112.5t99 73t145.5 25.5q63 0 120 -15.5t97 -44.5l-31 -60q-38 28 -87 42.5t-103 14.5
q-92 0 -148 -38t-56 -103q0 -36 22 -59t54.5 -36.5t87.5 -29.5q65 -19 105 -36.5t68 -50t28 -85.5q0 -66 -36.5 -113.5t-101 -72.5t-148.5 -25q-77 0 -147.5 25zM503 881h97l-175 -124h-74z" />
    <glyph glyph-name="sacute" unicode="&#x15b;" horiz-adv-x="489" 
d="M79.5 13q-57.5 18 -88.5 46l34 56q30 -26 79 -42t103 -16q75 0 115.5 24.5t40.5 69.5q0 25 -16.5 40t-40.5 23t-70 18q-55 12 -89 24t-58 38t-24 72q0 75 62 119.5t166 44.5q51 0 99.5 -13.5t78.5 -35.5l-30 -57q-30 22 -70.5 33.5t-83.5 11.5q-72 0 -112 -26t-40 -70
q0 -26 17 -42t42.5 -24t69.5 -17q54 -12 87.5 -23.5t57.5 -37.5t24 -70q0 -77 -63.5 -120.5t-169.5 -43.5q-63 0 -120.5 18zM396 732h97l-175 -124h-74z" />
    <glyph glyph-name="Scircumflex" unicode="&#x15c;" horiz-adv-x="615" 
d="M118.5 19q-70.5 25 -106.5 64l36 58q35 -38 97 -61t128 -23q93 0 149.5 36.5t56.5 101.5q0 35 -21 57t-53 35.5t-87 29.5q-65 19 -105.5 36.5t-69 52t-28.5 89.5q0 65 35.5 112.5t99 73t145.5 25.5q63 0 120 -15.5t97 -44.5l-31 -60q-38 28 -87 42.5t-103 14.5
q-92 0 -148 -38t-56 -103q0 -36 22 -59t54.5 -36.5t87.5 -29.5q65 -19 105 -36.5t68 -50t28 -85.5q0 -66 -36.5 -113.5t-101 -72.5t-148.5 -25q-77 0 -147.5 25zM520 757l-90 83l-108 -83h-68l143 124h72l115 -124h-64z" />
    <glyph glyph-name="scircumflex" unicode="&#x15d;" horiz-adv-x="489" 
d="M79.5 13q-57.5 18 -88.5 46l34 56q30 -26 79 -42t103 -16q75 0 115.5 24.5t40.5 69.5q0 25 -16.5 40t-40.5 23t-70 18q-55 12 -89 24t-58 38t-24 72q0 75 62 119.5t166 44.5q51 0 99.5 -13.5t78.5 -35.5l-30 -57q-30 22 -70.5 33.5t-83.5 11.5q-72 0 -112 -26t-40 -70
q0 -26 17 -42t42.5 -24t69.5 -17q54 -12 87.5 -23.5t57.5 -37.5t24 -70q0 -77 -63.5 -120.5t-169.5 -43.5q-63 0 -120.5 18zM413 608l-90 83l-108 -83h-68l143 124h72l115 -124h-64z" />
    <glyph glyph-name="Scedilla" unicode="&#x15e;" horiz-adv-x="615" 
d="M118.5 19q-70.5 25 -106.5 64l36 58q35 -38 97 -61t128 -23q93 0 149.5 36.5t56.5 101.5q0 35 -21 57t-53 35.5t-87 29.5q-65 19 -105.5 36.5t-69 52t-28.5 89.5q0 65 35.5 112.5t99 73t145.5 25.5q63 0 120 -15.5t97 -44.5l-31 -60q-38 28 -87 42.5t-103 14.5
q-92 0 -148 -38t-56 -103q0 -36 22 -59t54.5 -36.5t87.5 -29.5q65 -19 105 -36.5t68 -50t28 -85.5q0 -66 -36.5 -113.5t-101 -72.5t-148.5 -25q-77 0 -147.5 25zM125 -197l22 38q26 -19 67 -19q32 0 50 14.5t18 38.5q0 19 -14 29.5t-41 10.5h-22l42 91h43l-26 -57
q34 -4 52 -23t18 -48q0 -44 -34.5 -71t-90.5 -27q-52 0 -84 23z" />
    <glyph glyph-name="scedilla" unicode="&#x15f;" horiz-adv-x="489" 
d="M79.5 13q-57.5 18 -88.5 46l34 56q30 -26 79 -42t103 -16q75 0 115.5 24.5t40.5 69.5q0 25 -16.5 40t-40.5 23t-70 18q-55 12 -89 24t-58 38t-24 72q0 75 62 119.5t166 44.5q51 0 99.5 -13.5t78.5 -35.5l-30 -57q-30 22 -70.5 33.5t-83.5 11.5q-72 0 -112 -26t-40 -70
q0 -26 17 -42t42.5 -24t69.5 -17q54 -12 87.5 -23.5t57.5 -37.5t24 -70q0 -77 -63.5 -120.5t-169.5 -43.5q-63 0 -120.5 18zM48 -197l22 38q26 -19 67 -19q32 0 50 14.5t18 38.5q0 19 -14 29.5t-41 10.5h-22l42 91h43l-26 -57q34 -4 52 -23t18 -48q0 -44 -34.5 -71
t-90.5 -27q-52 0 -84 23z" />
    <glyph glyph-name="Scaron" unicode="&#x160;" horiz-adv-x="615" 
d="M118.5 19q-70.5 25 -106.5 64l36 58q35 -38 97 -61t128 -23q93 0 149.5 36.5t56.5 101.5q0 35 -21 57t-53 35.5t-87 29.5q-65 19 -105.5 36.5t-69 52t-28.5 89.5q0 65 35.5 112.5t99 73t145.5 25.5q63 0 120 -15.5t97 -44.5l-31 -60q-38 28 -87 42.5t-103 14.5
q-92 0 -148 -38t-56 -103q0 -36 22 -59t54.5 -36.5t87.5 -29.5q65 -19 105 -36.5t68 -50t28 -85.5q0 -66 -36.5 -113.5t-101 -72.5t-148.5 -25q-77 0 -147.5 25zM606 881l-144 -124h-72l-114 124h64l90 -83l107 83h69z" />
    <glyph glyph-name="scaron" unicode="&#x161;" horiz-adv-x="489" 
d="M79.5 13q-57.5 18 -88.5 46l34 56q30 -26 79 -42t103 -16q75 0 115.5 24.5t40.5 69.5q0 25 -16.5 40t-40.5 23t-70 18q-55 12 -89 24t-58 38t-24 72q0 75 62 119.5t166 44.5q51 0 99.5 -13.5t78.5 -35.5l-30 -57q-30 22 -70.5 33.5t-83.5 11.5q-72 0 -112 -26t-40 -70
q0 -26 17 -42t42.5 -24t69.5 -17q54 -12 87.5 -23.5t57.5 -37.5t24 -70q0 -77 -63.5 -120.5t-169.5 -43.5q-63 0 -120.5 18zM499 732l-144 -124h-72l-114 124h64l90 -83l107 83h69z" />
    <glyph glyph-name="uni0162" unicode="&#x162;" horiz-adv-x="574" 
d="M325 636h-247l13 64h567l-14 -64h-246l-127 -636h-73zM92 -197l22 38q26 -19 67 -19q32 0 50 14.5t18 38.5q0 19 -14 29.5t-41 10.5h-22l42 91h43l-26 -57q34 -4 52 -23t18 -48q0 -44 -34.5 -71t-90.5 -27q-52 0 -84 23z" />
    <glyph glyph-name="uni0163" unicode="&#x163;" horiz-adv-x="406" 
d="M161 159q-4 -24 -4 -33q0 -70 76 -70q45 0 81 27l17 -54q-45 -34 -117 -34q-59 0 -93.5 32t-34.5 88q0 22 4 41l61 310h-93l11 60h94l23 115h71l-23 -115h160l-12 -60h-160zM54 -197l22 38q26 -19 67 -19q32 0 50 14.5t18 38.5q0 19 -14 29.5t-41 10.5h-22l42 91h43
l-26 -57q34 -4 52 -23t18 -48q0 -44 -34.5 -71t-90.5 -27q-52 0 -84 23z" />
    <glyph glyph-name="Tcaron" unicode="&#x164;" horiz-adv-x="574" 
d="M325 636h-247l13 64h567l-14 -64h-246l-127 -636h-73zM573 881l-144 -124h-72l-114 124h64l90 -83l107 83h69z" />
    <glyph glyph-name="tcaron" unicode="&#x165;" horiz-adv-x="406" 
d="M161 159q-4 -24 -4 -33q0 -70 76 -70q45 0 81 27l17 -54q-45 -34 -117 -34q-59 0 -93.5 32t-34.5 88q0 22 4 41l61 310h-93l11 60h94l23 115h71l-23 -115h160l-12 -60h-160zM374 771h60l-47 -189h-51z" />
    <glyph glyph-name="Tbar" unicode="&#x166;" horiz-adv-x="574" 
d="M325 636h-247l13 64h567l-14 -64h-246l-127 -636h-73zM115 375h387l-11 -59h-388z" />
    <glyph glyph-name="tbar" unicode="&#x167;" horiz-adv-x="416" 
d="M166 159q-4 -24 -4 -33q0 -70 76 -70q45 0 81 27l17 -54q-45 -34 -117 -34q-59 0 -93.5 32t-34.5 88q0 22 4 41l61 310h-93l11 60h94l23 115h71l-23 -115h160l-12 -60h-160zM45 320h302l-10 -51h-302z" />
    <glyph glyph-name="Utilde" unicode="&#x168;" horiz-adv-x="792" 
d="M174.5 54q-66.5 60 -66.5 167q0 41 8 78l80 401h73l-80 -399q-8 -42 -8 -71q0 -84 48 -127t138 -43q103 0 164.5 58.5t86.5 182.5l80 399h72l-80 -404q-61 -302 -329 -302q-120 0 -186.5 60zM533 773q-17 10 -37 28q-17 15 -29 22.5t-26 7.5q-22 0 -37 -17.5t-20 -46.5
h-43q8 52 35 81t66 29q22 0 38.5 -9.5t38.5 -28.5q16 -15 27.5 -22.5t25.5 -7.5q22 0 37.5 17t20.5 45h43q-8 -51 -34.5 -79.5t-66.5 -28.5q-22 0 -39 10z" />
    <glyph glyph-name="utilde" unicode="&#x169;" horiz-adv-x="673" 
d="M626 526l-105 -526h-68l17 84q-74 -89 -203 -89q-88 0 -137.5 45.5t-49.5 126.5q0 28 6 59l60 300h71l-60 -300q-5 -28 -5 -47q0 -58 33.5 -89t100.5 -31q84 0 139 47t74 137l56 283h71zM441 624q-17 10 -37 28q-17 15 -29 22.5t-26 7.5q-22 0 -37 -17.5t-20 -46.5h-43
q8 52 35 81t66 29q22 0 38.5 -9.5t38.5 -28.5q16 -15 27.5 -22.5t25.5 -7.5q22 0 37.5 17t20.5 45h43q-8 -51 -34.5 -79.5t-66.5 -28.5q-22 0 -39 10z" />
    <glyph glyph-name="Umacron" unicode="&#x16a;" horiz-adv-x="792" 
d="M174.5 54q-66.5 60 -66.5 167q0 41 8 78l80 401h73l-80 -399q-8 -42 -8 -71q0 -84 48 -127t138 -43q103 0 164.5 58.5t86.5 182.5l80 399h72l-80 -404q-61 -302 -329 -302q-120 0 -186.5 60zM357 842h309l-10 -47h-308z" />
    <glyph glyph-name="umacron" unicode="&#x16b;" horiz-adv-x="673" 
d="M626 526l-105 -526h-68l17 84q-74 -89 -203 -89q-88 0 -137.5 45.5t-49.5 126.5q0 28 6 59l60 300h71l-60 -300q-5 -28 -5 -47q0 -58 33.5 -89t100.5 -31q84 0 139 47t74 137l56 283h71zM265 693h309l-10 -47h-308z" />
    <glyph glyph-name="Ubreve" unicode="&#x16c;" horiz-adv-x="792" 
d="M174.5 54q-66.5 60 -66.5 167q0 41 8 78l80 401h73l-80 -399q-8 -42 -8 -71q0 -84 48 -127t138 -43q103 0 164.5 58.5t86.5 182.5l80 399h72l-80 -404q-61 -302 -329 -302q-120 0 -186.5 60zM401.5 787.5q-39.5 35.5 -35.5 93.5h49q-2 -39 23.5 -62t70.5 -23
q43 0 73.5 23t36.5 62h52q-10 -59 -55.5 -94t-110.5 -35q-64 0 -103.5 35.5z" />
    <glyph glyph-name="ubreve" unicode="&#x16d;" horiz-adv-x="673" 
d="M626 526l-105 -526h-68l17 84q-74 -89 -203 -89q-88 0 -137.5 45.5t-49.5 126.5q0 28 6 59l60 300h71l-60 -300q-5 -28 -5 -47q0 -58 33.5 -89t100.5 -31q84 0 139 47t74 137l56 283h71zM309.5 638.5q-39.5 35.5 -35.5 93.5h49q-2 -39 23.5 -62t70.5 -23q43 0 73.5 23
t36.5 62h52q-10 -59 -55.5 -94t-110.5 -35q-64 0 -103.5 35.5z" />
    <glyph glyph-name="Uring" unicode="&#x16e;" horiz-adv-x="792" 
d="M174.5 54q-66.5 60 -66.5 167q0 41 8 78l80 401h73l-80 -399q-8 -42 -8 -71q0 -84 48 -127t138 -43q103 0 164.5 58.5t86.5 182.5l80 399h72l-80 -404q-61 -302 -329 -302q-120 0 -186.5 60zM443.5 800q-29.5 30 -29.5 72q0 43 30 74t74 31t74 -31t30 -74q0 -42 -30 -72
t-74 -30q-45 0 -74.5 30zM567 824q19 19 19 48t-19.5 49.5t-48.5 20.5t-48.5 -20t-19.5 -50q0 -29 19 -48t49 -19t49 19z" />
    <glyph glyph-name="uring" unicode="&#x16f;" horiz-adv-x="673" 
d="M626 526l-105 -526h-68l17 84q-74 -89 -203 -89q-88 0 -137.5 45.5t-49.5 126.5q0 28 6 59l60 300h71l-60 -300q-5 -28 -5 -47q0 -58 33.5 -89t100.5 -31q84 0 139 47t74 137l56 283h71zM346.5 626q-29.5 30 -29.5 72q0 43 30 74t74 31t74 -31t30 -74q0 -42 -30 -72
t-74 -30q-45 0 -74.5 30zM470 650q19 19 19 48t-19.5 49.5t-48.5 20.5t-48.5 -20t-19.5 -50q0 -29 19 -48t49 -19t49 19z" />
    <glyph glyph-name="Uhungarumlaut" unicode="&#x170;" horiz-adv-x="792" 
d="M174.5 54q-66.5 60 -66.5 167q0 41 8 78l80 401h73l-80 -399q-8 -42 -8 -71q0 -84 48 -127t138 -43q103 0 164.5 58.5t86.5 182.5l80 399h72l-80 -404q-61 -302 -329 -302q-120 0 -186.5 60zM490 881h82l-126 -124h-66zM653 881h82l-127 -124h-64z" />
    <glyph glyph-name="uhungarumlaut" unicode="&#x171;" horiz-adv-x="673" 
d="M626 526l-105 -526h-68l17 84q-74 -89 -203 -89q-88 0 -137.5 45.5t-49.5 126.5q0 28 6 59l60 300h71l-60 -300q-5 -28 -5 -47q0 -58 33.5 -89t100.5 -31q84 0 139 47t74 137l56 283h71zM398 732h82l-126 -124h-66zM561 732h82l-127 -124h-64z" />
    <glyph glyph-name="Uogonek" unicode="&#x172;" horiz-adv-x="792" 
d="M770 700l-80 -404q-50 -248 -237 -292q-85 -20 -130.5 -57t-45.5 -77q0 -22 14 -34t39 -12q36 0 68 19l11 -39q-42 -24 -90 -24q-43 0 -69.5 22t-26.5 60q0 77 100 134q-103 9 -159 68t-56 157q0 33 8 78l80 401h73l-80 -399q-8 -42 -8 -71q0 -84 48 -127t138 -43
q103 0 164.5 58.5t86.5 182.5l80 399h72z" />
    <glyph glyph-name="uogonek" unicode="&#x173;" horiz-adv-x="673" 
d="M626 526l-105 -526h-68l17 84q-74 -89 -203 -89q-88 0 -137.5 45.5t-49.5 126.5q0 28 6 59l60 300h71l-60 -300q-5 -28 -5 -47q0 -58 33.5 -89t100.5 -31q84 0 139 47t74 137l56 283h71zM346.5 -198q-26.5 22 -26.5 60q0 100 171 167l30 -29q-147 -58 -147 -130
q0 -22 14 -34t39 -12q38 0 68 19l11 -39q-40 -24 -89 -24q-44 0 -70.5 22z" />
    <glyph glyph-name="Wcircumflex" unicode="&#x174;" horiz-adv-x="1111" 
d="M1163 700l-376 -700h-78l-86 594l-326 -594h-78l-96 700h73l83 -603l329 603h69l85 -604l327 604h74zM756 757l-90 83l-108 -83h-68l143 124h72l115 -124h-64z" />
    <glyph glyph-name="wcircumflex" unicode="&#x175;" horiz-adv-x="879" 
d="M928 526l-297 -526h-69l-88 430l-246 -430h-68l-103 526h65l85 -446l254 446h60l88 -446l250 446h69zM610 608l-90 83l-108 -83h-68l143 124h72l115 -124h-64z" />
    <glyph glyph-name="Ycircumflex" unicode="&#x176;" horiz-adv-x="635" 
d="M348 236l-47 -236h-73l48 241l-188 459h74l162 -394l318 394h79zM518 757l-90 83l-108 -83h-68l143 124h72l115 -124h-64z" />
    <glyph glyph-name="ycircumflex" unicode="&#x177;" horiz-adv-x="542" 
d="M594 526l-384 -594q-48 -74 -90 -102.5t-100 -28.5q-38 0 -72 12.5t-53 34.5l38 52q36 -38 93 -38q35 0 63 19t58 66l37 56l-131 523h72l109 -448l287 448h73zM427 608l-90 83l-108 -83h-68l143 124h72l115 -124h-64z" />
    <glyph glyph-name="Ydieresis" unicode="&#x178;" horiz-adv-x="635" 
d="M348 236l-47 -236h-73l48 241l-188 459h74l162 -394l318 394h79zM309 791q-12 11 -12 27q0 21 13.5 34.5t31.5 13.5t29.5 -11t11.5 -29q0 -20 -13.5 -33t-31.5 -13q-17 0 -29 11zM487.5 791q-11.5 11 -11.5 27q0 21 13 34.5t32 13.5q17 0 29 -11t12 -29q0 -20 -13.5 -33
t-32.5 -13q-17 0 -28.5 11z" />
    <glyph glyph-name="Zacute" unicode="&#x179;" horiz-adv-x="651" 
d="M685 649l-577 -585h471l-13 -64h-574l10 51l576 585h-451l13 64h555zM515 881h97l-175 -124h-74z" />
    <glyph glyph-name="zacute" unicode="&#x17a;" horiz-adv-x="511" 
d="M506 479l-410 -420h333l-12 -59h-428l9 47l410 419h-319l12 60h415zM409 732h97l-175 -124h-74z" />
    <glyph glyph-name="Zdotaccent" unicode="&#x17b;" horiz-adv-x="651" 
d="M685 649l-577 -585h471l-13 -64h-574l10 51l576 585h-451l13 64h555zM410 792.5q-13 12.5 -13 30.5q0 23 14.5 38t36.5 15q19 0 32 -12t13 -31q0 -23 -15 -38t-36 -15q-19 0 -32 12.5z" />
    <glyph glyph-name="zdotaccent" unicode="&#x17c;" horiz-adv-x="511" 
d="M506 479l-410 -420h333l-12 -59h-428l9 47l410 419h-319l12 60h415zM304 643.5q-13 12.5 -13 30.5q0 23 14.5 38t36.5 15q19 0 32 -12t13 -31q0 -23 -15 -38t-36 -15q-19 0 -32 12.5z" />
    <glyph glyph-name="Zcaron" unicode="&#x17d;" horiz-adv-x="651" 
d="M685 649l-577 -585h471l-13 -64h-574l10 51l576 585h-451l13 64h555zM618 881l-144 -124h-72l-114 124h64l90 -83l107 83h69z" />
    <glyph glyph-name="zcaron" unicode="&#x17e;" horiz-adv-x="511" 
d="M506 479l-410 -420h333l-12 -59h-428l9 47l410 419h-319l12 60h415zM512 732l-144 -124h-72l-114 124h64l90 -83l107 83h69z" />
    <glyph glyph-name="longs" unicode="&#x17f;" horiz-adv-x="295" 
d="M428 738q28 -9 46 -25l-32 -52q-28 26 -74 26t-73 -25t-38 -78l-117 -584h-71l94 466h-94l11 60h95l13 66q15 75 60.5 115t119.5 40q32 0 60 -9z" />
    <glyph glyph-name="uni018F" unicode="&#x18f;" horiz-adv-x="817" 
d="M641.5 669.5q71.5 -36.5 109 -102t37.5 -152.5q0 -115 -51 -211.5t-144.5 -153t-215.5 -56.5q-97 0 -168.5 36.5t-109.5 101.5t-38 150q0 33 12 93h639q2 24 2 37q0 105 -64.5 166.5t-185.5 61.5q-69 0 -129 -21t-102 -59l-37 54q48 44 120 68t154 24q100 0 171.5 -36.5z
M528.5 91q65.5 33 110 90.5t63.5 130.5h-568l-1 -26q0 -106 66.5 -167t184.5 -61q79 0 144.5 33z" />
    <glyph glyph-name="florin" unicode="&#x192;" horiz-adv-x="440" 
d="M521 738.5q27 -8.5 43 -25.5l-39 -54q-11 13 -30 20t-41 7q-44 0 -75.5 -25t-47.5 -74l-23 -70h161l-18 -59h-160l-165 -506q-22 -72 -70.5 -111.5t-118.5 -39.5q-35 0 -64 9.5t-45 26.5l38 52q26 -27 72 -27q42 0 73 25.5t47 73.5l162 497h-94l18 59h95l24 74
q24 75 74.5 115.5t123.5 40.5q33 0 60 -8.5z" />
    <glyph glyph-name="Ohorn" unicode="&#x1a0;" horiz-adv-x="839" 
d="M830.5 673q-38.5 -34 -103.5 -34q-16 0 -23 1q52 -38 79.5 -95.5t27.5 -129.5q0 -115 -52.5 -211.5t-148.5 -153t-222 -56.5q-102 0 -175 36.5t-111 102t-38 152.5q0 115 52 211.5t148 153t222 56.5q60 0 127 -9q10 -1 41 -4t60 -3q49 0 75.5 20.5t26.5 56.5t-20 64
l47 19q26 -40 26 -85q0 -58 -38.5 -92zM670 578q-67 62 -191 62q-101 0 -179 -47.5t-120.5 -128t-42.5 -175.5q0 -105 67 -167t191 -62q101 0 179 47.5t120.5 128t42.5 176.5q0 104 -67 166z" />
    <glyph glyph-name="ohorn" unicode="&#x1a1;" horiz-adv-x="627" 
d="M601.5 506.5q-32.5 -31.5 -88.5 -33.5q72 -58 72 -165q0 -89 -39 -160.5t-108.5 -112t-156.5 -40.5q-72 0 -126 27.5t-83.5 78t-29.5 117.5q0 89 39 160t108.5 111.5t156.5 40.5q47 0 99 -4q40 -2 60 -2q35 0 56 18.5t21 51.5q0 31 -20 64l46 18q26 -37 26 -84
q0 -54 -32.5 -85.5zM403 89.5q52 31.5 81.5 88t29.5 126.5q0 77 -45.5 120.5t-127.5 43.5q-65 0 -117 -32t-81.5 -88.5t-29.5 -126.5q0 -77 45.5 -120t127.5 -43q65 0 117 31.5z" />
    <glyph glyph-name="Uhorn" unicode="&#x1af;" horiz-adv-x="798" 
d="M174.5 54q-66.5 60 -66.5 167q0 41 8 78l80 401h73l-80 -399q-8 -42 -8 -71q0 -84 48 -127t138 -43q103 0 164.5 58.5t86.5 182.5l80 399h72l-80 -404q-61 -302 -329 -302q-120 0 -186.5 60zM737 701h15q33 0 49.5 18.5t16.5 48.5q0 36 -20 64l47 18q26 -38 26 -84
q0 -54 -31 -87t-88 -33h-15v55z" />
    <glyph glyph-name="uhorn" unicode="&#x1b0;" horiz-adv-x="679" 
d="M626 526l-105 -526h-68l17 84q-74 -89 -203 -89q-88 0 -137.5 45.5t-49.5 126.5q0 28 6 59l60 300h71l-60 -300q-5 -28 -5 -47q0 -58 33.5 -89t100.5 -31q84 0 139 47t74 137l56 283h71zM575 527h15q33 0 49.5 18.5t16.5 48.5q0 36 -20 64l47 18q26 -38 26 -84
q0 -54 -31 -87t-88 -33h-15v55z" />
    <glyph glyph-name="uni01B7" unicode="&#x1b7;" horiz-adv-x="593" 
d="M585 649l-247 -250q90 -7 138.5 -53t48.5 -123q0 -67 -36 -119t-101 -81t-150 -29q-80 0 -143.5 24.5t-97.5 66.5l41 56q28 -36 82 -58.5t122 -22.5q98 0 153.5 43t55.5 116q0 121 -169 121h-45l10 53l241 243h-356l13 64h450z" />
    <glyph glyph-name="uni01C4" unicode="&#x1c4;" horiz-adv-x="1456" 
d="M202 700h266q104 0 178.5 -35t113 -99.5t38.5 -150.5q0 -122 -54 -216t-152.5 -146.5t-228.5 -52.5h-301zM365 64q109 0 190.5 44.5t125 123.5t43.5 180q0 104 -67 164t-197 60h-198l-114 -572h217zM1483 649l-577 -585h471l-13 -64h-574l10 51l576 585h-451l13 64h555z
M1416 881l-144 -124h-72l-114 124h64l90 -83l107 83h69z" />
    <glyph glyph-name="uni01C5" unicode="&#x1c5;" horiz-adv-x="1337" 
d="M202 700h266q104 0 178.5 -35t113 -99.5t38.5 -150.5q0 -122 -54 -216t-152.5 -146.5t-228.5 -52.5h-301zM365 64q109 0 190.5 44.5t125 123.5t43.5 180q0 104 -67 164t-197 60h-198l-114 -572h217zM1332 479l-410 -420h333l-12 -59h-428l9 47l410 419h-319l12 60h415z
M1338 732l-144 -124h-72l-114 124h64l90 -83l107 83h69z" />
    <glyph glyph-name="uni01C6" unicode="&#x1c6;" horiz-adv-x="1189" 
d="M675 742l-148 -742h-68l17 83q-38 -42 -90 -65t-115 -23q-67 0 -119 27t-81 77.5t-29 118.5q0 89 38.5 160t106.5 111.5t152 40.5q74 0 125.5 -29.5t74.5 -84.5l65 326h71zM403 89.5q52 31.5 81.5 88t29.5 126.5q0 77 -45.5 120.5t-127.5 43.5q-65 0 -117 -32
t-81.5 -88.5t-29.5 -126.5q0 -77 45.5 -120t127.5 -43q65 0 117 31.5zM1184 479l-410 -420h333l-12 -59h-428l9 47l410 419h-319l12 60h415zM1190 732l-144 -124h-72l-114 124h64l90 -83l107 83h69z" />
    <glyph glyph-name="uni01C7" unicode="&#x1c7;" horiz-adv-x="1090" 
d="M202 700h73l-127 -636h392l-13 -64h-465zM625.5 21q-50.5 27 -73.5 74l52 47q20 -40 56 -62t85 -22q63 0 100.5 35t53.5 116l85 427h-255l13 64h328l-99 -491q-23 -115 -78.5 -165t-149.5 -50q-67 0 -117.5 27z" />
    <glyph glyph-name="uni01C8" unicode="&#x1c8;" horiz-adv-x="863" 
d="M202 700h73l-127 -636h392l-13 -64h-465zM463.5 -190.5q-28.5 8.5 -48.5 24.5l33 55q30 -27 79 -27q43 0 69 24t36 76l113 564h71l-113 -566q-32 -159 -177 -159q-34 0 -62.5 8.5zM775.5 656q-13.5 14 -13.5 33q0 23 15.5 38.5t39.5 15.5q21 0 35 -13.5t14 -31.5
q0 -24 -16 -40t-40 -16q-21 0 -34.5 14z" />
    <glyph glyph-name="uni01C9" unicode="&#x1c9;" horiz-adv-x="543" 
d="M195 742h71l-148 -742h-71zM143.5 -190.5q-28.5 8.5 -48.5 24.5l33 55q30 -27 79 -27q43 0 69 24t36 76l113 564h71l-113 -566q-32 -159 -177 -159q-34 0 -62.5 8.5zM455.5 656q-13.5 14 -13.5 33q0 23 15.5 38.5t39.5 15.5q21 0 35 -13.5t14 -31.5q0 -24 -16 -40
t-40 -16q-21 0 -34.5 14z" />
    <glyph glyph-name="uni01CA" unicode="&#x1ca;" horiz-adv-x="1314" 
d="M786 700l-140 -700h-60l-335 580l-116 -580h-73l140 700h60l335 -580l116 580h73zM849.5 21q-50.5 27 -73.5 74l52 47q20 -40 56 -62t85 -22q63 0 100.5 35t53.5 116l85 427h-255l13 64h328l-99 -491q-23 -115 -78.5 -165t-149.5 -50q-67 0 -117.5 27z" />
    <glyph glyph-name="uni01CB" unicode="&#x1cb;" horiz-adv-x="1087" 
d="M786 700l-140 -700h-60l-335 580l-116 -580h-73l140 700h60l335 -580l116 580h73zM687.5 -190.5q-28.5 8.5 -48.5 24.5l33 55q30 -27 79 -27q43 0 69 24t36 76l113 564h71l-113 -566q-32 -159 -177 -159q-34 0 -62.5 8.5zM999.5 656q-13.5 14 -13.5 33q0 23 15.5 38.5
t39.5 15.5q21 0 35 -13.5t14 -31.5q0 -24 -16 -40t-40 -16q-21 0 -34.5 14z" />
    <glyph glyph-name="uni01CC" unicode="&#x1cc;" horiz-adv-x="951" 
d="M546.5 484.5q49.5 -45.5 49.5 -125.5q0 -28 -6 -60l-60 -299h-71l60 300q5 28 5 48q0 57 -34.5 87.5t-101.5 30.5q-85 0 -140 -46.5t-74 -137.5l-56 -282h-71l104 526h68l-17 -84q75 88 206 88q89 0 138.5 -45.5zM551.5 -190.5q-28.5 8.5 -48.5 24.5l33 55q30 -27 79 -27
q43 0 69 24t36 76l113 564h71l-113 -566q-32 -159 -177 -159q-34 0 -62.5 8.5zM863.5 656q-13.5 14 -13.5 33q0 23 15.5 38.5t39.5 15.5q21 0 35 -13.5t14 -31.5q0 -24 -16 -40t-40 -16q-21 0 -34.5 14z" />
    <glyph glyph-name="uni01CD" unicode="&#x1cd;" horiz-adv-x="717" 
d="M542 187h-391l-121 -187h-80l460 700h73l180 -700h-74zM528 247l-95 378l-244 -378h339zM645 881l-144 -124h-72l-114 124h64l90 -83l107 83h69z" />
    <glyph glyph-name="uni01CE" unicode="&#x1ce;" horiz-adv-x="678" 
d="M632 526l-105 -526h-68l17 83q-38 -42 -90 -65t-115 -23q-67 0 -119 27t-81 77.5t-29 118.5q0 89 38.5 160t106.5 111.5t152 40.5q75 0 126 -29.5t74 -84.5l22 110h71zM403 89.5q52 31.5 81.5 88t29.5 126.5q0 77 -45.5 120.5t-127.5 43.5q-65 0 -117 -32t-81.5 -88.5
t-29.5 -126.5q0 -77 45.5 -120t127.5 -43q65 0 117 31.5zM585 732l-144 -124h-72l-114 124h64l90 -83l107 83h69z" />
    <glyph glyph-name="uni01D3" unicode="&#x1d3;" horiz-adv-x="792" 
d="M174.5 54q-66.5 60 -66.5 167q0 41 8 78l80 401h73l-80 -399q-8 -42 -8 -71q0 -84 48 -127t138 -43q103 0 164.5 58.5t86.5 182.5l80 399h72l-80 -404q-61 -302 -329 -302q-120 0 -186.5 60zM682 881l-144 -124h-72l-114 124h64l90 -83l107 83h69z" />
    <glyph glyph-name="uni01D4" unicode="&#x1d4;" horiz-adv-x="673" 
d="M626 526l-105 -526h-68l17 84q-74 -89 -203 -89q-88 0 -137.5 45.5t-49.5 126.5q0 28 6 59l60 300h71l-60 -300q-5 -28 -5 -47q0 -58 33.5 -89t100.5 -31q84 0 139 47t74 137l56 283h71zM590 732l-144 -124h-72l-114 124h64l90 -83l107 83h69z" />
    <glyph glyph-name="uni01E4" unicode="&#x1e4;" horiz-adv-x="806" 
d="M304 593q-80 -47 -123.5 -127t-43.5 -177q0 -105 67.5 -167t194.5 -62q101 0 179 55l47 235h71l-54 -269q-49 -41 -114.5 -64t-136.5 -23q-101 0 -175 36t-113 102t-39 153q0 116 52.5 212t149.5 152.5t225 56.5q88 0 154.5 -26.5t105.5 -75.5l-52 -45q-36 42 -88 61.5
t-123 19.5q-104 0 -184 -47zM407.339 266h376.017l-10.6875 -59h-376.988z" />
    <glyph glyph-name="uni01E5" unicode="&#x1e5;" horiz-adv-x="692" 
d="M528 -11h68l-9 -51h-82q-38 -71 -102.5 -104t-160.5 -33q-73 0 -133 20.5t-100 58.5l41 54q32 -33 83.5 -51.5t113.5 -18.5q125 0 181 74h-203l9 51h223q11 26 19 63l15 74q-39 -43 -93 -67t-121 -24q-105 0 -168.5 55.5t-63.5 150.5q0 81 38.5 147t107 104t154.5 38
q75 0 129.5 -30t75.5 -87l22 113h69l-93 -462q-7 -37 -20 -75zM408.5 124q52.5 29 82 80.5t29.5 116.5q0 71 -46 110t-128 39q-66 0 -118 -29t-81.5 -80.5t-29.5 -116.5q0 -70 46 -109.5t128 -39.5q65 0 117.5 29z" />
    <glyph glyph-name="Gcaron" unicode="&#x1e6;" horiz-adv-x="773" 
d="M304 593q-80 -47 -123.5 -127t-43.5 -177q0 -105 67.5 -167t194.5 -62q101 0 179 55l47 235h71l-54 -269q-49 -41 -114.5 -64t-136.5 -23q-101 0 -175 36t-113 102t-39 153q0 116 52.5 212t149.5 152.5t225 56.5q88 0 154.5 -26.5t105.5 -75.5l-52 -45q-36 42 -88 61.5
t-123 19.5q-104 0 -184 -47zM694 881l-144 -124h-72l-114 124h64l90 -83l107 83h69z" />
    <glyph glyph-name="gcaron" unicode="&#x1e7;" horiz-adv-x="686" 
d="M639 526l-92 -462q-27 -138 -101.5 -200.5t-204.5 -62.5q-74 0 -133.5 20.5t-100.5 58.5l42 54q32 -33 83.5 -51.5t113.5 -18.5q99 0 154 46t74 142l12 58q-38 -43 -91.5 -66.5t-118.5 -23.5q-105 0 -168.5 57t-63.5 155q0 84 38.5 152t107 107t154.5 39q75 0 129 -30.5
t76 -89.5l22 116h68zM407.5 113q52.5 30 82 83t29.5 119q0 72 -46 112.5t-128 40.5q-66 0 -118 -30t-81.5 -83t-29.5 -119q0 -72 46 -112.5t128 -40.5q65 0 117.5 30zM581 732l-144 -124h-72l-114 124h64l90 -83l107 83h69z" />
    <glyph glyph-name="uni01E8" unicode="&#x1e8;" horiz-adv-x="711" 
d="M653 0h-83l-226 330l-172 -147l-37 -183h-73l140 700h73l-84 -418l488 418h97l-378 -325zM660 881l-144 -124h-72l-114 124h64l90 -83l107 83h69z" />
    <glyph glyph-name="uni01E9" unicode="&#x1e9;" horiz-adv-x="590" 
d="M351 309l189 -309h-83l-162 266l-147 -114l-30 -152h-71l148 742h71l-100 -499l362 283h101zM434 948l-144 -124h-72l-114 124h64l90 -83l107 83h69z" />
    <glyph glyph-name="uni01EA" unicode="&#x1ea;" horiz-adv-x="839" 
d="M661 669.5q73 -36.5 111.5 -102t38.5 -152.5q0 -101 -40.5 -188t-115 -145.5t-172.5 -78.5q-100 -20 -147.5 -56.5t-47.5 -76.5q0 -22 14.5 -34t38.5 -12q38 0 68 19l11 -39q-40 -24 -89 -24q-43 0 -69.5 22t-26.5 60q0 39 25 73.5t77 61.5q-129 13 -201 90.5t-72 197.5
q0 115 52 211.5t148 153t222 56.5q102 0 175 -36.5zM574 107.5q78 47.5 120.5 128t42.5 176.5q0 104 -67 166t-191 62q-101 0 -179 -47.5t-120.5 -128t-42.5 -175.5q0 -105 67 -167t191 -62q101 0 179 47.5z" />
    <glyph glyph-name="uni01EB" unicode="&#x1eb;" horiz-adv-x="627" 
d="M520.5 470q64.5 -60 64.5 -162q0 -108 -55.5 -187t-154.5 -113q-86 -29 -127.5 -64.5t-41.5 -73.5q0 -22 14.5 -34t38.5 -12q38 0 68 19l11 -39q-40 -24 -89 -24q-43 0 -69.5 22t-26.5 60q0 79 99 134q-97 8 -153.5 68t-56.5 154q0 89 39 160t108.5 111.5t156.5 40.5
q110 0 174.5 -60zM403 89.5q52 31.5 81.5 88t29.5 126.5q0 77 -45.5 120.5t-127.5 43.5q-65 0 -117 -32t-81.5 -88.5t-29.5 -126.5q0 -77 45.5 -120t127.5 -43q65 0 117 31.5z" />
    <glyph glyph-name="uni01EE" unicode="&#x1ee;" horiz-adv-x="593" 
d="M585 649l-247 -250q90 -7 138.5 -53t48.5 -123q0 -67 -36 -119t-101 -81t-150 -29q-80 0 -143.5 24.5t-97.5 66.5l41 56q28 -36 82 -58.5t122 -22.5q98 0 153.5 43t55.5 116q0 121 -169 121h-45l10 53l241 243h-356l13 64h450zM565 881l-144 -124h-72l-114 124h64l90 -83
l107 83h69z" />
    <glyph glyph-name="uni01EF" unicode="&#x1ef;" horiz-adv-x="515" 
d="M496 475l-257 -260q95 -6 145 -52t50 -126q0 -73 -40 -127t-106.5 -82t-143.5 -28q-68 0 -130.5 23t-107.5 70l37 57q38 -42 92.5 -62.5t113.5 -20.5q57 0 105 19t77 57.5t29 92.5q0 60 -40.5 93t-125.5 33h-47l8 50l243 249h-355l13 65h449zM508 732l-144 -124h-72
l-114 124h64l90 -83l107 83h69z" />
    <glyph glyph-name="Aringacute" unicode="&#x1fa;" horiz-adv-x="717" 
d="M542 187h-391l-121 -187h-80l460 700h73l180 -700h-74zM528 247l-95 378l-244 -378h339zM565 934q20 -28 20 -62q0 -42 -30 -72t-74 -30q-45 0 -74.5 30t-29.5 72q0 43 30 74t74 31q28 0 55 -15l82 81l39 -32zM530 824q19 19 19 48t-19.5 49.5t-48.5 20.5t-48.5 -20
t-19.5 -50q0 -29 19 -48t49 -19t49 19z" />
    <glyph glyph-name="aringacute" unicode="&#x1fb;" horiz-adv-x="678" 
d="M632 526l-105 -526h-68l17 83q-38 -42 -90 -65t-115 -23q-67 0 -119 27t-81 77.5t-29 118.5q0 89 38.5 160t106.5 111.5t152 40.5q75 0 126 -29.5t74 -84.5l22 110h71zM403 89.5q52 31.5 81.5 88t29.5 126.5q0 77 -45.5 120.5t-127.5 43.5q-65 0 -117 -32t-81.5 -88.5
t-29.5 -126.5q0 -77 45.5 -120t127.5 -43q65 0 117 31.5zM500 760q20 -28 20 -62q0 -42 -30 -72t-74 -30q-45 0 -74.5 30t-29.5 72q0 43 30 74t74 31q28 0 55 -15l82 81l39 -32zM465 650q19 19 19 48t-19.5 49.5t-48.5 20.5t-48.5 -20t-19.5 -50q0 -29 19 -48t49 -19t49 19z
" />
    <glyph glyph-name="AEacute" unicode="&#x1fc;" horiz-adv-x="1033" 
d="M626 636l-50 -249h364l-14 -63h-362l-52 -260h421l-13 -64h-493l37 187h-282l-150 -187h-83l563 700h534l-13 -64h-407zM554 637h-12l-312 -390h246zM699 881h97l-175 -124h-74z" />
    <glyph glyph-name="aeacute" unicode="&#x1fd;" horiz-adv-x="987" 
d="M493 244q-1 -7 -1 -22q0 -82 46 -123t136 -41q108 0 171 66l33 -51q-38 -37 -93.5 -57.5t-116.5 -20.5q-79 0 -137 32t-84 95q-34 -65 -94.5 -96t-133.5 -31q-88 0 -137.5 37.5t-49.5 101.5q0 76 57.5 119.5t165.5 43.5h176l5 27q4 20 4 41q0 51 -32.5 77t-96.5 26
q-50 0 -98 -16.5t-83 -44.5l-24 56q42 32 100 49.5t115 17.5q74 0 118.5 -26.5t58.5 -75.5q40 49 97 75.5t120 26.5q105 0 168 -59.5t63 -163.5q0 -33 -8 -63h-445zM577.5 423q-56.5 -47 -76.5 -126h376q6 82 -40 127.5t-125 45.5q-78 0 -134.5 -47zM346 90q51 39 65 111
l9 43h-170q-70 0 -109 -28t-39 -78q0 -42 31.5 -64.5t92.5 -22.5q69 0 120 39zM612 730h97l-175 -124h-74z" />
    <glyph glyph-name="Oslashacute" unicode="&#x1fe;" horiz-adv-x="839" 
d="M213 30.5q-73 36.5 -111 102t-38 152.5q0 115 52 211.5t148 153t222 56.5q102 0 175 -36.5t111.5 -102t38.5 -152.5q0 -115 -52.5 -211.5t-148.5 -153t-222 -56.5q-102 0 -175 36.5zM574 107.5q78 47.5 120.5 128t42.5 176.5q0 104 -67 166t-191 62q-101 0 -179 -47.5
t-120.5 -128t-42.5 -175.5q0 -105 67 -167t191 -62q101 0 179 47.5zM792 770h62l-773 -840h-63zM603 881h97l-175 -124h-74z" />
    <glyph glyph-name="oslashacute" unicode="&#x1ff;" horiz-adv-x="627" 
d="M155 22.5q-54 27.5 -83.5 78t-29.5 117.5q0 89 39 160t108.5 111.5t156.5 40.5q110 0 174.5 -60t64.5 -162q0 -89 -39 -160.5t-108.5 -112t-156.5 -40.5q-72 0 -126 27.5zM403 89.5q52 31.5 81.5 88t29.5 126.5q0 77 -45.5 120.5t-127.5 43.5q-65 0 -117 -32t-81.5 -88.5
t-29.5 -126.5q0 -77 45.5 -120t127.5 -43q65 0 117 31.5zM572 595h51l-573 -665h-51zM465 732h97l-175 -124h-74z" />
    <glyph glyph-name="uni0200" unicode="&#x200;" horiz-adv-x="717" 
d="M542 187h-391l-121 -187h-80l460 700h73l180 -700h-74zM528 247l-95 378l-244 -378h339zM257 881h78l72 -124h-61zM420 881h77l72 -124h-60z" />
    <glyph glyph-name="uni0201" unicode="&#x201;" horiz-adv-x="678" 
d="M632 526l-105 -526h-68l17 83q-38 -42 -90 -65t-115 -23q-67 0 -119 27t-81 77.5t-29 118.5q0 89 38.5 160t106.5 111.5t152 40.5q75 0 126 -29.5t74 -84.5l22 110h71zM403 89.5q52 31.5 81.5 88t29.5 126.5q0 77 -45.5 120.5t-127.5 43.5q-65 0 -117 -32t-81.5 -88.5
t-29.5 -126.5q0 -77 45.5 -120t127.5 -43q65 0 117 31.5zM197 732h78l72 -124h-61zM360 732h77l72 -124h-60z" />
    <glyph glyph-name="uni0202" unicode="&#x202;" horiz-adv-x="717" 
d="M542 187h-391l-121 -187h-80l460 700h73l180 -700h-74zM528 247l-95 378l-244 -378h339zM360.5 851q45.5 35 110.5 35q64 0 103.5 -35.5t35.5 -93.5h-49q2 39 -24 62.5t-70 23.5q-43 0 -74 -23.5t-37 -62.5h-51q10 59 55.5 94z" />
    <glyph glyph-name="uni0203" unicode="&#x203;" horiz-adv-x="678" 
d="M632 526l-105 -526h-68l17 83q-38 -42 -90 -65t-115 -23q-67 0 -119 27t-81 77.5t-29 118.5q0 89 38.5 160t106.5 111.5t152 40.5q75 0 126 -29.5t74 -84.5l22 110h71zM403 89.5q52 31.5 81.5 88t29.5 126.5q0 77 -45.5 120.5t-127.5 43.5q-65 0 -117 -32t-81.5 -88.5
t-29.5 -126.5q0 -77 45.5 -120t127.5 -43q65 0 117 31.5zM300.5 702q45.5 35 110.5 35q64 0 103.5 -35.5t35.5 -93.5h-49q2 39 -24 62.5t-70 23.5q-43 0 -74 -23.5t-37 -62.5h-51q10 59 55.5 94z" />
    <glyph glyph-name="uni0204" unicode="&#x204;" horiz-adv-x="669" 
d="M262 636l-50 -249h363l-12 -63h-363l-52 -260h421l-13 -64h-494l140 700h480l-13 -64h-407zM253 881h78l72 -124h-61zM416 881h77l72 -124h-60z" />
    <glyph glyph-name="uni0205" unicode="&#x205;" horiz-adv-x="604" 
d="M113 243q-1 -7 -1 -21q0 -80 45.5 -122t135.5 -42q52 0 97.5 17.5t74.5 48.5l32 -51q-37 -37 -92.5 -57.5t-117.5 -20.5q-114 0 -179.5 60t-65.5 164q0 88 37.5 159t104 111.5t149.5 40.5q105 0 167 -59.5t62 -163.5q0 -29 -7 -64h-442zM196 423q-56 -47 -76 -127h375
q1 7 1 19q0 74 -45 114.5t-120 40.5q-79 0 -135 -47zM165 730h78l72 -124h-61zM328 730h77l72 -124h-60z" />
    <glyph glyph-name="uni0206" unicode="&#x206;" horiz-adv-x="669" 
d="M262 636l-50 -249h363l-12 -63h-363l-52 -260h421l-13 -64h-494l140 700h480l-13 -64h-407zM356.5 851q45.5 35 110.5 35q64 0 103.5 -35.5t35.5 -93.5h-49q2 39 -24 62.5t-70 23.5q-43 0 -74 -23.5t-37 -62.5h-51q10 59 55.5 94z" />
    <glyph glyph-name="uni0207" unicode="&#x207;" horiz-adv-x="604" 
d="M113 243q-1 -7 -1 -21q0 -80 45.5 -122t135.5 -42q52 0 97.5 17.5t74.5 48.5l32 -51q-37 -37 -92.5 -57.5t-117.5 -20.5q-114 0 -179.5 60t-65.5 164q0 88 37.5 159t104 111.5t149.5 40.5q105 0 167 -59.5t62 -163.5q0 -29 -7 -64h-442zM196 423q-56 -47 -76 -127h375
q1 7 1 19q0 74 -45 114.5t-120 40.5q-79 0 -135 -47zM268.5 700q45.5 35 110.5 35q64 0 103.5 -35.5t35.5 -93.5h-49q2 39 -24 62.5t-70 23.5q-43 0 -74 -23.5t-37 -62.5h-51q10 59 55.5 94z" />
    <glyph glyph-name="uni0208" unicode="&#x208;" horiz-adv-x="302" 
d="M202 700h73l-140 -700h-73zM49 881h78l72 -124h-61zM212 881h77l72 -124h-60z" />
    <glyph glyph-name="uni0209" unicode="&#x209;" horiz-adv-x="269" 
d="M151 526h71l-104 -526h-71zM3 732h78l72 -124h-61zM166 732h77l72 -124h-60z" />
    <glyph glyph-name="uni020A" unicode="&#x20a;" horiz-adv-x="302" 
d="M202 700h73l-140 -700h-73zM152.5 851q45.5 35 110.5 35q64 0 103.5 -35.5t35.5 -93.5h-49q2 39 -24 62.5t-70 23.5q-43 0 -74 -23.5t-37 -62.5h-51q10 59 55.5 94z" />
    <glyph glyph-name="uni020B" unicode="&#x20b;" horiz-adv-x="269" 
d="M151 526h71l-104 -526h-71zM120.5 703q36.5 33 96.5 33q52 0 83.5 -29.5t31.5 -78.5q0 -13 -1 -20h-46q1 5 1 14q0 34 -19 52.5t-53 18.5q-79 0 -88 -85h-50q8 62 44.5 95z" />
    <glyph glyph-name="uni020C" unicode="&#x20c;" horiz-adv-x="839" 
d="M213 30.5q-73 36.5 -111 102t-38 152.5q0 115 52 211.5t148 153t222 56.5q102 0 175 -36.5t111.5 -102t38.5 -152.5q0 -115 -52.5 -211.5t-148.5 -153t-222 -56.5q-102 0 -175 36.5zM574 107.5q78 47.5 120.5 128t42.5 176.5q0 104 -67 166t-191 62q-101 0 -179 -47.5
t-120.5 -128t-42.5 -175.5q0 -105 67 -167t191 -62q101 0 179 47.5zM318 881h78l72 -124h-61zM481 881h77l72 -124h-60z" />
    <glyph glyph-name="uni020D" unicode="&#x20d;" horiz-adv-x="627" 
d="M155 22.5q-54 27.5 -83.5 78t-29.5 117.5q0 89 39 160t108.5 111.5t156.5 40.5q110 0 174.5 -60t64.5 -162q0 -89 -39 -160.5t-108.5 -112t-156.5 -40.5q-72 0 -126 27.5zM403 89.5q52 31.5 81.5 88t29.5 126.5q0 77 -45.5 120.5t-127.5 43.5q-65 0 -117 -32t-81.5 -88.5
t-29.5 -126.5q0 -77 45.5 -120t127.5 -43q65 0 117 31.5zM180 732h78l72 -124h-61zM343 732h77l72 -124h-60z" />
    <glyph glyph-name="uni020E" unicode="&#x20e;" horiz-adv-x="839" 
d="M213 30.5q-73 36.5 -111 102t-38 152.5q0 115 52 211.5t148 153t222 56.5q102 0 175 -36.5t111.5 -102t38.5 -152.5q0 -115 -52.5 -211.5t-148.5 -153t-222 -56.5q-102 0 -175 36.5zM574 107.5q78 47.5 120.5 128t42.5 176.5q0 104 -67 166t-191 62q-101 0 -179 -47.5
t-120.5 -128t-42.5 -175.5q0 -105 67 -167t191 -62q101 0 179 47.5zM421.5 851q45.5 35 110.5 35q64 0 103.5 -35.5t35.5 -93.5h-49q2 39 -24 62.5t-70 23.5q-43 0 -74 -23.5t-37 -62.5h-51q10 59 55.5 94z" />
    <glyph glyph-name="uni020F" unicode="&#x20f;" horiz-adv-x="627" 
d="M155 22.5q-54 27.5 -83.5 78t-29.5 117.5q0 89 39 160t108.5 111.5t156.5 40.5q110 0 174.5 -60t64.5 -162q0 -89 -39 -160.5t-108.5 -112t-156.5 -40.5q-72 0 -126 27.5zM403 89.5q52 31.5 81.5 88t29.5 126.5q0 77 -45.5 120.5t-127.5 43.5q-65 0 -117 -32t-81.5 -88.5
t-29.5 -126.5q0 -77 45.5 -120t127.5 -43q65 0 117 31.5zM283.5 702q45.5 35 110.5 35q64 0 103.5 -35.5t35.5 -93.5h-49q2 39 -24 62.5t-70 23.5q-43 0 -74 -23.5t-37 -62.5h-51q10 59 55.5 94z" />
    <glyph glyph-name="uni0210" unicode="&#x210;" horiz-adv-x="723" 
d="M647.5 326.5q-56.5 -68.5 -158.5 -92.5l132 -234h-80l-126 223q-11 -1 -36 -1h-199l-44 -222h-74l140 700h252q119 0 184.5 -52t65.5 -146q0 -107 -56.5 -175.5zM565.5 339q64.5 53 64.5 156q0 69 -47 105t-134 36h-186l-71 -350h189q120 0 184.5 53zM267 881h78l72 -124
h-61zM430 881h77l72 -124h-60z" />
    <glyph glyph-name="uni0211" unicode="&#x211;" horiz-adv-x="401" 
d="M289 505.5q53 24.5 128 24.5l-13 -69l-20 1q-85 0 -139.5 -49t-73.5 -146l-53 -267h-71l104 526h68l-18 -96q35 51 88 75.5zM100 732h78l72 -124h-61zM263 732h77l72 -124h-60z" />
    <glyph glyph-name="uni0212" unicode="&#x212;" horiz-adv-x="723" 
d="M647.5 326.5q-56.5 -68.5 -158.5 -92.5l132 -234h-80l-126 223q-11 -1 -36 -1h-199l-44 -222h-74l140 700h252q119 0 184.5 -52t65.5 -146q0 -107 -56.5 -175.5zM565.5 339q64.5 53 64.5 156q0 69 -47 105t-134 36h-186l-71 -350h189q120 0 184.5 53zM370.5 851
q45.5 35 110.5 35q64 0 103.5 -35.5t35.5 -93.5h-49q2 39 -24 62.5t-70 23.5q-43 0 -74 -23.5t-37 -62.5h-51q10 59 55.5 94z" />
    <glyph glyph-name="uni0213" unicode="&#x213;" horiz-adv-x="401" 
d="M289 505.5q53 24.5 128 24.5l-13 -69l-20 1q-85 0 -139.5 -49t-73.5 -146l-53 -267h-71l104 526h68l-18 -96q35 51 88 75.5zM203.5 702q45.5 35 110.5 35q64 0 103.5 -35.5t35.5 -93.5h-49q2 39 -24 62.5t-70 23.5q-43 0 -74 -23.5t-37 -62.5h-51q10 59 55.5 94z" />
    <glyph glyph-name="uni0214" unicode="&#x214;" horiz-adv-x="792" 
d="M174.5 54q-66.5 60 -66.5 167q0 41 8 78l80 401h73l-80 -399q-8 -42 -8 -71q0 -84 48 -127t138 -43q103 0 164.5 58.5t86.5 182.5l80 399h72l-80 -404q-61 -302 -329 -302q-120 0 -186.5 60zM294 881h78l72 -124h-61zM457 881h77l72 -124h-60z" />
    <glyph glyph-name="uni0215" unicode="&#x215;" horiz-adv-x="673" 
d="M626 526l-105 -526h-68l17 84q-74 -89 -203 -89q-88 0 -137.5 45.5t-49.5 126.5q0 28 6 59l60 300h71l-60 -300q-5 -28 -5 -47q0 -58 33.5 -89t100.5 -31q84 0 139 47t74 137l56 283h71zM202 732h78l72 -124h-61zM365 732h77l72 -124h-60z" />
    <glyph glyph-name="uni0216" unicode="&#x216;" horiz-adv-x="792" 
d="M174.5 54q-66.5 60 -66.5 167q0 41 8 78l80 401h73l-80 -399q-8 -42 -8 -71q0 -84 48 -127t138 -43q103 0 164.5 58.5t86.5 182.5l80 399h72l-80 -404q-61 -302 -329 -302q-120 0 -186.5 60zM397.5 851q45.5 35 110.5 35q64 0 103.5 -35.5t35.5 -93.5h-49q2 39 -24 62.5
t-70 23.5q-43 0 -74 -23.5t-37 -62.5h-51q10 59 55.5 94z" />
    <glyph glyph-name="uni0217" unicode="&#x217;" horiz-adv-x="673" 
d="M626 526l-105 -526h-68l17 84q-74 -89 -203 -89q-88 0 -137.5 45.5t-49.5 126.5q0 28 6 59l60 300h71l-60 -300q-5 -28 -5 -47q0 -58 33.5 -89t100.5 -31q84 0 139 47t74 137l56 283h71zM305.5 702q45.5 35 110.5 35q64 0 103.5 -35.5t35.5 -93.5h-49q2 39 -24 62.5
t-70 23.5q-43 0 -74 -23.5t-37 -62.5h-51q10 59 55.5 94z" />
    <glyph glyph-name="Scommaaccent" unicode="&#x218;" horiz-adv-x="615" 
d="M118.5 19q-70.5 25 -106.5 64l36 58q35 -38 97 -61t128 -23q93 0 149.5 36.5t56.5 101.5q0 35 -21 57t-53 35.5t-87 29.5q-65 19 -105.5 36.5t-69 52t-28.5 89.5q0 65 35.5 112.5t99 73t145.5 25.5q63 0 120 -15.5t97 -44.5l-31 -60q-38 28 -87 42.5t-103 14.5
q-92 0 -148 -38t-56 -103q0 -36 22 -59t54.5 -36.5t87.5 -29.5q65 -19 105 -36.5t68 -50t28 -85.5q0 -66 -36.5 -113.5t-101 -72.5t-148.5 -25q-77 0 -147.5 25zM270.5 -114q11.5 -10 11.5 -26q0 -11 -4 -20.5t-14 -25.5l-43 -76h-38l37 83q-11 4 -17.5 12.5t-6.5 19.5
q0 19 11.5 31t31.5 12t31.5 -10z" />
    <glyph glyph-name="scommaaccent" unicode="&#x219;" horiz-adv-x="489" 
d="M79.5 13q-57.5 18 -88.5 46l34 56q30 -26 79 -42t103 -16q75 0 115.5 24.5t40.5 69.5q0 25 -16.5 40t-40.5 23t-70 18q-55 12 -89 24t-58 38t-24 72q0 75 62 119.5t166 44.5q51 0 99.5 -13.5t78.5 -35.5l-30 -57q-30 22 -70.5 33.5t-83.5 11.5q-72 0 -112 -26t-40 -70
q0 -26 17 -42t42.5 -24t69.5 -17q54 -12 87.5 -23.5t57.5 -37.5t24 -70q0 -77 -63.5 -120.5t-169.5 -43.5q-63 0 -120.5 18zM193.5 -114q11.5 -10 11.5 -26q0 -11 -4 -20.5t-14 -25.5l-43 -76h-38l37 83q-11 4 -17.5 12.5t-6.5 19.5q0 19 11.5 31t31.5 12t31.5 -10z" />
    <glyph glyph-name="uni021A" unicode="&#x21a;" horiz-adv-x="574" 
d="M325 636h-247l13 64h567l-14 -64h-246l-127 -636h-73zM237.5 -114q11.5 -10 11.5 -26q0 -11 -4 -20.5t-14 -25.5l-43 -76h-38l37 83q-11 4 -17.5 12.5t-6.5 19.5q0 19 11.5 31t31.5 12t31.5 -10z" />
    <glyph glyph-name="uni021B" unicode="&#x21b;" horiz-adv-x="406" 
d="M161 159q-4 -24 -4 -33q0 -70 76 -70q45 0 81 27l17 -54q-45 -34 -117 -34q-59 0 -93.5 32t-34.5 88q0 22 4 41l61 310h-93l11 60h94l23 115h71l-23 -115h160l-12 -60h-160zM199.5 -114q11.5 -10 11.5 -26q0 -11 -4 -20.5t-14 -25.5l-43 -76h-38l37 83q-11 4 -17.5 12.5
t-6.5 19.5q0 19 11.5 31t31.5 12t31.5 -10z" />
    <glyph glyph-name="uni021E" unicode="&#x21e;" horiz-adv-x="813" 
d="M786 700l-140 -700h-73l64 322h-438l-64 -322h-73l140 700h73l-62 -311h438l62 311h73zM693 881l-144 -124h-72l-114 124h64l90 -83l107 83h69z" />
    <glyph glyph-name="uni021F" unicode="&#x21f;" horiz-adv-x="677" 
d="M546.5 484.5q49.5 -45.5 49.5 -125.5q0 -28 -6 -60l-60 -299h-71l60 300q5 28 5 48q0 57 -34.5 87.5t-101.5 30.5q-85 0 -140 -46.5t-74 -137.5l-56 -282h-71l148 742h71l-59 -295q73 83 201 83q89 0 138.5 -45.5zM434 948l-144 -124h-72l-114 124h64l90 -83l107 83h69z
" />
    <glyph glyph-name="uni022A" unicode="&#x22a;" horiz-adv-x="839" 
d="M213 30.5q-73 36.5 -111 102t-38 152.5q0 115 52 211.5t148 153t222 56.5q102 0 175 -36.5t111.5 -102t38.5 -152.5q0 -115 -52.5 -211.5t-148.5 -153t-222 -56.5q-102 0 -175 36.5zM574 107.5q78 47.5 120.5 128t42.5 176.5q0 104 -67 166t-191 62q-101 0 -179 -47.5
t-120.5 -128t-42.5 -175.5q0 -105 67 -167t191 -62q101 0 179 47.5zM412.5 790.5q-11.5 10.5 -11.5 26.5q0 20 13 33t31 13q17 0 28.5 -11t11.5 -27q0 -20 -13 -32.5t-31 -12.5q-17 0 -28.5 10.5zM588.5 790.5q-11.5 10.5 -11.5 26.5q0 20 13 33t31 13q17 0 28.5 -11
t11.5 -27q0 -20 -13 -32.5t-31 -12.5q-17 0 -28.5 10.5zM404 958h309l-9 -45h-309z" />
    <glyph glyph-name="uni022B" unicode="&#x22b;" horiz-adv-x="627" 
d="M155 22.5q-54 27.5 -83.5 78t-29.5 117.5q0 89 39 160t108.5 111.5t156.5 40.5q110 0 174.5 -60t64.5 -162q0 -89 -39 -160.5t-108.5 -112t-156.5 -40.5q-72 0 -126 27.5zM403 89.5q52 31.5 81.5 88t29.5 126.5q0 77 -45.5 120.5t-127.5 43.5q-65 0 -117 -32t-81.5 -88.5
t-29.5 -126.5q0 -77 45.5 -120t127.5 -43q65 0 117 31.5zM274.5 641.5q-11.5 10.5 -11.5 26.5q0 20 13 33t31 13q17 0 28.5 -11t11.5 -27q0 -20 -13 -32.5t-31 -12.5q-17 0 -28.5 10.5zM450.5 641.5q-11.5 10.5 -11.5 26.5q0 20 13 33t31 13q17 0 28.5 -11t11.5 -27
q0 -20 -13 -32.5t-31 -12.5q-17 0 -28.5 10.5zM266 809h309l-9 -45h-309z" />
    <glyph glyph-name="uni022C" unicode="&#x22c;" horiz-adv-x="839" 
d="M213 30.5q-73 36.5 -111 102t-38 152.5q0 115 52 211.5t148 153t222 56.5q102 0 175 -36.5t111.5 -102t38.5 -152.5q0 -115 -52.5 -211.5t-148.5 -153t-222 -56.5q-102 0 -175 36.5zM574 107.5q78 47.5 120.5 128t42.5 176.5q0 104 -67 166t-191 62q-101 0 -179 -47.5
t-120.5 -128t-42.5 -175.5q0 -105 67 -167t191 -62q101 0 179 47.5zM552.5 773q-16.5 8 -35.5 23q-16 12 -26 17.5t-22 5.5q-23 0 -38 -13.5t-20 -36.5h-43q7 43 34.5 67.5t66.5 24.5q21 0 37.5 -8t35.5 -23q15 -12 26 -17.5t23 -5.5q23 0 38.5 13t20.5 36h42
q-8 -42 -34.5 -66.5t-66.5 -24.5q-22 0 -38.5 8zM404 958h309l-9 -45h-309z" />
    <glyph glyph-name="uni022D" unicode="&#x22d;" horiz-adv-x="627" 
d="M155 22.5q-54 27.5 -83.5 78t-29.5 117.5q0 89 39 160t108.5 111.5t156.5 40.5q110 0 174.5 -60t64.5 -162q0 -89 -39 -160.5t-108.5 -112t-156.5 -40.5q-72 0 -126 27.5zM403 89.5q52 31.5 81.5 88t29.5 126.5q0 77 -45.5 120.5t-127.5 43.5q-65 0 -117 -32t-81.5 -88.5
t-29.5 -126.5q0 -77 45.5 -120t127.5 -43q65 0 117 31.5zM414.5 624q-16.5 8 -35.5 23q-16 12 -26 17.5t-22 5.5q-23 0 -38 -13.5t-20 -36.5h-43q7 43 34.5 67.5t66.5 24.5q21 0 37.5 -8t35.5 -23q15 -12 26 -17.5t23 -5.5q23 0 38.5 13t20.5 36h42q-8 -42 -34.5 -66.5
t-66.5 -24.5q-22 0 -38.5 8zM266 809h309l-9 -45h-309z" />
    <glyph glyph-name="uni0230" unicode="&#x230;" horiz-adv-x="839" 
d="M213 30.5q-73 36.5 -111 102t-38 152.5q0 115 52 211.5t148 153t222 56.5q102 0 175 -36.5t111.5 -102t38.5 -152.5q0 -115 -52.5 -211.5t-148.5 -153t-222 -56.5q-102 0 -175 36.5zM574 107.5q78 47.5 120.5 128t42.5 176.5q0 104 -67 166t-191 62q-101 0 -179 -47.5
t-120.5 -128t-42.5 -175.5q0 -105 67 -167t191 -62q101 0 179 47.5zM500.5 791q-11.5 11 -11.5 29q0 19 13 32.5t32 13.5q16 0 28.5 -11.5t12.5 -29.5q0 -19 -13.5 -32t-32.5 -13q-17 0 -28.5 11zM405 961h309l-9 -45h-309z" />
    <glyph glyph-name="uni0231" unicode="&#x231;" horiz-adv-x="627" 
d="M155 22.5q-54 27.5 -83.5 78t-29.5 117.5q0 89 39 160t108.5 111.5t156.5 40.5q110 0 174.5 -60t64.5 -162q0 -89 -39 -160.5t-108.5 -112t-156.5 -40.5q-72 0 -126 27.5zM403 89.5q52 31.5 81.5 88t29.5 126.5q0 77 -45.5 120.5t-127.5 43.5q-65 0 -117 -32t-81.5 -88.5
t-29.5 -126.5q0 -77 45.5 -120t127.5 -43q65 0 117 31.5zM362.5 642q-11.5 11 -11.5 29q0 19 13 32.5t32 13.5q16 0 28.5 -11.5t12.5 -29.5q0 -19 -13.5 -32t-32.5 -13q-17 0 -28.5 11zM267 812h309l-9 -45h-309z" />
    <glyph glyph-name="uni0232" unicode="&#x232;" horiz-adv-x="635" 
d="M348 236l-47 -236h-73l48 241l-188 459h74l162 -394l318 394h79zM279 842h309l-10 -47h-308z" />
    <glyph glyph-name="uni0233" unicode="&#x233;" horiz-adv-x="542" 
d="M594 526l-384 -594q-48 -74 -90 -102.5t-100 -28.5q-38 0 -72 12.5t-53 34.5l38 52q36 -38 93 -38q35 0 63 19t58 66l37 56l-131 523h72l109 -448l287 448h73zM188 693h309l-10 -47h-308z" />
    <glyph glyph-name="uni0237" unicode="&#x237;" horiz-adv-x="274" 
d="M-125.5 -190.5q-28.5 8.5 -48.5 24.5l33 55q30 -27 79 -27q43 0 69 24t36 76l113 564h71l-113 -566q-32 -159 -177 -159q-34 0 -62.5 8.5z" />
    <glyph glyph-name="uni0259" unicode="&#x259;" horiz-adv-x="604" 
d="M491 282q1 7 1 21q0 80 -45.5 122t-135.5 42q-52 0 -97.5 -17.5t-74.5 -48.5l-32 51q37 37 92.5 57.5t117.5 20.5q114 0 179.5 -60t65.5 -164q0 -88 -37.5 -159t-104 -111.5t-149.5 -40.5q-105 0 -167 59.5t-62 163.5q0 29 7 64h442zM408 102q56 47 76 127h-375
q-1 -7 -1 -19q0 -74 45 -114.5t120 -40.5q79 0 135 47z" />
    <glyph glyph-name="uni0292" unicode="&#x292;" horiz-adv-x="515" 
d="M496 475l-257 -260q95 -6 145 -52t50 -126q0 -73 -40 -127t-106.5 -82t-143.5 -28q-68 0 -130.5 23t-107.5 70l37 57q38 -42 92.5 -62.5t113.5 -20.5q57 0 105 19t77 57.5t29 92.5q0 60 -40.5 93t-125.5 33h-47l8 50l243 249h-355l13 65h449z" />
    <glyph glyph-name="uni02B9" unicode="&#x2b9;" horiz-adv-x="202" 
d="M157 700h63l-58 -264h-53z" />
    <glyph glyph-name="uni02BA" unicode="&#x2ba;" horiz-adv-x="373" 
d="M328 700h64l-58 -264h-53zM157 700h64l-58 -264h-53z" />
    <glyph glyph-name="uni02BB" unicode="&#x2bb;" horiz-adv-x="266" 
d="M231.5 675.5q7.5 -12.5 7.5 -27.5q0 -24 -16.5 -40.5t-39.5 -16.5q-22 0 -36.5 14.5t-14.5 36.5q0 13 4 24t14 29l77 145h48l-64 -146q13 -6 20.5 -18.5z" />
    <glyph glyph-name="uni02BC" unicode="&#x2bc;" horiz-adv-x="170" 
d="M149 700h51l-65 -260h-42z" />
    <glyph glyph-name="uni02BE" unicode="&#x2be;" horiz-adv-x="600" 
d="M387 633q29 0 48 20t19 49q0 24 -14.5 42t-38.5 23l6 35q38 -7 61.5 -35t23.5 -65q0 -44 -30 -74.5t-75 -30.5q-13 0 -20 1l7 36q4 -1 13 -1z" />
    <glyph glyph-name="uni02BF" unicode="&#x2bf;" horiz-adv-x="600" 
d="M387 766q-29 0 -48 -20t-19 -49q0 -25 14.5 -43t38.5 -22l-6 -35q-38 7 -61.5 35t-23.5 65q0 43 30.5 74t74.5 31q12 0 20 -2l-7 -35q-4 1 -13 1z" />
    <glyph glyph-name="circumflex" unicode="&#x2c6;" horiz-adv-x="600" 
d="M470 607l-90 83l-108 -83h-68l143 124h72l115 -124h-64z" />
    <glyph glyph-name="caron" unicode="&#x2c7;" horiz-adv-x="600" 
d="M556 731l-144 -124h-72l-114 124h64l90 -83l107 83h69z" />
    <glyph glyph-name="uni02C8" unicode="&#x2c8;" horiz-adv-x="166" 
d="M145 700h51l-37 -187h-51z" />
    <glyph glyph-name="uni02C9" unicode="&#x2c9;" horiz-adv-x="600" 
d="M232 692h309l-10 -47h-308z" />
    <glyph glyph-name="uni02CA" unicode="&#x2ca;" horiz-adv-x="600" 
d="M453 731h97l-175 -124h-74z" />
    <glyph glyph-name="uni02CB" unicode="&#x2cb;" horiz-adv-x="600" 
d="M226 731h94l114 -124h-71z" />
    <glyph glyph-name="uni02CC" unicode="&#x2cc;" horiz-adv-x="167" 
d="M-1 -30h52l-38 -187h-51z" />
    <glyph glyph-name="breve" unicode="&#x2d8;" horiz-adv-x="600" 
d="M275.5 637.5q-39.5 35.5 -35.5 93.5h49q-2 -39 23.5 -62t70.5 -23q43 0 73.5 23t36.5 62h52q-10 -59 -55.5 -94t-110.5 -35q-64 0 -103.5 35.5z" />
    <glyph glyph-name="dotaccent" unicode="&#x2d9;" horiz-adv-x="600" 
d="M348 642.5q-13 12.5 -13 30.5q0 23 14.5 38t36.5 15q19 0 32 -12t13 -31q0 -23 -15 -38t-36 -15q-19 0 -32 12.5z" />
    <glyph glyph-name="ring" unicode="&#x2da;" horiz-adv-x="600" 
d="M312.5 625q-29.5 30 -29.5 72q0 43 30 74t74 31t74 -31t30 -74q0 -42 -30 -72t-74 -30q-45 0 -74.5 30zM436 649q19 19 19 48t-19.5 49.5t-48.5 20.5t-48.5 -20t-19.5 -50q0 -29 19 -48t49 -19t49 19z" />
    <glyph glyph-name="ogonek" unicode="&#x2db;" horiz-adv-x="600" 
d="M73.5 -198q-26.5 22 -26.5 60q0 100 171 167l30 -29q-147 -58 -147 -130q0 -22 14 -34t39 -12q38 0 68 19l11 -39q-40 -24 -89 -24q-44 0 -70.5 22z" />
    <glyph glyph-name="tilde" unicode="&#x2dc;" horiz-adv-x="600" 
d="M407 623q-17 10 -37 28q-17 15 -29 22.5t-26 7.5q-22 0 -37 -17.5t-20 -46.5h-43q8 52 35 81t66 29q22 0 38.5 -9.5t38.5 -28.5q16 -15 27.5 -22.5t25.5 -7.5q22 0 37.5 17t20.5 45h43q-8 -51 -34.5 -79.5t-66.5 -28.5q-22 0 -39 10z" />
    <glyph glyph-name="hungarumlaut" unicode="&#x2dd;" horiz-adv-x="600" 
d="M364 731h82l-126 -124h-66zM527 731h82l-127 -124h-64z" />
    <glyph glyph-name="gravecomb" unicode="&#x300;" 
d="M-374 731h94l114 -124h-71z" />
    <glyph glyph-name="acutecomb" unicode="&#x301;" 
d="M-147 731h97l-175 -124h-74z" />
    <glyph glyph-name="uni0302" unicode="&#x302;" 
d="M-130 607l-90 83l-108 -83h-68l143 124h72l115 -124h-64z" />
    <glyph glyph-name="tildecomb" unicode="&#x303;" 
d="M-193 623q-17 10 -37 28q-17 15 -29 22.5t-26 7.5q-22 0 -37 -17.5t-20 -46.5h-43q8 52 35 81t66 29q22 0 38.5 -9.5t38.5 -28.5q16 -15 27.5 -22.5t25.5 -7.5q22 0 37.5 17t20.5 45h43q-8 -51 -34.5 -79.5t-66.5 -28.5q-22 0 -39 10z" />
    <glyph glyph-name="uni0304" unicode="&#x304;" 
d="M-369 692h309l-10 -47h-308z" />
    <glyph glyph-name="uni0306" unicode="&#x306;" 
d="M-324.5 637.5q-39.5 35.5 -35.5 93.5h49q-2 -39 23.5 -62t70.5 -23q43 0 73.5 23t36.5 62h52q-10 -59 -55.5 -94t-110.5 -35q-64 0 -103.5 35.5z" />
    <glyph glyph-name="uni0307" unicode="&#x307;" 
d="M-252 642.5q-13 12.5 -13 30.5q0 23 14.5 38t36.5 15q19 0 32 -12t13 -31q0 -23 -15 -38t-36 -15q-19 0 -32 12.5z" />
    <glyph glyph-name="uni0308" unicode="&#x308;" 
d="M-339 641q-12 11 -12 27q0 21 13.5 34.5t31.5 13.5t29.5 -11t11.5 -29q0 -20 -13.5 -33t-31.5 -13q-17 0 -29 11zM-160.5 641q-11.5 11 -11.5 27q0 21 13 34.5t32 13.5q17 0 29 -11t12 -29q0 -20 -13.5 -33t-32.5 -13q-17 0 -28.5 11z" />
    <glyph glyph-name="hookabovecomb" unicode="&#x309;" 
d="M-233 631q67 29 67 77q0 19 -13.5 31t-36.5 12q-30 0 -61 -19l-16 36q18 12 41 18.5t46 6.5q40 0 63.5 -20.5t23.5 -55.5q0 -77 -94 -119z" />
    <glyph glyph-name="uni030A" unicode="&#x30a;" 
d="M-287.5 625q-29.5 30 -29.5 72q0 43 30 74t74 31t74 -31t30 -74q0 -42 -30 -72t-74 -30q-45 0 -74.5 30zM-164 649q19 19 19 48t-19.5 49.5t-48.5 20.5t-48.5 -20t-19.5 -50q0 -29 19 -48t49 -19t49 19z" />
    <glyph glyph-name="uni030B" unicode="&#x30b;" 
d="M-236 731h82l-126 -124h-66zM-73 731h82l-127 -124h-64z" />
    <glyph glyph-name="uni030C" unicode="&#x30c;" 
d="M-44 731l-144 -124h-72l-114 124h64l90 -83l107 83h69z" />
    <glyph glyph-name="uni030F" unicode="&#x30f;" 
d="M-432 731h78l72 -124h-61zM-269 731h77l72 -124h-60z" />
    <glyph glyph-name="uni0311" unicode="&#x311;" 
d="M-328.5 701q45.5 35 110.5 35q64 0 103.5 -35.5t35.5 -93.5h-49q2 39 -24 62.5t-70 23.5q-43 0 -74 -23.5t-37 -62.5h-51q10 59 55.5 94z" />
    <glyph glyph-name="uni0312" unicode="&#x312;" 
d="M-184 665.5q7 -8.5 7 -20.5q0 -19 -13 -31t-35 -12q-21 0 -33 10.5t-12 26.5q0 11 3.5 20.5t14.5 25.5l55 96h42l-48 -104q12 -3 19 -11.5z" />
    <glyph glyph-name="uni031B" unicode="&#x31b;" 
d="M-263 526h15q33 0 49.5 18.5t16.5 48.5q0 36 -20 64l47 18q26 -38 26 -84q0 -54 -31 -87t-88 -33h-15v55z" />
    <glyph glyph-name="dotbelowcomb" unicode="&#x323;" 
d="M-414.5 -179.5q-10.5 10.5 -10.5 27.5q0 20 14.5 34t34.5 14q16 0 26.5 -10.5t10.5 -26.5q0 -21 -14 -35t-35 -14q-16 0 -26.5 10.5z" />
    <glyph glyph-name="uni0324" unicode="&#x324;" 
d="M-495 -176q-11 11 -11 27q0 19 13 32t31 13q16 0 28 -11t12 -26q0 -21 -13 -33.5t-32 -12.5q-17 0 -28 11zM-329.5 -176q-11.5 11 -11.5 27q0 19 13.5 32t31.5 13q16 0 27.5 -10.5t11.5 -26.5q0 -21 -13 -33.5t-31 -12.5q-17 0 -28.5 11z" />
    <glyph glyph-name="uni0326" unicode="&#x326;" 
d="M-349.5 -114q11.5 -10 11.5 -26q0 -11 -4 -20.5t-14 -25.5l-43 -76h-38l37 83q-11 4 -17.5 12.5t-6.5 19.5q0 19 11.5 31t31.5 12t31.5 -10z" />
    <glyph glyph-name="uni0327" unicode="&#x327;" 
d="M-495 -197l22 38q26 -19 67 -19q32 0 50 14.5t18 38.5q0 19 -14 29.5t-41 10.5h-22l42 91h43l-26 -57q34 -4 52 -23t18 -48q0 -44 -34.5 -71t-90.5 -27q-52 0 -84 23z" />
    <glyph glyph-name="uni0328" unicode="&#x328;" 
d="M-526.5 -198q-26.5 22 -26.5 60q0 100 171 167l30 -29q-147 -58 -147 -130q0 -22 14 -34t39 -12q38 0 68 19l11 -39q-40 -24 -89 -24q-44 0 -70.5 22z" />
    <glyph glyph-name="uni032E" unicode="&#x32e;" 
d="M-486.5 -171q-39.5 34 -35.5 87h49q-2 -37 23 -58.5t70 -21.5q44 0 74.5 21t36.5 59h51q-9 -57 -54.5 -89t-109.5 -32q-65 0 -104.5 34z" />
    <glyph glyph-name="uni0331" unicode="&#x331;" 
d="M-532 -122h309l-9 -47h-308z" />
    <glyph glyph-name="uni0335" unicode="&#x335;" 
d="M-455 465h391l-10 -52h-391z" />
    <glyph glyph-name="uni0336" unicode="&#x336;" 
d="M-783 469h798l-11 -60h-797z" />
    <glyph glyph-name="uni0337" unicode="&#x337;" 
d="M-331 315l279 183l28 -46l-278 -182z" />
    <glyph glyph-name="uni0338" unicode="&#x338;" 
d="M-47 595h51l-573 -665h-51z" />
    <glyph glyph-name="uni0394" unicode="&#x394;" horiz-adv-x="717" 
d="M663 0h-713l460 700h72zM71 64h502l-140 561z" />
    <glyph glyph-name="uni03A9" unicode="&#x3a9;" horiz-adv-x="902" 
d="M-30 65h238q-59 50 -84.5 110t-25.5 143q0 115 53 203t147 136.5t214 48.5q98 0 173 -34t117 -98.5t42 -154.5q0 -125 -62 -215.5t-152 -138.5h222l-12 -65h-339l12 60q111 43 183.5 134t72.5 220q0 109 -70 167.5t-192 58.5q-101 0 -177.5 -40.5t-118 -114.5t-41.5 -171
q0 -88 33 -147.5t106 -106.5l-12 -60h-339z" />
    <glyph glyph-name="uni03BC" unicode="&#x3bc;" horiz-adv-x="678" 
d="M631 526l-104 -526h-68l17 84q-37 -45 -86 -67t-104 -22q-113 0 -155 70l-52 -259h-71l144 720h71l-60 -300q-5 -28 -5 -48q0 -57 34 -88t100 -31q84 0 138.5 47t73.5 137l56 283h71z" />
    <glyph glyph-name="pi" unicode="&#x3c0;" horiz-adv-x="722" 
d="M753 466h-158l-93 -466h-71l93 466h-180l-147 -466h-71l147 466h-51q-70 0 -107.5 -33t-37.5 -88q0 -33 16 -63l-58 -18q-21 32 -21 79q0 82 55.5 132.5t161.5 50.5h534z" />
    <glyph glyph-name="uni0400" unicode="&#x400;" horiz-adv-x="659" 
d="M266 636l-50 -249h363l-12 -63h-363l-52 -260h421l-13 -64h-494l140 700h480l-13 -64h-407zM315 881h94l114 -124h-71z" />
    <glyph glyph-name="uni0401" unicode="&#x401;" horiz-adv-x="659" 
d="M266 636l-50 -249h363l-12 -63h-363l-52 -260h421l-13 -64h-494l140 700h480l-13 -64h-407zM350 791q-12 11 -12 27q0 21 13.5 34.5t31.5 13.5t29.5 -11t11.5 -29q0 -20 -13.5 -33t-31.5 -13q-17 0 -29 11zM528.5 791q-11.5 11 -11.5 27q0 21 13 34.5t32 13.5
q17 0 29 -11t12 -29q0 -20 -13.5 -33t-32.5 -13q-17 0 -28.5 11z" />
    <glyph glyph-name="uni0402" unicode="&#x402;" horiz-adv-x="825" 
d="M564 422q99 0 156 -45t57 -128q0 -73 -36.5 -131t-98.5 -90.5t-137 -32.5q-38 0 -84 11l17 61q32 -9 63 -9q55 0 101.5 24.5t74 67t27.5 95.5q0 56 -39 85.5t-109 29.5q-92 0 -215 -49l-62 -311h-73l126 636h-245l13 64h585l-13 -64h-267l-51 -256q117 42 210 42z" />
    <glyph glyph-name="uni0403" unicode="&#x403;" horiz-adv-x="575" 
d="M637 636h-373l-126 -636h-72l140 700h445zM516 881h97l-175 -124h-74z" />
    <glyph glyph-name="uni0404" unicode="&#x404;" horiz-adv-x="709" 
d="M205.5 31.5q-64.5 37.5 -100 103.5t-35.5 150q0 115 59 212t158 153t211 56q82 0 145 -26t99 -77l-56 -47q-67 84 -198 84q-77 0 -147 -34.5t-119 -95t-67 -136.5h364l-11 -61h-362v-16q0 -68 28 -122t79.5 -84.5t118.5 -30.5q133 0 231 84l38 -47q-56 -50 -130 -76.5
t-156 -26.5q-85 0 -149.5 37.5z" />
    <glyph glyph-name="uni0405" unicode="&#x405;" horiz-adv-x="626" 
d="M125.5 19q-70.5 25 -106.5 64l36 58q35 -38 97 -61t128 -23q93 0 149.5 36.5t56.5 101.5q0 35 -21 57t-53 35.5t-87 29.5q-65 19 -105.5 36.5t-69 52t-28.5 89.5q0 65 35.5 112.5t99 73t145.5 25.5q63 0 120 -15.5t97 -44.5l-31 -60q-38 28 -87 42.5t-103 14.5
q-92 0 -148 -38t-56 -103q0 -36 22 -59t54.5 -36.5t87.5 -29.5q65 -19 105 -36.5t68 -50t28 -85.5q0 -66 -36.5 -113.5t-101 -72.5t-148.5 -25q-77 0 -147.5 25z" />
    <glyph glyph-name="uni0406" unicode="&#x406;" horiz-adv-x="302" 
d="M202 700h73l-140 -700h-73z" />
    <glyph glyph-name="uni0407" unicode="&#x407;" horiz-adv-x="302" 
d="M202 700h73l-140 -700h-73zM142 791q-12 11 -12 27q0 21 13.5 34.5t31.5 13.5t29.5 -11t11.5 -29q0 -20 -13.5 -33t-31.5 -13q-17 0 -29 11zM320.5 791q-11.5 11 -11.5 27q0 21 13 34.5t32 13.5q17 0 29 -11t12 -29q0 -20 -13.5 -33t-32.5 -13q-17 0 -28.5 11z" />
    <glyph glyph-name="uni0408" unicode="&#x408;" horiz-adv-x="528" 
d="M62.5 21q-50.5 27 -73.5 74l52 47q20 -40 56 -62t85 -22q63 0 100.5 35t53.5 116l85 427h-255l13 64h328l-99 -491q-23 -115 -78.5 -165t-149.5 -50q-67 0 -117.5 27z" />
    <glyph glyph-name="uni0409" unicode="&#x409;" horiz-adv-x="1189" 
d="M754 700l-140 -700h-72l127 636h-338l-55 -234q-37 -153 -73 -241.5t-81 -128t-107 -39.5q-27 0 -56 7l18 66q16 -4 31 -4q45 0 78.5 33t63 106.5t59.5 199.5l71 299h474zM1142 265q0 -80 -39 -140t-111.5 -92.5t-170.5 -32.5h-279l140 700h72l-50 -250h215
q223 0 223 -185zM1002 112.5q64 53.5 64 145.5q0 69 -39.5 100.5t-125.5 31.5h-209l-66 -331h202q110 0 174 53.5z" />
    <glyph glyph-name="uni040A" unicode="&#x40a;" horiz-adv-x="1186" 
d="M1086 372q53 -43 53 -121q0 -75 -37 -132t-105 -88t-158 -31h-278l70 348h-423l-70 -348h-72l140 700h72l-57 -288h422l58 288h73l-56 -285h217q98 0 151 -43zM1004.5 107.5q58.5 48.5 58.5 129.5q0 57 -41 87.5t-117 30.5h-200l-29 -147l-30 -149h200q100 0 158.5 48.5z
" />
    <glyph glyph-name="uni040B" unicode="&#x40b;" horiz-adv-x="835" 
d="M719.5 376.5q54.5 -43.5 54.5 -126.5q0 -25 -6 -57l-39 -193h-72l38 190q4 20 4 43q0 60 -38 90.5t-110 30.5q-91 0 -214 -52l-60 -302h-72l126 636h-245l13 64h583l-13 -64h-266l-52 -261q120 45 217 45t151.5 -43.5z" />
    <glyph glyph-name="uni040C" unicode="&#x40c;" horiz-adv-x="702" 
d="M425 358l204 -358h-79l-185 322h-162l-64 -322h-73l140 700h73l-63 -314h156l300 314h84zM536 881h97l-175 -124h-74z" />
    <glyph glyph-name="uni040D" unicode="&#x40d;" horiz-adv-x="824" 
d="M206 700h72l-116 -580l564 580h67l-140 -700h-72l117 579l-565 -579h-67zM366 881h94l114 -124h-71z" />
    <glyph glyph-name="uni040E" unicode="&#x40e;" horiz-adv-x="681" 
d="M756 700l-435 -591q-89 -122 -199 -122q-44 0 -86 20l27 58q33 -13 60 -13q73 0 133 78l30 36l-177 534h77l150 -472l344 472h76zM328 779.5q-38 28.5 -38 78.5q0 7 2 21h50q-1 -4 -1 -12q0 -34 25.5 -54t68.5 -20q47 0 80 23t43 63h51q-12 -61 -58.5 -94.5t-117.5 -33.5
q-67 0 -105 28.5z" />
    <glyph glyph-name="uni040F" unicode="&#x40f;" horiz-adv-x="806" 
d="M635 0h-251l-32 -164h-69l33 164h-250l140 700h72l-126 -636h423l127 636h73z" />
    <glyph glyph-name="uni0410" unicode="&#x410;" horiz-adv-x="744" 
d="M555 187h-391l-121 -187h-80l460 700h73l180 -700h-74zM541 247l-95 378l-244 -378h339z" />
    <glyph glyph-name="uni0411" unicode="&#x411;" horiz-adv-x="729" 
d="M206 700h512l-13 -63h-440l-45 -229h229q108 0 163 -44t55 -131q0 -110 -83.5 -171.5t-231.5 -61.5h-286zM362 59q108 0 168.5 44.5t60.5 124.5q0 63 -41 92t-130 29h-212l-58 -290h212z" />
    <glyph glyph-name="uni0412" unicode="&#x412;" horiz-adv-x="754" 
d="M657 310q29 -36 29 -93q0 -105 -79.5 -161t-219.5 -56h-325l140 700h299q102 0 158.5 -38t56.5 -111q0 -71 -39 -120.5t-103 -69.5q54 -15 83 -51zM263 639l-51 -254h223q93 0 149 39.5t56 113.5q0 51 -39.5 76t-113.5 25h-224zM556 101q57 40 57 115q0 58 -40.5 83
t-122.5 25h-250l-52 -263h245q106 0 163 40z" />
    <glyph glyph-name="uni0413" unicode="&#x413;" horiz-adv-x="575" 
d="M637 636h-373l-126 -636h-72l140 700h445z" />
    <glyph glyph-name="uni0414" unicode="&#x414;" horiz-adv-x="793" 
d="M616 64h106l-45 -221h-69l32 157h-611l-33 -157h-68l45 221h31q70 4 120.5 112.5t94.5 298.5l52 225h472zM206 201.5q-39 -102.5 -91 -137.5h428l114 572h-335l-40 -173q-37 -159 -76 -261.5z" />
    <glyph glyph-name="uni0415" unicode="&#x415;" horiz-adv-x="659" 
d="M266 636l-50 -249h363l-12 -63h-363l-52 -260h421l-13 -64h-494l140 700h480l-13 -64h-407z" />
    <glyph glyph-name="uni0416" unicode="&#x416;" horiz-adv-x="1011" 
d="M766 359l168 -359h-84l-151 321h-145l-64 -321h-72l64 321h-145l-278 -321h-89l315 363l-154 337h78l139 -314h147l63 314h72l-63 -314h145l264 314h82z" />
    <glyph glyph-name="uni0417" unicode="&#x417;" horiz-adv-x="636" 
d="M528.5 310q30.5 -38 30.5 -92q0 -66 -44.5 -118t-117.5 -80.5t-153 -28.5q-71 0 -135.5 23.5t-110.5 69.5l38 53q38 -40 93.5 -60t116.5 -20q62 0 117 20.5t89 58.5t34 88q0 53 -40.5 81t-117.5 28h-152l12 60h149q82 0 131 37t49 97q0 57 -45 87.5t-118 30.5
q-49 0 -103 -14.5t-106 -43.5l-13 61q118 61 232 61q100 0 165 -45.5t65 -124.5q0 -62 -41 -108.5t-111 -65.5q56 -17 86.5 -55z" />
    <glyph glyph-name="uni0418" unicode="&#x418;" horiz-adv-x="824" 
d="M206 700h72l-116 -580l564 580h67l-140 -700h-72l117 579l-565 -579h-67z" />
    <glyph glyph-name="uni0419" unicode="&#x419;" horiz-adv-x="824" 
d="M206 700h72l-116 -580l564 580h67l-140 -700h-72l117 579l-565 -579h-67zM404 779.5q-38 28.5 -38 78.5q0 7 2 21h50q-1 -4 -1 -12q0 -34 25.5 -54t68.5 -20q47 0 80 23t43 63h51q-12 -61 -58.5 -94.5t-117.5 -33.5q-67 0 -105 28.5z" />
    <glyph glyph-name="uni041A" unicode="&#x41a;" horiz-adv-x="702" 
d="M425 358l204 -358h-79l-185 322h-162l-64 -322h-73l140 700h73l-63 -314h156l300 314h84z" />
    <glyph glyph-name="uni041B" unicode="&#x41b;" horiz-adv-x="785" 
d="M754 700l-140 -700h-72l127 636h-338l-55 -234q-37 -153 -73 -241.5t-81 -128t-107 -39.5q-27 0 -56 7l18 66q16 -4 31 -4q45 0 78.5 33t63 106.5t59.5 199.5l71 299h474z" />
    <glyph glyph-name="uni041C" unicode="&#x41c;" horiz-adv-x="963" 
d="M933 700l-140 -700h-71l111 555l-362 -466h-35l-187 475l-112 -564h-71l140 700h60l202 -520l400 520h65z" />
    <glyph glyph-name="uni041D" unicode="&#x41d;" horiz-adv-x="821" 
d="M790 700l-140 -700h-73l64 322h-438l-64 -322h-73l140 700h73l-62 -311h438l62 311h73z" />
    <glyph glyph-name="uni041E" unicode="&#x41e;" horiz-adv-x="860" 
d="M223 30.5q-73 36.5 -111 102t-38 152.5q0 115 52 211.5t148 153t222 56.5q102 0 175 -36.5t111.5 -102t38.5 -152.5q0 -115 -52.5 -211.5t-148.5 -153t-222 -56.5q-102 0 -175 36.5zM584 107.5q78 47.5 120.5 128t42.5 176.5q0 104 -67 166t-191 62q-101 0 -179 -47.5
t-120.5 -128t-42.5 -175.5q0 -105 67 -167t191 -62q101 0 179 47.5z" />
    <glyph glyph-name="uni041F" unicode="&#x41f;" horiz-adv-x="825" 
d="M794 700l-140 -700h-72l126 636h-443l-127 -636h-72l140 700h588z" />
    <glyph glyph-name="uni0420" unicode="&#x420;" horiz-adv-x="715" 
d="M639 648q66 -52 66 -146q0 -134 -86.5 -207.5t-238.5 -73.5h-198l-45 -221h-73l140 700h251q118 0 184 -52zM566 339q65 53 65 156q0 69 -47 105t-135 36h-184l-71 -350h187q120 0 185 53z" />
    <glyph glyph-name="uni0421" unicode="&#x421;" horiz-adv-x="734" 
d="M225 30.5q-74 36.5 -112.5 102t-38.5 152.5q0 116 52.5 212t149.5 152.5t224 56.5q84 0 149 -26.5t100 -75.5l-52 -46q-67 82 -203 82q-103 0 -182 -47.5t-122 -127.5t-43 -176q0 -105 67.5 -167t192.5 -62q137 0 222 83l43 -49q-46 -48 -117 -74t-154 -26
q-102 0 -176 36.5z" />
    <glyph glyph-name="uni0422" unicode="&#x422;" horiz-adv-x="588" 
d="M651 636h-248l-126 -636h-72l126 636h-245l13 64h565z" />
    <glyph glyph-name="uni0423" unicode="&#x423;" horiz-adv-x="681" 
d="M756 700l-435 -591q-89 -122 -199 -122q-44 0 -86 20l27 58q33 -13 60 -13q73 0 133 78l30 36l-177 534h77l150 -472l344 472h76z" />
    <glyph glyph-name="uni0424" unicode="&#x424;" horiz-adv-x="921" 
d="M838 217q-54 -78 -154 -122t-233 -47l-14 -72h-68l14 73q-153 5 -236.5 71t-83.5 181q0 103 53.5 181.5t153.5 123.5t234 48l14 70h69l-14 -71q152 -6 235.5 -72t83.5 -182q0 -104 -54 -182zM654.5 147.5q80.5 35.5 123 98t42.5 146.5q0 94 -66.5 145t-192.5 56l-98 -485
q111 4 191.5 39.5zM202 164q66 -52 193 -56l97 485q-111 -4 -191 -39.5t-122.5 -98t-42.5 -145.5q0 -94 66 -146z" />
    <glyph glyph-name="uni0425" unicode="&#x425;" horiz-adv-x="649" 
d="M212 700l142 -277l255 277h88l-306 -337l183 -363h-84l-156 301l-278 -301h-87l331 360l-171 340h83z" />
    <glyph glyph-name="uni0426" unicode="&#x426;" horiz-adv-x="827" 
d="M648 64h111l-46 -228h-69l32 164h-610l140 700h72l-126 -636h423l127 636h73z" />
    <glyph glyph-name="uni0427" unicode="&#x427;" horiz-adv-x="730" 
d="M699 700l-140 -700h-72l58 288q-122 -47 -225 -47q-108 0 -166.5 46t-58.5 130q0 27 6 55l45 228h73l-45 -226q-5 -25 -5 -43q0 -61 41.5 -93t119.5 -32q107 0 229 52l68 342h72z" />
    <glyph glyph-name="uni0428" unicode="&#x428;" horiz-adv-x="1094" 
d="M1063 700l-140 -700h-857l140 700h72l-126 -636h320l127 636h72l-126 -636h320l126 636h72z" />
    <glyph glyph-name="uni0429" unicode="&#x429;" horiz-adv-x="1114" 
d="M1063 700l-140 -700h-857l140 700h72l-126 -636h320l127 636h72l-126 -636h320l126 636h72zM1045 64l-44 -221h-69l31 157h-113l14 64h181z" />
    <glyph glyph-name="uni042A" unicode="&#x42a;" horiz-adv-x="822" 
d="M720.5 406q55.5 -44 55.5 -129q0 -131 -84.5 -204t-238.5 -73h-277l127 636h-217l13 64h290l-50 -250h220q106 0 161.5 -44zM640 112.5q61 53.5 61 151.5q0 126 -171 126h-203l-66 -331h203q115 0 176 53.5z" />
    <glyph glyph-name="uni042B" unicode="&#x42b;" horiz-adv-x="994" 
d="M666 265q0 -80 -39 -140t-111.5 -92.5t-170.5 -32.5h-279l140 700h72l-50 -250h215q223 0 223 -185zM526 112.5q64 53.5 64 145.5q0 69 -39.5 100.5t-125.5 31.5h-209l-66 -331h202q110 0 174 53.5zM893 700h73l-140 -700h-73z" />
    <glyph glyph-name="uni042C" unicode="&#x42c;" horiz-adv-x="713" 
d="M666 265q0 -80 -39 -140t-111.5 -92.5t-170.5 -32.5h-279l140 700h72l-50 -250h215q223 0 223 -185zM526 112.5q64 53.5 64 145.5q0 69 -39.5 100.5t-125.5 31.5h-209l-66 -331h202q110 0 174 53.5z" />
    <glyph glyph-name="uni042D" unicode="&#x42d;" horiz-adv-x="708" 
d="M537.5 668.5q64.5 -37.5 100 -103.5t35.5 -150q0 -115 -59 -212t-158 -153t-211 -56q-82 0 -145 26t-99 77l56 47q67 -84 198 -84q77 0 147 34.5t119 95t67 136.5h-364l11 61h362v16q0 68 -28 122t-79.5 84.5t-118.5 30.5q-133 0 -231 -84l-38 47q56 50 130 76.5
t156 26.5q85 0 149.5 -37.5z" />
    <glyph glyph-name="uni042E" unicode="&#x42e;" horiz-adv-x="1095" 
d="M915 670q68 -38 105.5 -106t37.5 -156q0 -110 -57 -206t-153 -153t-207 -57q-88 0 -155.5 37.5t-105 105t-37.5 155.5q0 21 1 32h-141l-65 -322h-72l140 700h72l-62 -311h139q23 89 82.5 162t144 115t177.5 42q88 0 156 -38zM812.5 108.5q77.5 47.5 124 127t46.5 169.5
q0 69 -28.5 122.5t-80.5 82.5t-120 29q-88 0 -165.5 -47.5t-124 -127t-46.5 -169.5q0 -70 28.5 -123t80 -82t119.5 -29q89 0 166.5 47.5z" />
    <glyph glyph-name="uni042F" unicode="&#x42f;" horiz-adv-x="734" 
d="M703 700l-140 -700h-72l42 212h-208q-13 0 -35 2l-190 -214h-84l206 228q-59 21 -90 68t-31 116q0 87 41 152t116 100.5t173 35.5h272zM218.5 312.5q42.5 -37.5 123.5 -37.5h204l72 361h-195q-117 0 -182 -57.5t-65 -156.5q0 -72 42.5 -109.5z" />
    <glyph glyph-name="uni0430" unicode="&#x430;" horiz-adv-x="689" 
d="M641 526l-105 -526h-68l17 83q-38 -42 -90 -65t-115 -23q-67 0 -119 27t-81 77.5t-29 118.5q0 89 38.5 160t106.5 111.5t152 40.5q75 0 126 -29.5t74 -84.5l22 110h71zM412 89.5q52 31.5 81.5 88t29.5 126.5q0 77 -45.5 120.5t-127.5 43.5q-65 0 -117 -32t-81.5 -88.5
t-29.5 -126.5q0 -77 45.5 -120t127.5 -43q65 0 117 31.5z" />
    <glyph glyph-name="uni0431" unicode="&#x431;" horiz-adv-x="665" 
d="M558.5 442.5q56.5 -55.5 56.5 -152.5q0 -84 -40 -152t-110 -107t-157 -39q-113 0 -175.5 67t-62.5 192q0 109 44 204t122.5 160t180.5 87l244 51l2 -62l-230 -48q-105 -22 -176.5 -91.5t-101.5 -176.5q47 60 109.5 91.5t137.5 31.5q100 0 156.5 -55.5zM427 78.5
q52 30.5 82 83t30 116.5q0 75 -41.5 115.5t-118.5 40.5q-61 0 -116.5 -29t-89 -76.5t-33.5 -99.5q0 -84 46 -132.5t126 -48.5q63 0 115 30.5z" />
    <glyph glyph-name="uni0432" unicode="&#x432;" horiz-adv-x="608" 
d="M522 164q0 -77 -61.5 -120.5t-169.5 -43.5h-243l106 526h229q83 0 126 -30t43 -87q0 -50 -31 -86t-86 -52q87 -21 87 -107zM176 292h157q66 0 106.5 29t40.5 76q0 73 -110 73h-158zM410.5 85q41.5 29 41.5 81q0 39 -25.5 56t-84.5 17h-176l-37 -183h166q74 0 115.5 29z
" />
    <glyph glyph-name="uni0433" unicode="&#x433;" horiz-adv-x="475" 
d="M513 463h-303l-91 -463h-71l105 526h373z" />
    <glyph glyph-name="uni0434" unicode="&#x434;" horiz-adv-x="650" 
d="M492 62h82l-37 -189h-67l25 127h-471l-25 -127h-67l37 189h27q53 3 89 80t70 211l42 173h387zM163 159q-27 -69 -67 -97h325l80 401h-253l-29 -120q-29 -115 -56 -184z" />
    <glyph glyph-name="uni0435" unicode="&#x435;" horiz-adv-x="623" 
d="M122 243q-1 -7 -1 -21q0 -80 45.5 -122t135.5 -42q52 0 97.5 17.5t74.5 48.5l32 -51q-37 -37 -92.5 -57.5t-117.5 -20.5q-114 0 -179.5 60t-65.5 164q0 88 37.5 159t104 111.5t149.5 40.5q105 0 167 -59.5t62 -163.5q0 -29 -7 -64h-442zM205 423q-56 -47 -76 -127h375
q1 7 1 19q0 74 -45 114.5t-120 40.5q-79 0 -135 -47z" />
    <glyph glyph-name="uni0436" unicode="&#x436;" horiz-adv-x="827" 
d="M619 265l137 -265h-83l-116 236h-113l-48 -236h-71l47 236h-111l-208 -236h-89l245 273l-123 253h75l109 -232h114l46 232h72l-47 -232h112l202 232h80z" />
    <glyph glyph-name="uni0437" unicode="&#x437;" horiz-adv-x="525" 
d="M420 230.5q26 -28.5 26 -70.5q0 -47 -32.5 -85t-90 -59.5t-128.5 -21.5q-123 0 -201 67l30 50q29 -27 74 -41t98 -14q51 0 92 14t64 39t23 56q0 38 -33.5 59t-92.5 21h-87l8 54h75q68 0 109.5 25t41.5 66q0 38 -33 59t-91 21q-75 0 -167 -43l-20 59q96 46 193 46
q86 0 138.5 -35.5t52.5 -95.5q0 -46 -33 -80t-92 -49q50 -13 76 -41.5z" />
    <glyph glyph-name="uni0438" unicode="&#x438;" horiz-adv-x="688" 
d="M154 526h71l-85 -425l432 425h68l-105 -526h-73l87 425l-432 -425h-69z" />
    <glyph glyph-name="uni0439" unicode="&#x439;" horiz-adv-x="688" 
d="M154 526h71l-85 -425l432 425h68l-105 -526h-73l87 425l-432 -425h-69zM317 630.5q-35 27.5 -35 74.5q0 13 3 26h49q-1 -6 -1 -16q0 -32 22.5 -51.5t61.5 -19.5q43 0 74 23.5t41 63.5h50q-13 -61 -57.5 -94.5t-111.5 -33.5q-61 0 -96 27.5z" />
    <glyph glyph-name="uni043A" unicode="&#x43a;" horiz-adv-x="579" 
d="M346 267l169 -267h-81l-144 234h-124l-47 -234h-71l106 526h71l-47 -231h117l233 231h80z" />
    <glyph glyph-name="uni043B" unicode="&#x43b;" horiz-adv-x="632" 
d="M584 526l-106 -526h-71l92 463h-251l-32 -130q-31 -120 -60 -193.5t-65.5 -110t-85.5 -36.5q-20 0 -52 8l17 61q18 -4 24 -4q51 0 86.5 67.5t72.5 214.5l46 186h385z" />
    <glyph glyph-name="uni043C" unicode="&#x43c;" horiz-adv-x="789" 
d="M741 526l-105 -526h-65l83 416l-283 -352h-32l-142 356l-84 -420h-65l105 526h71l147 -379l303 379h67z" />
    <glyph glyph-name="uni043D" unicode="&#x43d;" horiz-adv-x="674" 
d="M153 526h71l-46 -233h330l47 233h71l-105 -526h-71l46 232h-330l-47 -232h-71z" />
    <glyph glyph-name="uni043E" unicode="&#x43e;" horiz-adv-x="644" 
d="M163 22.5q-54 27.5 -83.5 78t-29.5 117.5q0 89 39 160t108.5 111.5t156.5 40.5q110 0 174.5 -60t64.5 -162q0 -89 -39 -160.5t-108.5 -112t-156.5 -40.5q-72 0 -126 27.5zM411 89.5q52 31.5 81.5 88t29.5 126.5q0 77 -45.5 120.5t-127.5 43.5q-65 0 -117 -32t-81.5 -88.5
t-29.5 -126.5q0 -77 45.5 -120t127.5 -43q65 0 117 31.5z" />
    <glyph glyph-name="uni043F" unicode="&#x43f;" horiz-adv-x="673" 
d="M625 526l-105 -526h-71l91 463h-330l-91 -463h-71l105 526h472z" />
    <glyph glyph-name="uni0440" unicode="&#x440;" horiz-adv-x="690" 
d="M529.5 503q52.5 -27 81.5 -77t29 -118q0 -89 -38.5 -160.5t-106.5 -112t-153 -40.5q-75 0 -126 29.5t-74 85.5l-60 -304h-71l143 720h68l-17 -84q38 43 90 65.5t115 22.5q67 0 119.5 -27zM457.5 89.5q51.5 31.5 81 87.5t29.5 127q0 77 -45.5 120.5t-127.5 43.5
q-65 0 -116.5 -31.5t-81 -88t-29.5 -127.5q0 -77 45.5 -120t127.5 -43q65 0 116.5 31.5z" />
    <glyph glyph-name="uni0441" unicode="&#x441;" horiz-adv-x="576" 
d="M164 22.5q-55 27.5 -84.5 78t-29.5 117.5q0 89 39 160t109 111.5t158 40.5q73 0 125.5 -26.5t81.5 -78.5l-60 -35q-45 78 -153 78q-65 0 -117.5 -32t-82 -88t-29.5 -127q0 -77 45.5 -120t129.5 -43q51 0 94.5 19.5t71.5 56.5l51 -39q-35 -47 -93.5 -73.5t-126.5 -26.5
q-74 0 -129 27.5z" />
    <glyph glyph-name="uni0442" unicode="&#x442;" horiz-adv-x="473" 
d="M511 463h-200l-92 -463h-71l92 463h-198l12 63h470z" />
    <glyph glyph-name="uni0443" unicode="&#x443;" horiz-adv-x="558" 
d="M597 526l-384 -594q-48 -74 -90 -102.5t-100 -28.5q-38 0 -72 12.5t-53 34.5l38 52q36 -38 93 -38q35 0 63 19t58 66l37 56l-131 523h72l109 -448l287 448h73z" />
    <glyph glyph-name="uni0444" unicode="&#x444;" horiz-adv-x="781" 
d="M690 149q-46 -70 -129 -110.5t-192 -43.5l-38 -189h-64l38 190q-129 5 -195.5 60.5t-66.5 159.5q0 89 46 159t129.5 110.5t193.5 44.5l42 212h64l-43 -213q129 -6 195 -61t66 -159q0 -90 -46 -160zM532 93q65 32 100.5 85.5t35.5 122.5q0 81 -50 122t-155 45l-82 -412
q86 5 151 37zM162.5 102q51.5 -41 154.5 -46l82 412q-87 -5 -152 -37t-100.5 -85.5t-35.5 -121.5q0 -81 51.5 -122z" />
    <glyph glyph-name="uni0445" unicode="&#x445;" horiz-adv-x="526" 
d="M302 267l155 -267h-76l-125 219l-211 -219h-84l265 272l-146 254h75l118 -206l198 206h82z" />
    <glyph glyph-name="uni0446" unicode="&#x446;" horiz-adv-x="683" 
d="M523 62h85l-38 -194h-67l26 132h-481l105 526h71l-92 -464h320l93 464h71z" />
    <glyph glyph-name="uni0447" unicode="&#x447;" horiz-adv-x="598" 
d="M550 526l-105 -526h-71l43 217q-96 -38 -182 -38q-83 0 -129.5 33.5t-46.5 98.5q0 17 5 44l34 171h71l-34 -172q-3 -15 -3 -29q0 -44 31 -66t87 -22q80 0 180 42l49 247h71z" />
    <glyph glyph-name="uni0448" unicode="&#x448;" horiz-adv-x="928" 
d="M880 526l-106 -526h-726l105 526h71l-91 -464h257l92 464h71l-92 -464h256l92 464h71z" />
    <glyph glyph-name="uni0449" unicode="&#x449;" horiz-adv-x="946" 
d="M880 526l-106 -526h-726l105 526h71l-91 -464h257l92 464h71l-92 -464h256l92 464h71zM867 62l-36 -177h-67l23 115h-88l13 62h155z" />
    <glyph glyph-name="uni044A" unicode="&#x44a;" horiz-adv-x="628" 
d="M579 200q0 -60 -30.5 -105.5t-86 -70t-128.5 -24.5h-220l92 463h-164l12 63h236l-37 -185h148q178 0 178 -141zM460 92.5q48 38.5 48 101.5q0 47 -31.5 70.5t-95.5 23.5h-138l-47 -234h138q78 0 126 38.5z" />
    <glyph glyph-name="uni044B" unicode="&#x44b;" horiz-adv-x="784" 
d="M665 526h71l-105 -526h-71zM509 200q0 -60 -30.5 -105.5t-86 -70t-128.5 -24.5h-216l105 524h71l-36 -183h144q177 0 177 -141zM390 92.5q48 38.5 48 101.5q0 47 -31.5 70.5t-95.5 23.5h-134l-46 -234h133q78 0 126 38.5z" />
    <glyph glyph-name="uni044C" unicode="&#x44c;" horiz-adv-x="562" 
d="M513 200q0 -60 -30.5 -105.5t-86 -70t-128.5 -24.5h-220l105 524h71l-36 -183h148q177 0 177 -141zM394 92.5q48 38.5 48 101.5q0 47 -31.5 70.5t-95.5 23.5h-138l-46 -234h137q78 0 126 38.5z" />
    <glyph glyph-name="uni044D" unicode="&#x44d;" horiz-adv-x="574" 
d="M414 502.5q55 -27.5 85 -78.5t30 -118q0 -84 -46 -155.5t-123.5 -114t-167.5 -42.5q-64 0 -115.5 22t-80.5 60l45 37q25 -29 65.5 -45t87.5 -16q60 0 113 24.5t90.5 67.5t52.5 96h-282l12 54h279v10q0 78 -49 123.5t-132 45.5q-49 0 -94 -16t-82 -47l-35 41q41 37 99 58
t121 21q72 0 127 -27.5z" />
    <glyph glyph-name="uni044E" unicode="&#x44e;" horiz-adv-x="874" 
d="M759 470q64 -60 64 -161q0 -89 -38.5 -160.5t-107.5 -112.5t-155 -41q-71 0 -124 27.5t-82 78t-29 116.5v17h-120l-47 -234h-71l105 526h71l-45 -227h116q16 68 57.5 120.5t102 81.5t132.5 29q107 0 171 -60zM642.5 89.5q50.5 31.5 79.5 88t29 127.5q0 77 -44 120
t-124 43q-64 0 -115 -32t-80 -88.5t-29 -127.5q0 -77 44 -119.5t125 -42.5q64 0 114.5 31.5z" />
    <glyph glyph-name="uni044F" unicode="&#x44f;" horiz-adv-x="607" 
d="M558 526l-104 -526h-65l35 177h-162h-19l-157 -177h-81l172 188q-103 31 -103 137q0 94 70 147.5t191 53.5h223zM481 464h-151q-87 0 -135 -36t-48 -102q0 -97 126 -97h162z" />
    <glyph glyph-name="uni0450" unicode="&#x450;" horiz-adv-x="623" 
d="M122 243q-1 -7 -1 -21q0 -80 45.5 -122t135.5 -42q52 0 97.5 17.5t74.5 48.5l32 -51q-37 -37 -92.5 -57.5t-117.5 -20.5q-114 0 -179.5 60t-65.5 164q0 88 37.5 159t104 111.5t149.5 40.5q105 0 167 -59.5t62 -163.5q0 -29 -7 -64h-442zM205 423q-56 -47 -76 -127h375
q1 7 1 19q0 74 -45 114.5t-120 40.5q-79 0 -135 -47zM232 730h94l114 -124h-71z" />
    <glyph glyph-name="uni0451" unicode="&#x451;" horiz-adv-x="623" 
d="M122 243q-1 -7 -1 -21q0 -80 45.5 -122t135.5 -42q52 0 97.5 17.5t74.5 48.5l32 -51q-37 -37 -92.5 -57.5t-117.5 -20.5q-114 0 -179.5 60t-65.5 164q0 88 37.5 159t104 111.5t149.5 40.5q105 0 167 -59.5t62 -163.5q0 -29 -7 -64h-442zM205 423q-56 -47 -76 -127h375
q1 7 1 19q0 74 -45 114.5t-120 40.5q-79 0 -135 -47zM267 640q-12 11 -12 27q0 21 13.5 34.5t31.5 13.5t29.5 -11t11.5 -29q0 -20 -13.5 -33t-31.5 -13q-17 0 -29 11zM445.5 640q-11.5 11 -11.5 27q0 21 13 34.5t32 13.5q17 0 29 -11t12 -29q0 -20 -13.5 -33t-32.5 -13
q-17 0 -28.5 11z" />
    <glyph glyph-name="uni0452" unicode="&#x452;" horiz-adv-x="667" 
d="M549 484.5q49 -45.5 49 -126.5q0 -27 -6 -59l-68 -338q-14 -74 -63 -117t-123 -43q-33 0 -60.5 8.5t-43.5 25.5l36 54q26 -27 76 -27q42 0 69.5 25.5t37.5 73.5l68 339q5 28 5 48q0 57 -34.5 87.5t-101.5 30.5q-85 0 -140.5 -46.5t-73.5 -137.5l-57 -282h-71l121 607
h-108l10 52h108l17 83h71l-16 -83h246l-10 -52h-247l-33 -167q71 90 203 90q90 0 139 -45.5z" />
    <glyph glyph-name="uni0453" unicode="&#x453;" horiz-adv-x="475" 
d="M513 463h-303l-91 -463h-71l105 526h373zM443 729h97l-175 -124h-74z" />
    <glyph glyph-name="uni0454" unicode="&#x454;" horiz-adv-x="575" 
d="M159 23.5q-55 27.5 -85 78.5t-30 118q0 84 46 155.5t123.5 114t167.5 42.5q64 0 115.5 -22t80.5 -60l-45 -37q-25 29 -65.5 45t-87.5 16q-60 0 -113 -24.5t-90.5 -67.5t-52.5 -96h282l-12 -54h-279v-10q0 -78 49 -123.5t132 -45.5q49 0 94 16t82 47l35 -41
q-41 -37 -99 -58t-121 -21q-72 0 -127 27.5z" />
    <glyph glyph-name="uni0455" unicode="&#x455;" horiz-adv-x="526" 
d="M101.5 13q-57.5 18 -88.5 46l34 56q30 -26 79 -42t103 -16q75 0 115.5 24.5t40.5 69.5q0 25 -16.5 40t-40.5 23t-70 18q-55 12 -89 24t-58 38t-24 72q0 75 62 119.5t166 44.5q51 0 99.5 -13.5t78.5 -35.5l-30 -57q-30 22 -70.5 33.5t-83.5 11.5q-72 0 -112 -26t-40 -70
q0 -26 17 -42t42.5 -24t69.5 -17q54 -12 87.5 -23.5t57.5 -37.5t24 -70q0 -77 -63.5 -120.5t-169.5 -43.5q-63 0 -120.5 18z" />
    <glyph glyph-name="uni0456" unicode="&#x456;" horiz-adv-x="273" 
d="M153 526h71l-104 -526h-71zM184.5 655q-13.5 14 -13.5 33q0 23 15.5 38.5t39.5 15.5q21 0 35 -13.5t14 -31.5q0 -24 -16 -40t-40 -16q-21 0 -34.5 14z" />
    <glyph glyph-name="uni0457" unicode="&#x457;" horiz-adv-x="269" 
d="M151 526h71l-104 -526h-71zM119 642q-11 11 -11 27q0 20 13 34t32 14q16 0 27 -11.5t11 -28.5q0 -20 -12.5 -33t-31.5 -13q-17 0 -28 11zM252 642q-11 11 -11 27q0 20 13 34t32 14q16 0 27 -11.5t11 -28.5q0 -20 -12.5 -33t-31.5 -13q-17 0 -28 11z" />
    <glyph glyph-name="uni0458" unicode="&#x458;" horiz-adv-x="274" 
d="M-126.5 -190.5q-28.5 8.5 -48.5 24.5l33 55q30 -27 79 -27q43 0 69 24t36 76l113 564h71l-113 -566q-32 -159 -177 -159q-34 0 -62.5 8.5zM185.5 656q-13.5 14 -13.5 33q0 23 15.5 38.5t39.5 15.5q21 0 35 -13.5t14 -31.5q0 -24 -16 -40t-40 -16q-21 0 -34.5 14z" />
    <glyph glyph-name="uni0459" unicode="&#x459;" horiz-adv-x="921" 
d="M584 526l-106 -526h-71l92 463h-251l-32 -130q-31 -120 -60 -193.5t-65.5 -110t-85.5 -36.5q-20 0 -52 8l17 61q18 -4 24 -4q51 0 86.5 67.5t72.5 214.5l46 186h385zM872 200q0 -60 -30.5 -105.5t-86 -70t-128.5 -24.5h-220l105 524h71l-36 -183h148q177 0 177 -141z
M753 92.5q48 38.5 48 101.5q0 47 -31.5 70.5t-95.5 23.5h-138l-46 -234h137q78 0 126 38.5z" />
    <glyph glyph-name="uni045A" unicode="&#x45a;" horiz-adv-x="941" 
d="M848.5 279q44.5 -35 44.5 -101q0 -81 -64 -129.5t-173 -48.5h-216l51 253h-321l-51 -253h-71l105 526h71l-42 -212h321l42 212h70l-41 -212h145q85 0 129.5 -35zM777.5 85.5q45.5 32.5 45.5 87.5q0 43 -29.5 63.5t-90.5 20.5h-141l-41 -204h134q77 0 122.5 32.5z" />
    <glyph glyph-name="uni045B" unicode="&#x45b;" horiz-adv-x="667" 
d="M548.5 484.5q49.5 -45.5 49.5 -125.5q0 -28 -6 -60l-60 -299h-71l60 300q5 28 5 48q0 57 -34.5 87.5t-101.5 30.5q-85 0 -140 -46.5t-74 -137.5l-56 -282h-71l122 610h-135l9 45h135l17 87h71l-17 -87h249l-9 -45h-250l-32 -163q73 83 201 83q89 0 138.5 -45.5z" />
    <glyph glyph-name="uni045C" unicode="&#x45c;" horiz-adv-x="579" 
d="M346 267l169 -267h-81l-144 234h-124l-47 -234h-71l106 526h71l-47 -231h117l233 231h80zM453 732h97l-175 -124h-74z" />
    <glyph glyph-name="uni045D" unicode="&#x45d;" horiz-adv-x="688" 
d="M154 526h71l-85 -425l432 425h68l-105 -526h-73l87 425l-432 -425h-69zM267 732h94l114 -124h-71z" />
    <glyph glyph-name="uni045E" unicode="&#x45e;" horiz-adv-x="558" 
d="M597 526l-384 -594q-48 -74 -90 -102.5t-100 -28.5q-38 0 -72 12.5t-53 34.5l38 52q36 -38 93 -38q35 0 63 19t58 66l37 56l-131 523h72l109 -448l287 448h73zM236 630.5q-35 27.5 -35 74.5q0 13 3 26h49q-1 -6 -1 -16q0 -32 22.5 -51.5t61.5 -19.5q43 0 74 23.5t41 63.5
h50q-13 -61 -57.5 -94.5t-111.5 -33.5q-61 0 -96 27.5z" />
    <glyph glyph-name="uni045F" unicode="&#x45f;" horiz-adv-x="639" 
d="M485 0h-184l-26 -132h-68l26 132h-185l105 526h71l-92 -464h295l92 464h71z" />
    <glyph glyph-name="uni0462" unicode="&#x462;" horiz-adv-x="802" 
d="M697.5 402.5q56.5 -44.5 56.5 -130.5q0 -10 -2 -34q-12 -113 -92.5 -175.5t-221.5 -62.5h-282l112 563h-189l11 56h189l25 123h73l-25 -123h220l-11 -56h-220l-23 -116h215q108 0 164.5 -44.5zM619.5 112q61.5 53 61.5 145q0 67 -42 99t-129 32h-203l-66 -329h203
q114 0 175.5 53z" />
    <glyph glyph-name="uni0463" unicode="&#x463;" horiz-adv-x="595" 
d="M546 200q0 -60 -30 -105.5t-85.5 -70t-129.5 -24.5h-219l98 491h-133l11 54h133l39 197h70l-39 -197h198l-11 -54h-197l-30 -150h148q177 0 177 -141zM427.5 92.5q48.5 38.5 48.5 101.5q0 47 -31.5 70.5t-96.5 23.5h-138l-46 -234h137q78 0 126.5 38.5z" />
    <glyph glyph-name="uni046A" unicode="&#x46a;" horiz-adv-x="884" 
d="M861 652l-321 -283h11q84 0 139 -50.5t80 -155.5l39 -163h-76l-34 144q-19 86 -62.5 127.5t-112.5 41.5h-39l-62 -313h-67l62 313h-37q-69 0 -129.5 -41.5t-114.5 -127.5l-91 -144h-77l106 163q68 105 142 155.5t159 50.5h9l-207 280l10 51h683zM775 642h-516l204 -273z
" />
    <glyph glyph-name="uni046B" unicode="&#x46b;" horiz-adv-x="680" 
d="M644 479l-230 -200h3q66 0 105.5 -38.5t57.5 -120.5l28 -120h-70l-22 103q-14 64 -43.5 94.5t-78.5 30.5h-31l-45 -228h-63l46 228h-27q-50 0 -92.5 -30.5t-80.5 -94.5l-63 -103h-71l76 120q51 82 106.5 120.5t120.5 38.5l-149 200l9 47h522zM566 475h-369l145 -196z" />
    <glyph glyph-name="uni0472" unicode="&#x472;" horiz-adv-x="860" 
d="M216 30.5q-73 36.5 -111 102t-38 152.5q0 115 52 211.5t148 153t222 56.5q102 0 175 -36.5t111.5 -102t38.5 -152.5q0 -115 -52.5 -211.5t-148.5 -153t-222 -56.5q-102 0 -175 36.5zM577 107.5q78 47.5 120.5 128t42.5 176.5q0 104 -67 166t-191 62q-101 0 -179 -47.5
t-120.5 -128t-42.5 -175.5q0 -105 67 -167t191 -62q101 0 179 47.5zM97.1836 380h691.82l-9.53613 -60h-690.954z" />
    <glyph glyph-name="uni0473" unicode="&#x473;" horiz-adv-x="654" 
d="M539 470q66 -60 66 -162q0 -89 -39.5 -160.5t-110 -112t-161.5 -40.5q-75 0 -130 27.5t-85 78t-30 117.5q0 89 39.5 160t110.5 111.5t161 40.5q113 0 179 -60zM208.5 419q-60.5 -49 -79.5 -130h404v15q0 78 -46.5 121t-132.5 43q-85 0 -145.5 -49zM446 107q61 49 80 131
h-405v-17q0 -78 46.5 -120.5t132.5 -42.5q85 0 146 49z" />
    <glyph glyph-name="uni0474" unicode="&#x474;" horiz-adv-x="746" 
d="M106 700h78l126 -594l250 444q46 83 93 121t106 38q29 0 62 -9l-17 -71q-23 5 -40 5q-43 0 -78.5 -31t-73.5 -101l-284 -502h-73z" />
    <glyph glyph-name="uni0475" unicode="&#x475;" horiz-adv-x="574" 
d="M496 503.5q33 27.5 75 27.5q22 0 52 -8l-20 -65q-22 5 -33 5q-25 0 -44.5 -20t-50.5 -74l-209 -369h-70l-135 524h73l109 -443l184 331q36 64 69 91.5z" />
    <glyph glyph-name="uni048A" unicode="&#x48a;" horiz-adv-x="842" 
d="M404 779.5q-38 28.5 -38 78.5q0 7 2 21h50q-1 -4 -1 -12q0 -34 25.5 -54t68.5 -20q47 0 80 23t43 63h51q-12 -61 -58.5 -94.5t-117.5 -33.5q-67 0 -105 28.5zM666 64h100l-111 -221h-60l73 157h-87l117 579l-565 -579h-67l140 700h72l-116 -580l564 580h67z" />
    <glyph glyph-name="uni048B" unicode="&#x48b;" horiz-adv-x="708" 
d="M316.5 638.5q-39.5 35.5 -35.5 93.5h49q-2 -39 23.5 -62t70.5 -23q43 0 73.5 23t36.5 62h52q-10 -59 -55.5 -94t-110.5 -35q-64 0 -103.5 35.5zM547 62h85l-91 -177h-57l55 115h-77l87 425l-432 -425h-69l106 526h71l-85 -425l432 425h68z" />
    <glyph glyph-name="uni048C" unicode="&#x48c;" horiz-adv-x="739" 
d="M635.5 404q55.5 -46 55.5 -139q0 -80 -39 -140t-111.5 -92.5t-170.5 -32.5h-279l112 563h-110l12 56h109l25 123h73l-25 -123h224l-12 -56h-223l-23 -113h215q112 0 167.5 -46zM551.5 112.5q64.5 53.5 64.5 145.5q0 69 -40 100.5t-126 31.5h-209l-65 -331h201
q110 0 174.5 53.5z" />
    <glyph glyph-name="uni048D" unicode="&#x48d;" horiz-adv-x="591" 
d="M543 195q0 -58 -30 -102.5t-85.5 -68.5t-128.5 -24h-220l81 405h-108l10 53h108l14 68h71l-13 -68h197l-10 -53h-198l-14 -71h148q178 0 178 -139zM424.5 91q47.5 37 47.5 99q0 46 -31.5 68.5t-95.5 22.5h-139l-45 -227h137q79 0 126.5 37z" />
    <glyph glyph-name="uni048E" unicode="&#x48e;" horiz-adv-x="732" 
d="M667.5 350q-39.5 -63 -112.5 -96l72 -126l-47 -34l-80 141q-56 -14 -118 -14h-198l-45 -221h-73l140 700h251q118 0 184 -52t66 -146q0 -89 -39.5 -152zM604.5 381.5q28.5 46.5 28.5 113.5q0 69 -47 105t-135 36h-184l-71 -350h187q43 0 83 8l-82 144l46 34l92 -161
q54 24 82.5 70.5z" />
    <glyph glyph-name="uni048F" unicode="&#x48f;" horiz-adv-x="697" 
d="M607.5 159q-32.5 -67 -90.5 -109l47 -80l-48 -32l-49 83q-57 -26 -125 -26q-75 0 -126 29.5t-74 85.5l-60 -304h-71l143 720h68l-17 -84q38 43 90 65.5t115 22.5q67 0 119.5 -27t81.5 -77t29 -118q0 -82 -32.5 -149zM434 77l-60 102l49 33l60 -104q40 34 62.5 84.5
t22.5 111.5q0 77 -45.5 120.5t-127.5 43.5q-65 0 -116.5 -31.5t-81 -88t-29.5 -127.5q0 -77 45.5 -120t127.5 -43q49 0 93 19z" />
    <glyph glyph-name="uni0490" unicode="&#x490;" horiz-adv-x="575" 
d="M206 700h376l28 144h69l-41 -208h-373l-127 -636h-72z" />
    <glyph glyph-name="uni0491" unicode="&#x491;" horiz-adv-x="448" 
d="M153 526h279l21 108h67l-34 -171h-274l-93 -463h-71z" />
    <glyph glyph-name="uni0492" unicode="&#x492;" horiz-adv-x="610" 
d="M293 636l-56 -283h289l-11 -56h-289l-59 -297h-72l59 297h-120l11 56h121l69 347h445l-14 -64h-373z" />
    <glyph glyph-name="uni0493" unicode="&#x493;" horiz-adv-x="502" 
d="M223 463l-40 -204h238l-11 -52h-237l-41 -207h-71l41 207h-63l11 52h63l53 267h373l-13 -63h-303z" />
    <glyph glyph-name="uni0494" unicode="&#x494;" horiz-adv-x="701" 
d="M265 636l-58 -293q110 55 212 55q94 0 152 -51.5t58 -150.5q0 -89 -44.5 -166.5t-119 -123t-160.5 -45.5q-30 0 -60 6l17 60q20 -4 44 -4q68 0 126 38t91.5 99.5t33.5 129.5q0 74 -43.5 111.5t-114.5 37.5q-48 0 -101 -16.5t-104 -47.5l-55 -275h-73l140 700h465l-13 -64
h-393z" />
    <glyph glyph-name="uni0495" unicode="&#x495;" horiz-adv-x="596" 
d="M341 280q86 0 137 -50t51 -142q0 -82 -39.5 -148t-107.5 -103.5t-150 -37.5q-27 0 -67 7l18 63q28 -5 51 -5q61 0 112 27.5t80.5 76.5t29.5 110q0 68 -38.5 105.5t-102.5 37.5q-72 0 -161 -48l-34 -173h-70l104 526h369l-12 -63h-299l-45 -227q92 44 174 44z" />
    <glyph glyph-name="uni0496" unicode="&#x496;" horiz-adv-x="1056" 
d="M766 359l168 -359h-84l-151 321h-145l-64 -321h-72l64 321h-145l-278 -321h-89l315 363l-154 337h78l139 -314h147l63 314h72l-63 -314h145l264 314h82zM999 64l-43 -221h-69l31 157h-68l12 64h137z" />
    <glyph glyph-name="uni0497" unicode="&#x497;" horiz-adv-x="869" 
d="M619 265l137 -265h-83l-116 236h-113l-48 -236h-71l47 236h-111l-208 -236h-89l245 273l-123 253h75l109 -232h114l46 232h72l-47 -232h112l202 232h80zM817 61l-36 -177h-65l23 116h-66l12 61h132z" />
    <glyph glyph-name="uni0498" unicode="&#x498;" horiz-adv-x="636" 
d="M528.5 310q30.5 -38 30.5 -92q0 -66 -44.5 -118t-117.5 -80.5t-153 -28.5q-71 0 -135.5 23.5t-110.5 69.5l38 53q38 -40 93.5 -60t116.5 -20q62 0 117 20.5t89 58.5t34 88q0 53 -40.5 81t-117.5 28h-152l12 60h149q82 0 131 37t49 97q0 57 -45 87.5t-118 30.5
q-49 0 -103 -14.5t-106 -43.5l-13 61q118 61 232 61q100 0 165 -45.5t65 -124.5q0 -62 -41 -108.5t-111 -65.5q56 -17 86.5 -55zM255 -157h-69l35 176h69z" />
    <glyph glyph-name="uni0499" unicode="&#x499;" horiz-adv-x="525" 
d="M420 230.5q26 -28.5 26 -70.5q0 -47 -32.5 -85t-90 -59.5t-128.5 -21.5q-123 0 -201 67l30 50q29 -27 74 -41t98 -14q51 0 92 14t64 39t23 56q0 38 -33.5 59t-92.5 21h-87l8 54h75q68 0 109.5 25t41.5 66q0 38 -33 59t-91 21q-75 0 -167 -43l-20 59q96 46 193 46
q86 0 138.5 -35.5t52.5 -95.5q0 -46 -33 -80t-92 -49q50 -13 76 -41.5zM206 -115h-67l26 132h67z" />
    <glyph glyph-name="uni049A" unicode="&#x49a;" horiz-adv-x="755" 
d="M425 358l204 -358h-79l-185 322h-162l-64 -322h-73l140 700h73l-63 -314h156l300 314h84zM699 64l-43 -221h-69l31 157h-68l12 64h137z" />
    <glyph glyph-name="uni049B" unicode="&#x49b;" horiz-adv-x="627" 
d="M346 267l169 -267h-81l-144 234h-124l-47 -234h-71l106 526h71l-47 -231h117l233 231h80zM578 61l-36 -177h-65l23 116h-66l12 61h132z" />
    <glyph glyph-name="uni049C" unicode="&#x49c;" horiz-adv-x="726" 
d="M469 358l183 -358h-85l-164 321h-58l-30 -150h-57l30 150h-86l-64 -321h-72l140 700h72l-63 -314h86l30 152h57l-30 -152h58l276 314h83z" />
    <glyph glyph-name="uni049D" unicode="&#x49d;" horiz-adv-x="586" 
d="M379 265l136 -265h-82l-113 235h-40l-21 -107h-52l21 107h-62l-47 -235h-71l106 526h70l-46 -231h62l22 108h52l-22 -108h35l202 231h80z" />
    <glyph glyph-name="uni049E" unicode="&#x49e;" horiz-adv-x="739" 
d="M462 358l204 -358h-79l-185 322h-162l-64 -322h-73l110 552h-136l11 54h136l19 94h73l-19 -94h149l-11 -54h-149l-33 -166h156l300 314h84z" />
    <glyph glyph-name="uni049F" unicode="&#x49f;" horiz-adv-x="580" 
d="M346 267l170 -267h-82l-145 235h-123l-47 -235h-71l121 607h-100l11 53h100l16 82h71l-16 -83h158l-10 -52h-159l-62 -312h118l233 231h80z" />
    <glyph glyph-name="uni04A0" unicode="&#x4a0;" horiz-adv-x="832" 
d="M574 358l184 -358h-85l-163 321h-197l-64 -321h-73l127 636h-217l13 64h290l-63 -314h196l277 314h82z" />
    <glyph glyph-name="uni04A1" unicode="&#x4a1;" horiz-adv-x="642" 
d="M409 267l169 -267h-81l-144 234h-124l-47 -234h-71l94 464h-163l12 62h234l-47 -231h118l233 231h79z" />
    <glyph glyph-name="uni04A2" unicode="&#x4a2;" horiz-adv-x="841" 
d="M790 700l-140 -700h-73l64 322h-438l-64 -322h-73l140 700h73l-62 -311h438l62 311h73zM772 64l-44 -221h-69l31 157h-113l14 64h181z" />
    <glyph glyph-name="uni04A3" unicode="&#x4a3;" horiz-adv-x="693" 
d="M153 526h71l-46 -233h330l47 233h71l-105 -526h-71l46 232h-330l-47 -232h-71zM618 62l-36 -177h-67l23 115h-88l13 62h155z" />
    <glyph glyph-name="uni04A4" unicode="&#x4a4;" horiz-adv-x="1086" 
d="M790 700l-140 -700h-73l64 322h-438l-64 -322h-73l140 700h73l-62 -311h438l62 311h73zM1148 636h-373l-126 -636h-72l140 700h445z" />
    <glyph glyph-name="uni04A5" unicode="&#x4a5;" horiz-adv-x="876" 
d="M153 526h71l-46 -233h330l47 233h71l-105 -526h-71l46 232h-330l-47 -232h-71zM915 463h-303l-91 -463h-71l105 526h373z" />
    <glyph glyph-name="uni04A8" unicode="&#x4a8;" horiz-adv-x="979" 
d="M750 47q59 0 120 16l-1 -56q-64 -17 -129 -17q-85 0 -156 30q-81 -29 -167 -29q-101 0 -178 40t-119.5 112.5t-42.5 167.5q0 120 68 226.5t186 172.5l56 -37q-110 -57 -173 -153.5t-63 -205.5q0 -79 34 -139t97 -93.5t146 -33.5q47 0 87 10q-67 48 -105 124.5t-38 171.5
q0 100 41 182t112.5 129.5t158.5 47.5q71 0 125 -32t83.5 -90.5t29.5 -135.5q0 -121 -70.5 -228t-185.5 -171q39 -9 84 -9zM486 191q39 -70 109 -108q72 32 129 88t89 129t32 152q0 91 -43 142.5t-120 51.5q-67 0 -120.5 -38t-84 -104.5t-30.5 -149.5q0 -93 39 -163z" />
    <glyph glyph-name="uni04A9" unicode="&#x4a9;" horiz-adv-x="814" 
d="M628 42q52 0 100 11l-4 -54q-49 -11 -104 -11q-79 0 -145 26q-72 -24 -142 -24q-82 0 -145.5 33.5t-98.5 93.5t-35 138q0 92 51.5 167t141.5 113l53 -35q-82 -35 -128.5 -100t-46.5 -143q0 -62 28 -109.5t78.5 -74t116.5 -26.5q27 0 59 5q-53 39 -82 97.5t-29 129.5
q0 74 31 133t86.5 92t124.5 33q59 0 105 -24.5t71.5 -69.5t25.5 -103q0 -86 -52 -163.5t-137 -126.5q32 -8 77 -8zM392 155.5q32 -52.5 90 -81.5q85 34 139 104.5t54 153.5q0 67 -38 107.5t-102 40.5q-50 0 -90 -25.5t-62.5 -71.5t-22.5 -105q0 -70 32 -122.5z" />
    <glyph glyph-name="uni04AA" unicode="&#x4aa;" horiz-adv-x="734" 
d="M225 30.5q-74 36.5 -112.5 102t-38.5 152.5q0 116 52.5 212t149.5 152.5t224 56.5q84 0 149 -26.5t100 -75.5l-52 -46q-67 82 -203 82q-103 0 -182 -47.5t-122 -127.5t-43 -176q0 -105 67.5 -167t192.5 -62q137 0 222 83l43 -49q-46 -48 -117 -74t-154 -26
q-102 0 -176 36.5zM371 -157h-69l35 176h69z" />
    <glyph glyph-name="uni04AB" unicode="&#x4ab;" horiz-adv-x="576" 
d="M164 22.5q-55 27.5 -84.5 78t-29.5 117.5q0 89 39 160t109 111.5t158 40.5q73 0 125.5 -26.5t81.5 -78.5l-60 -35q-45 78 -153 78q-65 0 -117.5 -32t-82 -88t-29.5 -127q0 -77 45.5 -120t129.5 -43q51 0 94.5 19.5t71.5 56.5l51 -39q-35 -47 -93.5 -73.5t-126.5 -26.5
q-74 0 -129 27.5zM298 -116h-67l26 132h67z" />
    <glyph glyph-name="uni04AC" unicode="&#x4ac;" horiz-adv-x="588" 
d="M651 636h-248l-126 -636h-72l126 636h-245l13 64h565zM400 64l-44 -221h-69l31 157h-113l14 64h181z" />
    <glyph glyph-name="uni04AD" unicode="&#x4ad;" horiz-adv-x="473" 
d="M511 463h-200l-92 -463h-71l92 463h-198l12 63h470zM316 62l-36 -177h-67l23 115h-88l13 62h155z" />
    <glyph glyph-name="uni04AE" unicode="&#x4ae;" horiz-adv-x="652" 
d="M356 236l-47 -236h-73l48 241l-188 459h74l162 -394l318 394h79z" />
    <glyph glyph-name="uni04AF" unicode="&#x4af;" horiz-adv-x="559" 
d="M263 -3l-39 -192h-71l39 191l-130 530h71l108 -450l288 450h73z" />
    <glyph glyph-name="uni04B0" unicode="&#x4b0;" horiz-adv-x="635" 
d="M348 236l-47 -236h-73l48 241l-188 459h74l162 -394l318 394h79zM91.4893 266.555h450.733l-11.5273 -56.0879h-450.733z" />
    <glyph glyph-name="uni04B1" unicode="&#x4b1;" horiz-adv-x="559" 
d="M263 -3l-39 -192h-71l39 191l-130 530h71l108 -450l288 450h73zM27.4512 31h413.814l-10.584 -52h-413.814z" />
    <glyph glyph-name="uni04B2" unicode="&#x4b2;" horiz-adv-x="694" 
d="M212 700l142 -277l255 277h88l-306 -337l183 -363h-84l-156 301l-278 -301h-87l331 360l-171 340h83zM639 64l-43 -221h-69l31 157h-68l12 64h137z" />
    <glyph glyph-name="uni04B3" unicode="&#x4b3;" horiz-adv-x="575" 
d="M302 267l155 -267h-76l-125 219l-211 -219h-84l265 272l-146 254h75l118 -206l198 206h82zM525 61l-36 -177h-65l23 116h-66l12 61h132z" />
    <glyph glyph-name="uni04B4" unicode="&#x4b4;" horiz-adv-x="967" 
d="M788 63h111l-46 -228h-69l32 164h-610v1l126 636h-246l13 64h543l-13 -64h-223l-114 -573h423l127 636h73z" />
    <glyph glyph-name="uni04B5" unicode="&#x4b5;" horiz-adv-x="757" 
d="M599 62h78l-36 -177h-67l23 115h-448l92 463h-199l13 63h440l-12 -63h-171l-80 -401h296l93 464h71z" />
    <glyph glyph-name="uni04B6" unicode="&#x4b6;" horiz-adv-x="750" 
d="M699 700l-140 -700h-72l58 288q-122 -47 -225 -47q-108 0 -166.5 46t-58.5 130q0 27 6 55l45 228h73l-45 -226q-5 -25 -5 -43q0 -61 41.5 -93t119.5 -32q107 0 229 52l68 342h72zM682 64l-44 -221h-69l31 157h-113l14 64h181z" />
    <glyph glyph-name="uni04B7" unicode="&#x4b7;" horiz-adv-x="617" 
d="M550 526l-105 -526h-71l43 217q-96 -38 -182 -38q-83 0 -129.5 33.5t-46.5 98.5q0 17 5 44l34 171h71l-34 -172q-3 -15 -3 -29q0 -44 31 -66t87 -22q80 0 180 42l49 247h71zM542 62l-36 -177h-67l23 115h-88l13 62h155z" />
    <glyph glyph-name="uni04B8" unicode="&#x4b8;" horiz-adv-x="730" 
d="M699 700l-140 -700h-72l58 288q-103 -40 -193 -46l-30 -150h-56l30 150q-97 5 -149 50.5t-52 123.5q0 26 6 56l45 228h73l-45 -226q-5 -25 -5 -43q0 -56 36 -88t104 -36l30 151h57l-30 -150q89 6 193 50l68 342h72z" />
    <glyph glyph-name="uni04B9" unicode="&#x4b9;" horiz-adv-x="598" 
d="M550 526l-105 -526h-71l43 217q-60 -24 -125 -34l-22 -109h-53l21 105h-3q-83 0 -129.5 33.5t-46.5 98.5q0 17 5 44l34 171h71l-34 -172q-3 -15 -3 -29q0 -44 31 -66t87 -22l23 115h53l-22 -110q56 8 126 37l49 247h71z" />
    <glyph glyph-name="uni04BA" unicode="&#x4ba;" horiz-adv-x="731" 
d="M612.5 413q58.5 -46 58.5 -130q0 -26 -6 -55l-46 -228h-73l45 226q5 25 5 43q0 61 -41.5 93t-118.5 32q-108 0 -230 -52l-68 -342h-72l140 700h72l-58 -288q120 47 226 47q108 0 166.5 -46z" />
    <glyph glyph-name="uni04BB" unicode="&#x4bb;" horiz-adv-x="667" 
d="M548.5 484.5q49.5 -45.5 49.5 -125.5q0 -28 -6 -60l-60 -299h-71l60 300q5 28 5 48q0 57 -34.5 87.5t-101.5 30.5q-85 0 -140 -46.5t-74 -137.5l-56 -282h-71l148 742h71l-59 -295q73 83 201 83q89 0 138.5 -45.5z" />
    <glyph glyph-name="uni04BC" unicode="&#x4bc;" horiz-adv-x="977" 
d="M309 312v-5q0 -74 31 -130t87.5 -87t132.5 -31q61 0 121.5 22t114.5 63l38 -53q-64 -48 -134.5 -72.5t-144.5 -24.5q-95 0 -167.5 38.5t-112 108t-39.5 161.5v10h-26q-65 0 -102 33.5t-37 88.5q0 68 54 138l67 -21q-24 -28 -36.5 -55.5t-12.5 -50.5q0 -32 21 -51t61 -19
h18q18 93 77 168.5t146.5 119t186.5 43.5q91 0 159 -36.5t105 -102t37 -149.5q0 -52 -15 -109zM497.5 607q-69.5 -35 -117.5 -96t-64 -136h565q3 21 3 40q0 66 -29.5 117.5t-83.5 80.5t-125 29q-79 0 -148.5 -35z" />
    <glyph glyph-name="uni04BD" unicode="&#x4bd;" horiz-adv-x="755" 
d="M246 243q-1 -7 -1 -21q0 -80 47.5 -122t140.5 -42q55 0 101.5 17.5t76.5 48.5l33 -51q-38 -37 -95 -57.5t-122 -20.5q-118 0 -186 60t-68 164q0 16 1 24h-19q-57 0 -86.5 23t-29.5 62q0 49 40 105l58 -15q-33 -39 -33 -72q0 -23 17.5 -36.5t51.5 -13.5h8q15 69 56.5 122
t103 82.5t134.5 29.5q109 0 172.5 -59.5t63.5 -163.5q0 -34 -6 -64h-459zM332 423q-58 -47 -78 -127h388q1 7 1 20q0 73 -47 113.5t-124 40.5q-82 0 -140 -47z" />
    <glyph glyph-name="uni04BE" unicode="&#x4be;" horiz-adv-x="977" 
d="M309 312v-5q0 -74 31 -130t87.5 -87t132.5 -31q61 0 121.5 22t114.5 63l38 -53q-64 -48 -134.5 -72.5t-144.5 -24.5q-95 0 -167.5 38.5t-112 108t-39.5 161.5v10h-26q-65 0 -102 33.5t-37 88.5q0 68 54 138l67 -21q-24 -28 -36.5 -55.5t-12.5 -50.5q0 -32 21 -51t61 -19
h18q18 93 77 168.5t146.5 119t186.5 43.5q91 0 159 -36.5t105 -102t37 -149.5q0 -52 -15 -109zM497.5 607q-69.5 -35 -117.5 -96t-64 -136h565q3 21 3 40q0 66 -29.5 117.5t-83.5 80.5t-125 29q-79 0 -148.5 -35zM539 -157h-69l35 176h69z" />
    <glyph glyph-name="uni04BF" unicode="&#x4bf;" horiz-adv-x="755" 
d="M246 243q-1 -7 -1 -21q0 -80 47.5 -122t140.5 -42q55 0 101.5 17.5t76.5 48.5l33 -51q-38 -37 -95 -57.5t-122 -20.5q-118 0 -186 60t-68 164q0 16 1 24h-19q-57 0 -86.5 23t-29.5 62q0 49 40 105l58 -15q-33 -39 -33 -72q0 -23 17.5 -36.5t51.5 -13.5h8q15 69 56.5 122
t103 82.5t134.5 29.5q109 0 172.5 -59.5t63.5 -163.5q0 -34 -6 -64h-459zM332 423q-58 -47 -78 -127h388q1 7 1 20q0 73 -47 113.5t-124 40.5q-82 0 -140 -47zM414 -115h-67l26 132h67z" />
    <glyph glyph-name="uni04C0" unicode="&#x4c0;" horiz-adv-x="310" 
d="M206 700h73l-140 -700h-73z" />
    <glyph glyph-name="uni04C1" unicode="&#x4c1;" horiz-adv-x="1011" 
d="M766 359l168 -359h-84l-151 321h-145l-64 -321h-72l64 321h-145l-278 -321h-89l315 363l-154 337h78l139 -314h147l63 314h72l-63 -314h145l264 314h82zM502 779.5q-38 28.5 -38 78.5q0 7 2 21h50q-1 -4 -1 -12q0 -34 25.5 -54t68.5 -20q47 0 80 23t43 63h51
q-12 -61 -58.5 -94.5t-117.5 -33.5q-67 0 -105 28.5z" />
    <glyph glyph-name="uni04C2" unicode="&#x4c2;" horiz-adv-x="827" 
d="M619 265l137 -265h-83l-116 236h-113l-48 -236h-71l47 236h-111l-208 -236h-89l245 273l-123 253h75l109 -232h114l46 232h72l-47 -232h112l202 232h80zM391 630.5q-35 27.5 -35 74.5q0 13 3 26h49q-1 -6 -1 -16q0 -32 22.5 -51.5t61.5 -19.5q43 0 74 23.5t41 63.5h50
q-13 -61 -57.5 -94.5t-111.5 -33.5q-61 0 -96 27.5z" />
    <glyph glyph-name="uni04C3" unicode="&#x4c3;" horiz-adv-x="702" 
d="M426 358q188 -218 188 -366q0 -56 -23.5 -99.5t-65.5 -68t-96 -24.5t-107 30l31 57q38 -23 74 -23q48 0 77.5 34t29.5 90q0 68 -47 158t-123 176h-161l-64 -322h-73l140 700h73l-63 -314h156l300 314h84z" />
    <glyph glyph-name="uni04C4" unicode="&#x4c4;" horiz-adv-x="578" 
d="M346 268q74 -74 112 -146.5t38 -136.5q0 -54 -23 -96t-64.5 -65t-94.5 -23q-54 0 -107 28l30 54q39 -21 78 -21q49 0 79 32t30 87t-36 121.5t-102 134.5h-119l-47 -237h-71l104 526h71l-46 -233h114l235 233h81z" />
    <glyph glyph-name="uni04C6" unicode="&#x4c6;" horiz-adv-x="650" 
d="M490 62h87l-91 -177h-57l55 115h-77l92 463h-251l-32 -130q-31 -120 -60 -193.5t-65.5 -110t-85.5 -36.5q-20 0 -52 8l17 61q18 -4 24 -4q51 0 86.5 67.5t72.5 214.5l46 186h385z" />
    <glyph glyph-name="uni04C7" unicode="&#x4c7;" horiz-adv-x="816" 
d="M379 -113q31 -25 72 -25q40 0 71.5 24.5t40.5 68.5l73 364h-434l-64 -319h-72l140 700h72l-63 -316h434l63 316h73l-151 -755q-14 -69 -64 -106.5t-113 -37.5q-30 0 -58.5 9t-50.5 27z" />
    <glyph glyph-name="uni04C8" unicode="&#x4c8;" horiz-adv-x="682" 
d="M276 -190.5q-28 8.5 -44 25.5l35 54q26 -27 73 -27q43 0 71 25.5t38 73.5l54 271h-337l-46 -232h-71l104 526h71l-46 -233h338l46 233h71l-114 -569q-14 -72 -61.5 -114t-119.5 -42q-34 0 -62 8.5z" />
    <glyph glyph-name="uni04C9" unicode="&#x4c9;" horiz-adv-x="838" 
d="M663 64h99l-111 -221h-60l73 157h-87l64 322h-438l-64 -322h-73l140 700h73l-62 -311h438l62 311h73z" />
    <glyph glyph-name="uni04CA" unicode="&#x4ca;" horiz-adv-x="693" 
d="M533 62h87l-91 -177h-57l55 115h-77l46 232h-330l-47 -232h-71l105 526h71l-46 -233h330l47 233h71z" />
    <glyph glyph-name="uni04CB" unicode="&#x4cb;" horiz-adv-x="727" 
d="M569 64l-13 -64h-125l-30 -157h-69l45 221h119l47 237q-123 -47 -222 -47q-109 0 -167.5 45.5t-58.5 128.5q0 30 5 52l44 220h73l-44 -218q-4 -19 -4 -40q0 -60 41 -91.5t119 -31.5q102 0 228 51l66 330h73z" />
    <glyph glyph-name="uni04CC" unicode="&#x4cc;" horiz-adv-x="596" 
d="M548 526l-105 -526h-95l-23 -115h-67l34 174h92l34 171q-100 -40 -187 -40q-82 0 -127 32.5t-45 96.5q0 18 5 45l32 162h71l-31 -159q-3 -15 -3 -29q0 -44 32 -66.5t90 -22.5q82 0 174 38l48 239h71z" />
    <glyph glyph-name="uni04CD" unicode="&#x4cd;" horiz-adv-x="981" 
d="M806 64h101l-111 -221h-60l73 157h-87l111 555l-362 -466h-35l-187 475l-112 -564h-71l140 700h60l202 -520l400 520h65z" />
    <glyph glyph-name="uni04CE" unicode="&#x4ce;" horiz-adv-x="815" 
d="M648 62h93l-91 -177h-57l55 115h-77l83 416l-283 -352h-32l-142 356l-84 -420h-65l105 526h71l147 -379l303 379h67z" />
    <glyph glyph-name="uni04CF" unicode="&#x4cf;" horiz-adv-x="274" 
d="M197 742h71l-148 -742h-71z" />
    <glyph glyph-name="uni04D0" unicode="&#x4d0;" horiz-adv-x="744" 
d="M555 187h-391l-121 -187h-80l460 700h73l180 -700h-74zM541 247l-95 378l-244 -378h339zM366 779.5q-38 28.5 -38 78.5q0 7 2 21h50q-1 -4 -1 -12q0 -34 25.5 -54t68.5 -20q47 0 80 23t43 63h51q-12 -61 -58.5 -94.5t-117.5 -33.5q-67 0 -105 28.5z" />
    <glyph glyph-name="uni04D1" unicode="&#x4d1;" horiz-adv-x="689" 
d="M641 526l-105 -526h-68l17 83q-38 -42 -90 -65t-115 -23q-67 0 -119 27t-81 77.5t-29 118.5q0 89 38.5 160t106.5 111.5t152 40.5q75 0 126 -29.5t74 -84.5l22 110h71zM412 89.5q52 31.5 81.5 88t29.5 126.5q0 77 -45.5 120.5t-127.5 43.5q-65 0 -117 -32t-81.5 -88.5
t-29.5 -126.5q0 -77 45.5 -120t127.5 -43q65 0 117 31.5zM314 630.5q-35 27.5 -35 74.5q0 13 3 26h49q-1 -6 -1 -16q0 -32 22.5 -51.5t61.5 -19.5q43 0 74 23.5t41 63.5h50q-13 -61 -57.5 -94.5t-111.5 -33.5q-61 0 -96 27.5z" />
    <glyph glyph-name="uni04D2" unicode="&#x4d2;" horiz-adv-x="744" 
d="M555 187h-391l-121 -187h-80l460 700h73l180 -700h-74zM541 247l-95 378l-244 -378h339zM363 791q-12 11 -12 27q0 21 13.5 34.5t31.5 13.5t29.5 -11t11.5 -29q0 -20 -13.5 -33t-31.5 -13q-17 0 -29 11zM541.5 791q-11.5 11 -11.5 27q0 21 13 34.5t32 13.5q17 0 29 -11
t12 -29q0 -20 -13.5 -33t-32.5 -13q-17 0 -28.5 11z" />
    <glyph glyph-name="uni04D3" unicode="&#x4d3;" horiz-adv-x="689" 
d="M641 526l-105 -526h-68l17 83q-38 -42 -90 -65t-115 -23q-67 0 -119 27t-81 77.5t-29 118.5q0 89 38.5 160t106.5 111.5t152 40.5q75 0 126 -29.5t74 -84.5l22 110h71zM412 89.5q52 31.5 81.5 88t29.5 126.5q0 77 -45.5 120.5t-127.5 43.5q-65 0 -117 -32t-81.5 -88.5
t-29.5 -126.5q0 -77 45.5 -120t127.5 -43q65 0 117 31.5zM299 642q-12 11 -12 27q0 21 13.5 34.5t31.5 13.5t29.5 -11t11.5 -29q0 -20 -13.5 -33t-31.5 -13q-17 0 -29 11zM477.5 642q-11.5 11 -11.5 27q0 21 13 34.5t32 13.5q17 0 29 -11t12 -29q0 -20 -13.5 -33t-32.5 -13
q-17 0 -28.5 11z" />
    <glyph glyph-name="uni04D4" unicode="&#x4d4;" horiz-adv-x="1027" 
d="M634 636l-50 -249h364l-14 -63h-362l-52 -260h421l-13 -64h-493l37 187h-282l-150 -187h-83l563 700h534l-13 -64h-407zM562 637h-12l-312 -390h246z" />
    <glyph glyph-name="uni04D5" unicode="&#x4d5;" horiz-adv-x="996" 
d="M492 244q-1 -7 -1 -22q0 -82 46 -123t136 -41q108 0 171 66l33 -51q-38 -37 -93.5 -57.5t-116.5 -20.5q-79 0 -137 32t-84 95q-34 -65 -94.5 -96t-133.5 -31q-88 0 -137.5 37.5t-49.5 101.5q0 76 57.5 119.5t165.5 43.5h176l5 27q4 20 4 41q0 51 -32.5 77t-96.5 26
q-50 0 -98 -16.5t-83 -44.5l-24 56q42 32 100 49.5t115 17.5q74 0 118.5 -26.5t58.5 -75.5q40 49 97 75.5t120 26.5q105 0 168 -59.5t63 -163.5q0 -33 -8 -63h-445zM576.5 423q-56.5 -47 -76.5 -126h376q6 82 -40 127.5t-125 45.5q-78 0 -134.5 -47zM345 90q51 39 65 111
l9 43h-170q-70 0 -109 -28t-39 -78q0 -42 31.5 -64.5t92.5 -22.5q69 0 120 39z" />
    <glyph glyph-name="uni04D6" unicode="&#x4d6;" horiz-adv-x="659" 
d="M266 636l-50 -249h363l-12 -63h-363l-52 -260h421l-13 -64h-494l140 700h480l-13 -64h-407zM353 779.5q-38 28.5 -38 78.5q0 7 2 21h50q-1 -4 -1 -12q0 -34 25.5 -54t68.5 -20q47 0 80 23t43 63h51q-12 -61 -58.5 -94.5t-117.5 -33.5q-67 0 -105 28.5z" />
    <glyph glyph-name="uni04D7" unicode="&#x4d7;" horiz-adv-x="623" 
d="M122 243q-1 -7 -1 -21q0 -80 45.5 -122t135.5 -42q52 0 97.5 17.5t74.5 48.5l32 -51q-37 -37 -92.5 -57.5t-117.5 -20.5q-114 0 -179.5 60t-65.5 164q0 88 37.5 159t104 111.5t149.5 40.5q105 0 167 -59.5t62 -163.5q0 -29 -7 -64h-442zM205 423q-56 -47 -76 -127h375
q1 7 1 19q0 74 -45 114.5t-120 40.5q-79 0 -135 -47zM282 629.5q-35 27.5 -35 74.5q0 13 3 26h49q-1 -6 -1 -16q0 -32 22.5 -51.5t61.5 -19.5q43 0 74 23.5t41 63.5h50q-13 -61 -57.5 -94.5t-111.5 -33.5q-61 0 -96 27.5z" />
    <glyph glyph-name="uni04D8" unicode="&#x4d8;" horiz-adv-x="819" 
d="M632.5 669.5q71.5 -36.5 109 -102t37.5 -152.5q0 -115 -51 -211.5t-144.5 -153t-215.5 -56.5q-97 0 -168.5 36.5t-109.5 101.5t-38 150q0 33 12 93h639q2 24 2 37q0 105 -64.5 166.5t-185.5 61.5q-69 0 -129 -21t-102 -59l-37 54q48 44 120 68t154 24q100 0 171.5 -36.5z
M519.5 91q65.5 33 110 90.5t63.5 130.5h-568l-1 -26q0 -106 66.5 -167t184.5 -61q79 0 144.5 33z" />
    <glyph glyph-name="uni04D9" unicode="&#x4d9;" horiz-adv-x="623" 
d="M503.5 471q65.5 -60 65.5 -164q0 -88 -37.5 -159t-104 -111.5t-149.5 -40.5q-105 0 -167 59.5t-62 163.5q0 29 7 64h442q1 7 1 21q0 80 -45.5 122t-135.5 42q-52 0 -97.5 -17.5t-74.5 -48.5l-32 51q37 37 92.5 57.5t117.5 20.5q114 0 179.5 -60zM415 103q56 47 76 127
h-375q-1 -7 -1 -19q0 -74 45 -114.5t120 -40.5q79 0 135 47z" />
    <glyph glyph-name="uni04DA" unicode="&#x4da;" horiz-adv-x="819" 
d="M632.5 669.5q71.5 -36.5 109 -102t37.5 -152.5q0 -115 -51 -211.5t-144.5 -153t-215.5 -56.5q-97 0 -168.5 36.5t-109.5 101.5t-38 150q0 33 12 93h639q2 24 2 37q0 105 -64.5 166.5t-185.5 61.5q-69 0 -129 -21t-102 -59l-37 54q48 44 120 68t154 24q100 0 171.5 -36.5z
M519.5 91q65.5 33 110 90.5t63.5 130.5h-568l-1 -26q0 -106 66.5 -167t184.5 -61q79 0 144.5 33zM402 791q-12 11 -12 27q0 21 13.5 34.5t31.5 13.5t29.5 -11t11.5 -29q0 -20 -13.5 -33t-31.5 -13q-17 0 -29 11zM580.5 791q-11.5 11 -11.5 27q0 21 13 34.5t32 13.5
q17 0 29 -11t12 -29q0 -20 -13.5 -33t-32.5 -13q-17 0 -28.5 11z" />
    <glyph glyph-name="uni04DB" unicode="&#x4db;" horiz-adv-x="623" 
d="M503.5 471q65.5 -60 65.5 -164q0 -88 -37.5 -159t-104 -111.5t-149.5 -40.5q-105 0 -167 59.5t-62 163.5q0 29 7 64h442q1 7 1 21q0 80 -45.5 122t-135.5 42q-52 0 -97.5 -17.5t-74.5 -48.5l-32 51q37 37 92.5 57.5t117.5 20.5q114 0 179.5 -60zM415 103q56 47 76 127
h-375q-1 -7 -1 -19q0 -74 45 -114.5t120 -40.5q79 0 135 47zM273 642q-12 11 -12 27q0 21 13.5 34.5t31.5 13.5t29.5 -11t11.5 -29q0 -20 -13.5 -33t-31.5 -13q-17 0 -29 11zM451.5 642q-11.5 11 -11.5 27q0 21 13 34.5t32 13.5q17 0 29 -11t12 -29q0 -20 -13.5 -33
t-32.5 -13q-17 0 -28.5 11z" />
    <glyph glyph-name="uni04DC" unicode="&#x4dc;" horiz-adv-x="1011" 
d="M766 359l168 -359h-84l-151 321h-145l-64 -321h-72l64 321h-145l-278 -321h-89l315 363l-154 337h78l139 -314h147l63 314h72l-63 -314h145l264 314h82zM499 791q-12 11 -12 27q0 21 13.5 34.5t31.5 13.5t29.5 -11t11.5 -29q0 -20 -13.5 -33t-31.5 -13q-17 0 -29 11z
M677.5 791q-11.5 11 -11.5 27q0 21 13 34.5t32 13.5q17 0 29 -11t12 -29q0 -20 -13.5 -33t-32.5 -13q-17 0 -28.5 11z" />
    <glyph glyph-name="uni04DD" unicode="&#x4dd;" horiz-adv-x="827" 
d="M619 265l137 -265h-83l-116 236h-113l-48 -236h-71l47 236h-111l-208 -236h-89l245 273l-123 253h75l109 -232h114l46 232h72l-47 -232h112l202 232h80zM376 642q-12 11 -12 27q0 21 13.5 34.5t31.5 13.5t29.5 -11t11.5 -29q0 -20 -13.5 -33t-31.5 -13q-17 0 -29 11z
M554.5 642q-11.5 11 -11.5 27q0 21 13 34.5t32 13.5q17 0 29 -11t12 -29q0 -20 -13.5 -33t-32.5 -13q-17 0 -28.5 11z" />
    <glyph glyph-name="uni04DE" unicode="&#x4de;" horiz-adv-x="636" 
d="M528.5 310q30.5 -38 30.5 -92q0 -66 -44.5 -118t-117.5 -80.5t-153 -28.5q-71 0 -135.5 23.5t-110.5 69.5l38 53q38 -40 93.5 -60t116.5 -20q62 0 117 20.5t89 58.5t34 88q0 53 -40.5 81t-117.5 28h-152l12 60h149q82 0 131 37t49 97q0 57 -45 87.5t-118 30.5
q-49 0 -103 -14.5t-106 -43.5l-13 61q118 61 232 61q100 0 165 -45.5t65 -124.5q0 -62 -41 -108.5t-111 -65.5q56 -17 86.5 -55zM306 791q-12 11 -12 27q0 21 13.5 34.5t31.5 13.5t29.5 -11t11.5 -29q0 -20 -13.5 -33t-31.5 -13q-17 0 -29 11zM484.5 791q-11.5 11 -11.5 27
q0 21 13 34.5t32 13.5q17 0 29 -11t12 -29q0 -20 -13.5 -33t-32.5 -13q-17 0 -28.5 11z" />
    <glyph glyph-name="uni04DF" unicode="&#x4df;" horiz-adv-x="525" 
d="M420 230.5q26 -28.5 26 -70.5q0 -47 -32.5 -85t-90 -59.5t-128.5 -21.5q-123 0 -201 67l30 50q29 -27 74 -41t98 -14q51 0 92 14t64 39t23 56q0 38 -33.5 59t-92.5 21h-87l8 54h75q68 0 109.5 25t41.5 66q0 38 -33 59t-91 21q-75 0 -167 -43l-20 59q96 46 193 46
q86 0 138.5 -35.5t52.5 -95.5q0 -46 -33 -80t-92 -49q50 -13 76 -41.5zM194 640q-12 11 -12 27q0 21 13.5 34.5t31.5 13.5t29.5 -11t11.5 -29q0 -20 -13.5 -33t-31.5 -13q-17 0 -29 11zM372.5 640q-11.5 11 -11.5 27q0 21 13 34.5t32 13.5q17 0 29 -11t12 -29
q0 -20 -13.5 -33t-32.5 -13q-17 0 -28.5 11z" />
    <glyph glyph-name="uni04E0" unicode="&#x4e0;" horiz-adv-x="593" 
d="M585 649l-247 -250q90 -7 138.5 -53t48.5 -123q0 -67 -36 -119t-101 -81t-150 -29q-80 0 -143.5 24.5t-97.5 66.5l41 56q28 -36 82 -58.5t122 -22.5q98 0 153.5 43t55.5 116q0 121 -169 121h-45l10 53l241 243h-356l13 64h450z" />
    <glyph glyph-name="uni04E1" unicode="&#x4e1;" horiz-adv-x="515" 
d="M496 475l-257 -260q95 -6 145 -52t50 -126q0 -73 -40 -127t-106.5 -82t-143.5 -28q-68 0 -130.5 23t-107.5 70l37 57q38 -42 92.5 -62.5t113.5 -20.5q57 0 105 19t77 57.5t29 92.5q0 60 -40.5 93t-125.5 33h-47l8 50l243 249h-355l13 65h449z" />
    <glyph glyph-name="uni04E2" unicode="&#x4e2;" horiz-adv-x="824" 
d="M206 700h72l-116 -580l564 580h67l-140 -700h-72l117 579l-565 -579h-67zM371 842h309l-10 -47h-308z" />
    <glyph glyph-name="uni04E3" unicode="&#x4e3;" horiz-adv-x="688" 
d="M154 526h71l-85 -425l432 425h68l-105 -526h-73l87 425l-432 -425h-69zM272 693h309l-10 -47h-308z" />
    <glyph glyph-name="uni04E4" unicode="&#x4e4;" horiz-adv-x="824" 
d="M206 700h72l-116 -580l564 580h67l-140 -700h-72l117 579l-565 -579h-67zM401 791q-12 11 -12 27q0 21 13.5 34.5t31.5 13.5t29.5 -11t11.5 -29q0 -20 -13.5 -33t-31.5 -13q-17 0 -29 11zM579.5 791q-11.5 11 -11.5 27q0 21 13 34.5t32 13.5q17 0 29 -11t12 -29
q0 -20 -13.5 -33t-32.5 -13q-17 0 -28.5 11z" />
    <glyph glyph-name="uni04E5" unicode="&#x4e5;" horiz-adv-x="688" 
d="M154 526h71l-85 -425l432 425h68l-105 -526h-73l87 425l-432 -425h-69zM302 642q-12 11 -12 27q0 21 13.5 34.5t31.5 13.5t29.5 -11t11.5 -29q0 -20 -13.5 -33t-31.5 -13q-17 0 -29 11zM480.5 642q-11.5 11 -11.5 27q0 21 13 34.5t32 13.5q17 0 29 -11t12 -29
q0 -20 -13.5 -33t-32.5 -13q-17 0 -28.5 11z" />
    <glyph glyph-name="uni04E6" unicode="&#x4e6;" horiz-adv-x="860" 
d="M223 30.5q-73 36.5 -111 102t-38 152.5q0 115 52 211.5t148 153t222 56.5q102 0 175 -36.5t111.5 -102t38.5 -152.5q0 -115 -52.5 -211.5t-148.5 -153t-222 -56.5q-102 0 -175 36.5zM584 107.5q78 47.5 120.5 128t42.5 176.5q0 104 -67 166t-191 62q-101 0 -179 -47.5
t-120.5 -128t-42.5 -175.5q0 -105 67 -167t191 -62q101 0 179 47.5zM421 791q-12 11 -12 27q0 21 13.5 34.5t31.5 13.5t29.5 -11t11.5 -29q0 -20 -13.5 -33t-31.5 -13q-17 0 -29 11zM599.5 791q-11.5 11 -11.5 27q0 21 13 34.5t32 13.5q17 0 29 -11t12 -29q0 -20 -13.5 -33
t-32.5 -13q-17 0 -28.5 11z" />
    <glyph glyph-name="uni04E7" unicode="&#x4e7;" horiz-adv-x="644" 
d="M163 22.5q-54 27.5 -83.5 78t-29.5 117.5q0 89 39 160t108.5 111.5t156.5 40.5q110 0 174.5 -60t64.5 -162q0 -89 -39 -160.5t-108.5 -112t-156.5 -40.5q-72 0 -126 27.5zM411 89.5q52 31.5 81.5 88t29.5 126.5q0 77 -45.5 120.5t-127.5 43.5q-65 0 -117 -32t-81.5 -88.5
t-29.5 -126.5q0 -77 45.5 -120t127.5 -43q65 0 117 31.5zM281 642q-12 11 -12 27q0 21 13.5 34.5t31.5 13.5t29.5 -11t11.5 -29q0 -20 -13.5 -33t-31.5 -13q-17 0 -29 11zM459.5 642q-11.5 11 -11.5 27q0 21 13 34.5t32 13.5q17 0 29 -11t12 -29q0 -20 -13.5 -33t-32.5 -13
q-17 0 -28.5 11z" />
    <glyph glyph-name="uni04E8" unicode="&#x4e8;" horiz-adv-x="839" 
d="M213 30.5q-73 36.5 -111 102t-38 152.5q0 115 52 211.5t148 153t222 56.5q102 0 175 -36.5t111.5 -102t38.5 -152.5q0 -115 -52.5 -211.5t-148.5 -153t-222 -56.5q-102 0 -175 36.5zM574 107.5q78 47.5 120.5 128t42.5 176.5q0 104 -67 166t-191 62q-101 0 -179 -47.5
t-120.5 -128t-42.5 -175.5q0 -105 67 -167t191 -62q101 0 179 47.5zM94.1836 380h691.82l-9.53613 -60h-690.954z" />
    <glyph glyph-name="uni04E9" unicode="&#x4e9;" horiz-adv-x="654" 
d="M539 470q66 -60 66 -162q0 -89 -39.5 -160.5t-110 -112t-161.5 -40.5q-75 0 -130 27.5t-85 78t-30 117.5q0 89 39.5 160t110.5 111.5t161 40.5q113 0 179 -60zM208.5 419q-60.5 -49 -79.5 -130h404v15q0 78 -46.5 121t-132.5 43q-85 0 -145.5 -49zM446 107q61 49 80 131
h-405v-17q0 -78 46.5 -120.5t132.5 -42.5q85 0 146 49z" />
    <glyph glyph-name="uni04EA" unicode="&#x4ea;" horiz-adv-x="839" 
d="M213 30.5q-73 36.5 -111 102t-38 152.5q0 115 52 211.5t148 153t222 56.5q102 0 175 -36.5t111.5 -102t38.5 -152.5q0 -115 -52.5 -211.5t-148.5 -153t-222 -56.5q-102 0 -175 36.5zM574 107.5q78 47.5 120.5 128t42.5 176.5q0 104 -67 166t-191 62q-101 0 -179 -47.5
t-120.5 -128t-42.5 -175.5q0 -105 67 -167t191 -62q101 0 179 47.5zM94.1836 380h691.82l-9.53613 -60h-690.954zM411 791q-12 11 -12 27q0 21 13.5 34.5t31.5 13.5t29.5 -11t11.5 -29q0 -20 -13.5 -33t-31.5 -13q-17 0 -29 11zM589.5 791q-11.5 11 -11.5 27q0 21 13 34.5
t32 13.5q17 0 29 -11t12 -29q0 -20 -13.5 -33t-32.5 -13q-17 0 -28.5 11z" />
    <glyph glyph-name="uni04EB" unicode="&#x4eb;" horiz-adv-x="654" 
d="M539 470q66 -60 66 -162q0 -89 -39.5 -160.5t-110 -112t-161.5 -40.5q-75 0 -130 27.5t-85 78t-30 117.5q0 89 39.5 160t110.5 111.5t161 40.5q113 0 179 -60zM208.5 419q-60.5 -49 -79.5 -130h404v15q0 78 -46.5 121t-132.5 43q-85 0 -145.5 -49zM446 107q61 49 80 131
h-405v-17q0 -78 46.5 -120.5t132.5 -42.5q85 0 146 49zM286 642q-12 11 -12 27q0 21 13.5 34.5t31.5 13.5t29.5 -11t11.5 -29q0 -20 -13.5 -33t-31.5 -13q-17 0 -29 11zM464.5 642q-11.5 11 -11.5 27q0 21 13 34.5t32 13.5q17 0 29 -11t12 -29q0 -20 -13.5 -33t-32.5 -13
q-17 0 -28.5 11z" />
    <glyph glyph-name="uni04EC" unicode="&#x4ec;" horiz-adv-x="708" 
d="M537.5 668.5q64.5 -37.5 100 -103.5t35.5 -150q0 -115 -59 -212t-158 -153t-211 -56q-82 0 -145 26t-99 77l56 47q67 -84 198 -84q77 0 147 34.5t119 95t67 136.5h-364l11 61h362v16q0 68 -28 122t-79.5 84.5t-118.5 30.5q-133 0 -231 -84l-38 47q56 50 130 76.5
t156 26.5q85 0 149.5 -37.5zM309 791q-12 11 -12 27q0 21 13.5 34.5t31.5 13.5t29.5 -11t11.5 -29q0 -20 -13.5 -33t-31.5 -13q-17 0 -29 11zM487.5 791q-11.5 11 -11.5 27q0 21 13 34.5t32 13.5q17 0 29 -11t12 -29q0 -20 -13.5 -33t-32.5 -13q-17 0 -28.5 11z" />
    <glyph glyph-name="uni04ED" unicode="&#x4ed;" horiz-adv-x="574" 
d="M414 502.5q55 -27.5 85 -78.5t30 -118q0 -84 -46 -155.5t-123.5 -114t-167.5 -42.5q-64 0 -115.5 22t-80.5 60l45 37q25 -29 65.5 -45t87.5 -16q60 0 113 24.5t90.5 67.5t52.5 96h-282l12 54h279v10q0 78 -49 123.5t-132 45.5q-49 0 -94 -16t-82 -47l-35 41q41 37 99 58
t121 21q72 0 127 -27.5zM223 639q-12 11 -12 27q0 21 13.5 34.5t31.5 13.5t29.5 -11t11.5 -29q0 -20 -13.5 -33t-31.5 -13q-17 0 -29 11zM401.5 639q-11.5 11 -11.5 27q0 21 13 34.5t32 13.5q17 0 29 -11t12 -29q0 -20 -13.5 -33t-32.5 -13q-17 0 -28.5 11z" />
    <glyph glyph-name="uni04EE" unicode="&#x4ee;" horiz-adv-x="681" 
d="M756 700l-435 -591q-89 -122 -199 -122q-44 0 -86 20l27 58q33 -13 60 -13q73 0 133 78l30 36l-177 534h77l150 -472l344 472h76zM295 842h309l-10 -47h-308z" />
    <glyph glyph-name="uni04EF" unicode="&#x4ef;" horiz-adv-x="558" 
d="M597 526l-384 -594q-48 -74 -90 -102.5t-100 -28.5q-38 0 -72 12.5t-53 34.5l38 52q36 -38 93 -38q35 0 63 19t58 66l37 56l-131 523h72l109 -448l287 448h73zM191 693h309l-10 -47h-308z" />
    <glyph glyph-name="uni04F0" unicode="&#x4f0;" horiz-adv-x="681" 
d="M756 700l-435 -591q-89 -122 -199 -122q-44 0 -86 20l27 58q33 -13 60 -13q73 0 133 78l30 36l-177 534h77l150 -472l344 472h76zM325 791q-12 11 -12 27q0 21 13.5 34.5t31.5 13.5t29.5 -11t11.5 -29q0 -20 -13.5 -33t-31.5 -13q-17 0 -29 11zM503.5 791
q-11.5 11 -11.5 27q0 21 13 34.5t32 13.5q17 0 29 -11t12 -29q0 -20 -13.5 -33t-32.5 -13q-17 0 -28.5 11z" />
    <glyph glyph-name="uni04F1" unicode="&#x4f1;" horiz-adv-x="558" 
d="M597 526l-384 -594q-48 -74 -90 -102.5t-100 -28.5q-38 0 -72 12.5t-53 34.5l38 52q36 -38 93 -38q35 0 63 19t58 66l37 56l-131 523h72l109 -448l287 448h73zM221 642q-12 11 -12 27q0 21 13.5 34.5t31.5 13.5t29.5 -11t11.5 -29q0 -20 -13.5 -33t-31.5 -13
q-17 0 -29 11zM399.5 642q-11.5 11 -11.5 27q0 21 13 34.5t32 13.5q17 0 29 -11t12 -29q0 -20 -13.5 -33t-32.5 -13q-17 0 -28.5 11z" />
    </font>
</defs>
</svg>
